osu file format v5

[General]
AudioFilename: Metal Mario Theme.mp3
AudioLeadIn: 1015
PreviewTime: -1
Countdown: 0
SampleSet: Normal
StackLeniency: 0.7
Mode: 0
LetterboxInBreaks: 1
EditorBookmarks: 634,4320,48962

[Metadata]
Title:Metallic Mario
Artist:Koji Kondo
Creator:Seibei4211
Version:Mama Mia!
Source:
Tags:Metal Mario

[Difficulty]
HPDrainRate:6
CircleSize:6
OverallDifficulty:6
SliderMultiplier:1.8
SliderTickRate:1

[Events]
//Background and Video events
0,0,"Metal Mario Theme - Koji Kondo.jpg"
//Break Periods
2,24384,26615
//Storyboard Layer 0 (Background)
//Storyboard Layer 1 (Failing)
//Storyboard Layer 2 (Passing)
//Storyboard Layer 3 (Foreground)
//Storyboard Sound Samples
//Background Colour Transformations
3,100,0,0,0

[TimingPoints]
225,409.556313993174,4,1,0,90,0
1454,409.556313993174,4,1,0,65,1
2989,409.556313993174,4,1,0,40,0
4628,409.556313993174,4,1,0,65,0
4832,409.556313993174,4,1,0,80,0
6266,409.556313993174,4,1,0,100,0
6470,409.556313993174,4,1,0,80,0
7904,409.556313993174,4,1,0,100,0
8108,409.556313993174,4,1,0,80,0
9541,409.556313993174,4,1,0,100,0
9745,409.556313993174,4,1,0,80,0
11180,409.556313993174,4,1,0,65,0
17733,409.556313993174,4,1,0,100,0
17937,409.556313993174,4,1,0,80,0
18348,409.556313993174,4,1,0,100,0
18552,409.556313993174,4,1,0,80,0
19370,409.556313993174,4,1,0,100,0
19574,409.556313993174,4,1,0,80,0
19985,409.556313993174,4,1,0,100,0
20189,409.556313993174,4,1,0,80,0
21007,409.556313993174,4,1,0,100,0
21211,409.556313993174,4,1,0,80,0
21622,409.556313993174,4,1,0,100,0
21826,409.556313993174,4,1,0,80,0
22644,409.556313993174,4,1,0,100,0
22848,409.556313993174,4,1,0,80,0
27563,409.556313993174,4,1,0,100,0
27767,409.556313993174,4,1,0,80,0
29200,409.556313993174,4,1,0,100,0
29404,409.556313993174,4,1,0,80,0
30839,409.556313993174,4,1,0,65,0
34113,409.556313993174,4,2,0,80,0
40669,409.556313993174,4,1,0,100,0
40873,409.556313993174,4,1,0,80,0
42306,409.556313993174,4,1,0,50,0
43944,409.556313993174,4,1,0,100,0
44148,409.556313993174,4,1,0,80,0
45581,409.556313993174,4,1,0,50,0

[HitObjects]
155,92,634,1,0
218,156,839,1,0
153,218,1044,1,0
203,249,1180,1,0
153,283,1317,1,0
101,251,1454,5,0
38,186,1658,1,0
103,124,1863,1,0
193,124,2068,1,0
193,124,2170,1,0
277,91,2375,1,0
339,156,2580,1,0
339,156,2682,1,0
339,156,2785,1,0
339,156,2887,1,0
257,219,3092,5,4
257,219,3194,1,0
257,219,3297,1,0
257,219,3399,1,0
212,220,3501,5,4
212,220,3604,1,0
212,220,3706,1,0
212,220,3808,1,0
166,220,3911,5,4
166,220,4013,1,0
166,220,4116,2,0,B|166:191,4,22.5,0|0|0|4|0
166,220,4423,5,0
166,220,4525,1,0
53,187,4730,5,0
209,58,5037,1,0
411,60,5344,1,0
259,284,5754,1,0
140,219,5959,1,0
270,188,6163,1,0
142,61,6368,5,0
334,124,6675,1,0
133,156,6983,1,0
369,285,7392,1,0
463,188,7597,1,0
417,60,7802,1,0
249,124,8006,5,0
91,251,8314,1,0
293,252,8621,1,0
56,123,9030,1,0
175,59,9235,1,0
305,92,9440,1,0
151,187,9645,5,0
350,219,9952,1,0
158,283,10259,1,0
375,123,10669,1,0
240,124,10873,1,0
104,123,11078,1,0
42,188,11283,5,0
106,250,11488,1,0
170,187,11692,1,0
260,187,11898,1,0
260,187,12000,1,0
170,187,12204,1,0
260,187,12409,1,0
260,187,12512,1,0
260,187,12614,1,0
260,187,12716,1,0
325,124,12921,5,0
408,157,13126,1,0
469,91,13331,1,0
384,60,13535,2,0,B|328:60,1,45
254,91,13843,1,0
164,91,14047,2,0,B|107:91,1,45
86,58,14252,2,0,B|38:58,1,45
28,147,14559,5,0
109,185,14764,1,0
169,251,14969,1,0
232,186,15174,1,0
232,186,15276,1,0
315,220,15481,1,0
379,156,15686,2,0,B|427:156,1,45
424,156,15890,1,0
424,156,15993,1,0
486,91,16198,5,0
396,91,16402,1,0
312,58,16607,1,0
228,91,16812,1,0
228,91,16914,1,0
144,58,17119,1,0
82,123,17324,1,0
82,123,17426,1,0
82,123,17529,2,0,B|140:123,1,45
294,188,17836,5,0
102,252,18143,1,0
258,124,18450,1,0
449,315,18860,1,0
354,219,19064,1,0
449,123,19269,1,0
295,29,19474,5,0
117,94,19781,1,0
295,155,20088,1,0
78,284,20498,1,0
186,220,20703,1,0
307,253,20907,1,0
433,124,21112,5,0
269,60,21419,1,0
95,91,21727,1,0
307,187,22136,1,0
307,187,22341,1,0
189,188,22546,1,0
368,188,22750,5,0
467,59,23058,1,0
305,59,23365,1,0
99,124,23774,1,0
207,124,23979,1,0
99,124,24184,1,0
421,60,27665,5,0
243,156,27972,1,0
64,60,28279,1,0
334,61,28689,1,0
198,61,28894,1,0
64,60,29099,1,0
145,219,29303,5,0
345,188,29610,1,0
144,154,29918,1,0
396,60,30327,1,0
396,60,30532,1,0
396,60,30737,1,0
311,91,30942,5,0
226,60,31146,1,0
141,91,31351,1,0
78,155,31556,1,0
78,155,31658,1,0
168,156,31863,1,0
252,188,32068,1,0
252,188,32170,2,0,B|289:221,1,45
285,217,32375,1,0
368,251,32580,5,0
452,219,32785,1,0
387,156,32989,1,0
302,123,33194,1,0
302,123,33297,1,0
218,91,33501,1,0
302,59,33706,2,0,B|351:59,1,45
345,13,33911,2,0,B|288:14,1,45
210,27,34218,5,0
91,91,34525,1,0
129,220,34832,2,0,B|226:261|339:229|385:156,1,270
344,84,35651,5,0
284,156,35856,1,0
189,251,36163,1,0
57,220,36471,2,0,B|150:279|233:185|177:104|113:90,1,270
123,92,37290,6,0,B|218:92,1,90
344,59,37802,1,0
437,155,38109,2,0,B|160:155,1,270
167,155,38928,1,0
83,187,39133,5,0
42,315,39440,1,0
136,219,39747,2,0,B|240:288|280:217|315:201|407:237,1,270
472,187,40566,1,0
344,60,40771,5,0
151,124,41078,1,0
342,188,41385,1,0
73,220,41795,1,0
192,283,42000,1,0
310,219,42204,1,0
189,157,42409,5,0
272,124,42614,1,0
207,60,42819,1,0
296,60,43023,1,0
296,60,43126,1,0
380,92,43331,1,0
318,156,43535,1,0
318,156,43638,1,0
318,156,43740,1,0
318,156,43843,1,0
138,156,44047,5,0
330,220,44355,1,0
138,284,44662,1,0
224,28,45071,1,0
359,28,45276,1,0
283,139,45481,1,0
148,155,45686,5,0
64,188,45890,1,0
148,220,46095,1,0
238,219,46300,2,0,B|288:219,1,45
347,156,46607,1,0
411,219,46812,2,0,B|459:219,3,45
256,192,47324,12,0,48962
