osu file format v9

[General]
AudioFilename: Super Smash Bros Brawl Main Theme Legend of Zelda.mp3
AudioLeadIn: 0
PreviewTime: 117424
Countdown: 0
SampleSet: Soft
StackLeniency: 0.5
Mode: 0
LetterboxInBreaks: 0

[Editor]
Bookmarks: 62641,77772,79859,81946,84033,86381,87946,90033,91207,92250,92902,96555,159163,174294,176381,178468,180555,182902,184468,186555,187728,188772,189424,193076,201423
DistanceSpacing: 1
BeatDivisor: 4
GridSize: 8

[Metadata]
Title:Main Theme Legend of Zelda (SSBB Remix)
Artist:Koji Kondo
Creator:GladiOol
Version:Normal
Source:Super Smash Bros. Brawl
Tags:Toon Link Zelda Brothers Mix Nintendo

[Difficulty]
HPDrainRate:4
CircleSize:4
OverallDifficulty:3
ApproachRate:4
SliderMultiplier:1.3
SliderTickRate:2

[Events]
//Background and Video events
0,0,"Young-Zelda-1-8BA6PLMWMS-1024x768.jpg"
//Break Periods
2,62841,76452
2,105102,107756
2,159363,172974
//Storyboard Layer 0 (Background)
//Storyboard Layer 1 (Fail)
//Storyboard Layer 2 (Pass)
//Storyboard Layer 3 (Foreground)
//Storyboard Sound Samples
//Background Colour Transformations
3,100,163,162,255

[TimingPoints]
12555,521.739130434783,4,2,0,50,1,0
35772,-66.6666666666667,4,1,0,20,0,0
37598,-100,4,2,0,50,0,0
48294,-100,4,1,0,20,0,0
49076,-100,4,2,0,50,0,0
52468,-100,4,1,0,20,0,0
53250,-100,4,2,0,50,0,0
60815,-66.6666666666667,4,1,0,20,0,0
62641,-100,4,2,0,20,0,0
77772,-100,4,2,1,50,0,0
94468,-100,4,2,1,20,0,0
96555,521.739130434783,4,2,0,50,1,0
96555,-200,4,2,1,50,0,0
109076,-100,4,2,0,50,0,0
132294,-66.6666666666667,4,1,0,20,0,0
134120,-100,4,2,0,50,0,0
144815,-100,4,1,0,20,0,0
145598,-100,4,2,0,50,0,0
148989,-100,4,1,0,20,0,0
149772,-100,4,2,0,50,0,0
157337,-66.6666666666667,4,1,0,20,0,0
159163,-100,4,2,0,20,0,0
174294,-100,4,2,1,50,0,0
190989,-100,4,2,1,20,0,0
193076,521.739130434783,4,2,0,50,1,0
193076,-200,4,2,1,50,0,0

[Colours]
Combo1 : 154,154,154
Combo2 : 54,186,10
Combo3 : 2,157,208
Combo4 : 233,227,12
Combo5 : 205,205,205

[HitObjects]
448,128,12554,1,6
448,128,13076,2,0,B|384:104|296:96,1,130,2|0
264,128,13859,2,0,B|224:120|200:112,1,65,0|2
80,72,14641,5,6
80,72,14902,2,0,B|64:112|56:144,1,65,0|2
88,264,15685,2,0,B|152:288|216:296,1,130,2|0
328,352,16728,6,0,B|352:288|368:208,1,130,6|2
456,136,17772,1,0
456,136,18033,2,0,B|448:96|440:72,2,65,2|0|0
400,168,18815,38,0,B|336:160|264:136,1,130,6|0
152,184,19859,2,0,B|144:136|136:64,2,97.5,6|2|2
160,248,20902,5,6
264,320,21424,2,0,B|336:312|416:280,1,130,2|0
432,240,22207,1,0
432,240,22468,1,2
416,112,22989,6,0,B|352:112|272:88,1,130,6|2
224,72,23772,2,0,B|208:40|216:0,1,65
120,96,24555,2,0,B|136:128|128:168,1,65,2|0
120,224,25076,38,0,B|184:224|264:248,1,130,6|0
352,320,26120,1,2
424,216,26641,1,6
392,88,27163,6,0,B|328:88|248:112,1,130,6|2
200,128,27946,2,0,B|160:120|112:104,1,65,0|2
48,208,28728,1,6
136,304,29250,6,0,B|208:288|280:264,1,130,6|0
320,248,30033,2,0,B|344:272|336:312,1,65,0|2
400,192,30815,2,0,B|376:168|384:128,1,65,2|0
384,64,31337,38,0,B|312:80|240:104,1,130,6|0
200,120,32120,2,0,B|176:96|184:56,1,65,0|2
120,176,32902,2,0,B|144:200|136:240,1,65,6|0
136,304,33424,6,0,B|208:288|280:264,1,130,6|6
312,224,34207,1,0
376,248,34468,2,0,B|400:312|408:384,2,130,2|6|6
408,136,36033,5,0
256,96,36555,1,0
104,136,37076,1,0
88,264,37598,37,6
88,264,38120,2,0,B|152:272|224:288,1,130,2|0
264,336,38902,2,0,B|272:304|288:272,1,65,0|6
408,224,39685,6,0,B|400:192|384:160,1,65,6|0
344,112,40207,2,0,B|280:120|208:136,1,130,2|2
144,200,41120,5,0
144,200,41250,2,0,B|136:240|136:280,3,43.3333333333333,2|0|0|6
232,328,42294,1,0
288,208,42815,1,0
408,264,43337,1,2
456,144,43859,38,0,B|392:136|320:112,1,130,6|2
208,72,44902,1,0
144,184,45424,1,6
192,304,45946,6,0,B|168:320|128:312,2,43.3333333333333,6|0|0
208,264,46468,2,0,B|232:248|272:256,2,43.3333333333333,2|0|0
240,296,46989,2,0,B|296:312|368:320,1,130,2|6
464,232,48033,6,0,B|424:240|400:208,1,65,6|0
360,168,48554,2,0,B|368:208|336:232,1,65,4|0
296,272,49076,2,0,B|224:272|144:256,1,130,6|6
96,152,50120,38,0,B|80:128|80:104,2,43.3333333333333,6|0|0
80,192,50641,2,0,B|96:216|96:240,2,43.3333333333333,2|0|0
120,184,51163,2,0,B|192:168|256:144,1,130,2|6
344,64,52207,6,0,B|384:72|400:120,1,65,6|0
456,128,52728,2,0,B|432:160|432:208,1,65,4|0
456,248,53250,2,0,B|400:280|320:288,1,130,6|6
216,344,54294,2,0,B|176:288|144:208,1,130,6|0
152,104,55337,1,0
256,32,55859,1,6
360,112,56381,6,0,B|400:168|432:248,1,130,6|2
368,344,57424,1,0
288,248,57946,1,6
168,304,58468,37,6
168,304,58728,2,0,B|144:272|160:232,1,65,0|2
184,112,59511,1,0
288,32,60033,2,0,B|368:48|440:72,1,130,6|6
408,256,61076,5,0
256,296,61598,1,0
104,256,62119,1,0
256,296,62641,1,2
120,32,77772,22,0,B|104:104|104:184,1,130,10|0
208,232,78815,2,0,B|224:160|224:80,1,130,2|0
336,32,79859,5,10
424,128,80381,1,0
384,256,80902,2,0,B|320:280|248:288,1,130
152,360,81946,54,0,B|128:296|120:224,1,130,10|0
192,56,83250,2,0,B|256:32|328:24,1,130,2|0
368,64,84033,6,0,B|392:128|400:200,1,130,10|0
352,312,85076,1,0
224,352,85598,1,0
128,264,86120,54,0,B|112:232|128:200,1,65,0|10
80,80,86902,2,0,B|152:64,1,65,0|2
256,136,87685,2,0,B|328:120,1,65,0|10
384,112,88207,6,0,B|400:144|384:176,1,65,0|0
432,296,88989,1,0
432,296,89250,2,0,B|368:312|288:320,1,130,2|2
240,296,90033,54,0,B|216:272|232:232,3,65,10|0|0|0
248,176,91076,2,0,B|336:152,3,65,10|0|0|0
352,112,92120,2,0,B|368:80|352:48,3,65,10|0|0|0
256,192,93033,12,0,94468
240,72,96555,21,14
176,80,97076,1,0
112,88,97598,1,2
272,152,98641,37,14
336,160,99162,1,0
400,168,99684,1,2
240,224,100728,37,14
176,232,101249,1,0
112,240,101771,1,2
272,312,102815,21,14
336,320,103336,1,0
400,328,103858,1,2
256,192,104902,53,14
128,104,109076,38,0,B|64:88|8:56,2,130,6|2|0
192,120,110381,2,0,B|216:152|200:200,1,65,0|2
319,263,111163,6,0,B|296:232|307:202,1,65,6|0
352,152,111685,2,0,B|416:135|472:103,2,130,2|2|0
232,104,113250,6,0,B|208:168|200:248,1,130,6|2
264,344,114294,1,0
264,344,114555,2,0,B|304:352|352:328,1,65,0|2
416,240,115337,38,0,B|408:200|432:168,1,65,6|0
472,128,115859,2,0,B|416:96,1,65,2|0
352,72,116381,2,0,B|232:88,2,97.5,6|2|2
360,136,117424,6,0,B|336:200|328:288,1,130,6|2
160,352,118728,2,0,B|136:320|152:272,1,65,0|2
152,224,119250,1,0
200,176,119511,6,0,B|264:208|344:208,1,130,6|2
440,144,120555,1,2
344,56,121076,2,0,B|304:56|280:40,1,65,0|0
224,16,121598,38,0,B|152:8|80:64,1,130,6|0
56,176,122641,1,2
144,272,123163,2,0,B|184:288|232:272,1,65,6|0
264,248,123685,6,0,B|336:256|416:280,1,130,6|2
456,160,124728,1,2
376,56,125250,1,6
264,128,125772,6,0,B|200:120|136:96,1,130,6|2
74,82,126555,2,0,B|42:106|58:162,1,65,0|2
72,272,127337,1,2
192,312,127859,38,0,B|256:320|320:344,1,130,6|2
382,358,128642,2,0,B|414:334|398:278,1,65,0|2
384,168,129424,1,6
296,72,129946,6,0,B|224:72|152:96,1,130,6|6
104,72,130728,2,0,B|96:112|96:160,1,65,0|2
88,264,131511,1,2
184,344,132033,1,6
376,312,132555,5,0
432,128,133076,1,0
376,312,133598,1,0
432,128,134120,38,0,B|384:80|312:80,1,130,6|2
136,160,135424,2,0,B|112:128|128:88,2,65,0|6|0
168,216,136207,6,0,B|240:216|304:176,1,130,6|2
360,72,137250,1,2
440,128,137641,5,0
440,128,137772,2,0,B|448:160|448:192,3,43.3333333333333,2|0|0|6
400,296,138815,1,0
280,344,139337,1,0
192,248,139859,1,2
224,120,140381,38,0,B|152:128|80:64,1,130,6|2
56,200,141424,1,0
120,312,141946,1,6
232,248,142468,6,0,B|216:224|216:192,2,43.3333333333333,6|0|0
272,272,142989,2,0,B|288:296|288:328,2,43.3333333333333,2|0|0
280,232,143511,2,0,B|352:240|408:272,1,130,2|6
488,168,144555,6,0,B|464:128|480:88,1,65,6|0
480,40,145076,2,0,B|400:32,1,65,4|0
352,32,145598,2,0,B|280:16|224:80,1,130,6|6
280,248,146641,38,0,B|296:224|296:192,2,43.3333333333333,6|0|0
240,272,147162,2,0,B|224:296|224:328,2,43.3333333333333,2|0|0
232,232,147684,2,0,B|160:240|104:272,1,130,2|6
24,168,148728,6,0,B|48:128|32:88,1,65,6|0
32,40,149249,2,0,B|112:32,1,65,4|0
160,32,149771,2,0,B|224:24|288:80,1,130,6|6
408,80,150815,2,0,B|360:136|368:232,1,130,6|0
392,328,151859,1,0
392,328,152381,1,6
264,360,152902,6,0,B|200:344|128:304,1,130,6|2
96,192,153946,1,0
200,112,154468,1,6
304,192,154989,37,6
304,192,155250,2,0,B|336:184|376:160,1,65,0|2
440,272,156033,1,0
328,344,156555,2,0,B|272:304|192:288,1,130,6|6
104,128,157598,5,0
296,80,158120,1,0
104,128,158641,1,0
296,80,159163,1,2
392,32,174294,22,0,B|408:104|408:184,1,130,10|0
304,232,175337,2,0,B|288:160|288:80,1,130,2|0
176,32,176381,5,10
88,128,176903,1,0
128,256,177424,2,0,B|192:280|264:288,1,130
360,360,178468,54,0,B|384:296|392:224,1,130,10|0
320,56,179772,2,0,B|256:32|184:24,1,130,2|0
144,64,180555,6,0,B|120:128|112:200,1,130,10|0
160,312,181598,1,0
288,352,182120,1,0
384,264,182642,54,0,B|400:232|384:200,1,65,0|10
432,80,183424,2,0,B|360:64,1,65,0|2
256,136,184207,2,0,B|184:120,1,65,0|10
128,112,184729,6,0,B|112:144|128:176,1,65,0|0
80,296,185511,1,0
80,296,185772,2,0,B|144:312|224:320,1,130,2|2
272,296,186555,54,0,B|296:272|280:232,3,65,10|0|0|0
264,176,187598,2,0,B|176:152,3,65,10|0|0|0
160,112,188642,2,0,B|144:80|160:48,3,65,10|0|0|0
256,192,189555,12,0,190990
376,176,193076,21,14
368,112,193597,1,0
360,48,194119,1,2
296,208,195162,37,14
288,272,195683,1,0
280,336,196205,1,2
224,176,197249,37,14
216,112,197770,1,0
208,48,198292,1,2
136,208,199336,21,14
128,272,199857,1,0
120,336,200379,1,2
256,192,201423,53,14
