osu file format v9

[General]
AudioFilename: Super Smash Bros Brawl Main Theme Legend of Zelda.mp3
AudioLeadIn: 0
PreviewTime: 117424
Countdown: 0
SampleSet: Soft
StackLeniency: 0.5
Mode: 0
LetterboxInBreaks: 0

[Editor]
Bookmarks: 62641,77772,79859,81946,84033,86381,87946,90033,91207,92250,92902,96555,159163,174294,176381,178468,180555,182902,184468,186555,187728,188772,189424,193076,201423
DistanceSpacing: 1.6
BeatDivisor: 4
GridSize: 8

[Metadata]
Title:Main Theme Legend of Zelda (SSBB Remix)
Artist:Koji Kondo
Creator:GladiOol
Version:Hard
Source:Super Smash Bros. Brawl
Tags:Toon Link Zelda Brothers Mix Nintendo

[Difficulty]
HPDrainRate:6
CircleSize:5
OverallDifficulty:6
ApproachRate:6
SliderMultiplier:1.6
SliderTickRate:2

[Events]
//Background and Video events
0,0,"Young-Zelda-1-8BA6PLMWMS-1024x768.jpg"
//Break Periods
2,62840,76722
2,105102,108026
2,159362,173244
//Storyboard Layer 0 (Background)
//Storyboard Layer 1 (Fail)
//Storyboard Layer 2 (Pass)
//Storyboard Layer 3 (Foreground)
//Storyboard Sound Samples
//Background Colour Transformations
3,100,163,162,255

[TimingPoints]
12555,521.739130434783,4,2,0,50,1,0
35772,-66.6666666666667,4,1,0,20,0,0
37598,-100,4,2,0,50,0,0
48294,-100,4,1,0,20,0,0
49076,-100,4,2,0,50,0,0
52468,-100,4,1,0,20,0,0
53250,-100,4,2,0,50,0,0
60815,-66.6666666666667,4,1,0,20,0,0
62641,-100,4,2,0,20,0,0
77772,-100,4,2,1,50,0,0
94468,-100,4,2,1,10,0,0
96555,521.739130434783,4,2,0,50,1,0
96555,-200,4,2,1,50,0,0
109076,-100,4,2,0,50,0,0
132294,-66.6666666666667,4,1,0,20,0,0
134120,-100,4,2,0,50,0,0
144815,-100,4,1,0,20,0,0
145598,-100,4,2,0,50,0,0
148989,-100,4,1,0,20,0,0
149772,-100,4,2,0,50,0,0
157337,-66.6666666666667,4,1,0,20,0,0
159163,-100,4,2,0,20,0,0
174294,-100,4,2,1,50,0,0
190989,-100,4,2,1,10,0,0
193076,521.739130434783,4,2,0,50,1,0
193076,-200,4,2,1,50,0,0

[Colours]
Combo1 : 154,154,154
Combo2 : 54,186,10
Combo3 : 2,157,208
Combo4 : 233,227,12
Combo5 : 205,205,205

[HitObjects]
280,104,12554,2,0,B|384:72|440:184,1,160,6|2
456,224,13337,1,0
416,288,13598,1,0
344,312,13859,1,2
272,280,14120,1,0
248,248,14250,1,0
248,208,14381,1,2
264,176,14511,1,0
296,160,14641,6,0,B|336:144|360:88,1,80,6|0
320,32,15163,1,2
280,16,15294,1,0
240,24,15424,1,0
216,56,15554,1,0
216,96,15685,2,0,B|176:104|128:72,1,80,2|0
72,40,16207,1,0
144,184,16728,6,0,B|88:240|128:344,2,160,6|2|0
216,152,18033,1,2
280,200,18294,1,0
296,240,18424,1,0
328,264,18554,1,2
368,272,18685,1,0
408,256,18815,38,0,B|424:216|424:168,1,80,6|2
352,72,19337,2,0,B|336:112|336:160,1,80,0|2
216,112,19859,2,0,B|240:240,1,120,6|2
128,352,20641,1,2
56,272,20902,6,0,B|0:200|40:112,1,160,6|2
88,56,21685,1,0
88,56,21815,1,0
88,56,21946,1,0
168,32,22207,1,2
216,96,22468,1,2
192,128,22598,1,0
184,168,22728,1,2
200,208,22859,1,0
232,232,22989,6,0,B|272:232|312:200,1,80,6|0
368,152,23511,1,2
408,136,23641,1,0
448,144,23772,1,2
472,176,23902,1,0
472,216,24033,2,0,B|472:264|448:304,1,80,2|0
392,344,24555,1,2
392,344,24685,1,0
392,344,24815,1,0
296,280,25076,38,0,B|240:208|280:120,1,160,6|0
296,56,25859,1,0
296,56,25989,1,0
296,56,26120,2,0,B|224:-8|120:48,1,160,2|6
80,136,27033,5,0
80,136,27163,2,0,B|96:288,1,120,6|0
96,296,27685,1,2
160,344,27946,1,0
160,344,28076,1,0
160,344,28207,1,2
216,192,28728,1,6
360,256,29250,5,6
392,184,29511,1,0
392,184,29641,1,0
392,184,29772,2,0,B|384:144|360:96,1,80,2|0
304,56,30294,2,2,B|208:16|152:112,1,160
152,176,31076,1,0
200,240,31337,37,6
280,256,31598,1,0
280,256,31728,1,0
280,256,31859,2,0,B|320:248|368:200,1,80,2|0
408,160,32381,2,0,B|464:224|424:320,1,160,2|6
256,368,33424,5,6
200,312,33685,1,0
200,312,33815,1,0
200,312,33946,2,0,B|192:272|208:232,1,80,6|0
248,160,34468,2,2,B|344:128|400:216,2,160,2|6|6
322,42,35772,6,0,B|336:56|336:80,3,39.9999988079071
432,104,36294,2,0,B|418:117|394:117,3,39.9999988079071,0|0|0|0
376,216,36815,2,0,B|362:202|362:178,3,39.9999988079071,0|0|0|0
264,152,37337,2,0,B|277:138|301:138,2,39.9999988079071
232,184,37598,38,0,B|176:240|216:344,2,160,6|2|0
288,120,38902,1,2
368,112,39163,1,6
400,136,39294,1,0
416,176,39424,1,0
408,216,39555,1,0
384,248,39685,6,0,B|344:240|304:272,1,80,6|0
264,328,40207,1,2
232,344,40337,1,0
192,344,40468,1,0
160,320,40598,1,0
144,288,40728,1,2
104,152,41120,5,0
104,152,41250,2,0,B|96:120|112:80,2,53.3333333333333,2|0|0
136,208,41772,2,0,B|232:232|280:152,1,160,6|0
312,88,42555,1,0
312,88,42685,1,0
312,88,42815,1,0
384,64,43076,1,0
432,128,43337,1,2
304,224,43859,38,0,B|360:280|320:384,2,160,6|2|0
232,192,45163,1,0
232,192,45294,1,0
232,192,45424,1,6
120,80,45946,6,0,B|88:64|40:80,2,53.3333333333333,6|0|0
176,112,46468,1,2
240,120,46641,1,0
296,88,46815,1,0
328,32,46989,2,0,B|424:8|480:120,1,160,2|6
440,248,48033,5,6
392,312,48294,1,0
352,328,48424,1,0
312,312,48555,1,4
240,216,48946,1,4
240,216,49076,2,0,B|152:168|88:264,1,160,6|6
112,88,50120,38,0,B|80:72|32:88,2,53.3333333333333,6|0|0
168,120,50642,1,2
232,128,50815,1,0
288,96,50989,1,0
320,40,51163,2,0,B|416:16|472:128,1,160,2|6
408,328,52207,5,6
328,352,52468,1,0
288,344,52598,1,0
256,320,52728,1,4
200,216,53120,1,4
200,216,53250,1,6
176,80,53772,6,0,B|272:48|328:136,1,160,6|6
368,184,54555,2,0,B|392:176|416:152,2,40
296,224,55076,1,0
296,224,55207,1,0
296,224,55337,1,0
168,320,55859,38,0,B|104:256|144:160,1,160,6|6
120,96,56641,1,0
120,96,56772,1,0
120,96,56902,2,0,B|216:64|264:160,1,160,2|0
320,296,57946,6,0,B|416:328|464:232,1,160,6|6
416,144,58728,1,0
416,144,58859,1,0
416,144,58989,2,0,B|320:112|272:208,3,160,2|0|6|6
190,342,60815,6,0,B|176:328|176:304,3,39.9999988079071
80,280,61337,2,0,B|94:267|118:267,3,39.9999988079071,0|0|0|0
136,168,61858,2,0,B|150:182|150:206,3,39.9999988079071,0|0|0|0
248,232,62380,2,0,B|235:246|211:246,3,39.9999988079071
112,192,77772,6,0,B|56:248|96:352,2,160,10|0|2
232,88,79337,1,0
320,224,79859,2,0,B|416:256|464:168,2,160,10|0|0
184,312,81424,1,0
88,184,81946,6,0,B|32:120|72:24,2,160,10|0|0
160,152,83250,2,0,B|256:120|304:208,1,160,2|0
328,272,84033,1,10
440,160,84555,1,0
336,32,85076,1,0
336,32,85598,1,0
272,176,86120,53,0
272,176,86250,1,0
272,176,86381,2,0,B|184:216|112:128,1,160,10|0
152,32,87163,2,0,B|240:-8|312:80,1,160,0|2
297,63,87946,1,10
328,136,88207,1,0
328,136,88337,1,0
328,136,88468,2,0,B|272:200|312:296,1,160
216,344,89250,2,0,B|200:224,2,120,0|2|10
288,304,90294,5,0
328,312,90424,1,0
368,296,90555,1,0
392,264,90685,1,0
392,224,90815,2,0,B|392:200|368:176,3,40,0|0|0|10
352,160,91337,53,0
312,144,91468,1,0
272,160,91598,1,0
248,192,91728,1,0
216,208,91859,2,0,B|192:216|160:192,3,40,0|0|0|10
144,176,92381,5,0
128,144,92511,1,0
136,104,92641,1,0
168,80,92772,1,0
208,80,92902,1,0
256,192,93033,12,2,94468
144,80,96555,5,14
104,152,97076,1,0
144,224,97598,2,0,B|192:184|264:200,1,120,2|0
320,216,98641,37,14
360,288,99163,1,0
440,264,99685,2,0,B|488:216|464:136,1,120,2|0
448,96,100728,37,14
384,48,101250,1,0
328,104,101772,2,0,B|280:152|304:232,1,120,2|0
312,280,102815,21,14
344,352,103337,1,0
264,360,103859,2,0,B|200:360|144:328,1,120,2|0
96,296,104902,53,14
96,40,109076,38,0,B|40:96|80:200,1,160,6|2
112,256,109859,1,0
112,256,109989,1,0
112,256,110120,1,0
184,280,110381,1,2
256,248,110641,1,0
280,216,110772,1,0
288,176,110902,1,2
272,136,111033,1,0
248,104,111163,6,0,B|280:72|344:64,1,80,6|0
400,56,111685,1,2
440,64,111815,1,0
472,88,111946,1,2
488,128,112076,1,0
480,168,112207,2,0,B|464:208|464:256,1,80,2|0
472,328,112728,1,0
360,216,113250,6,0,B|264:184|224:272,2,160,6|2|0
408,152,114555,1,2
376,80,114815,1,0
336,64,114946,1,0
296,64,115076,1,2
264,88,115207,1,0
248,128,115337,38,0,B|208:136|168:112,1,80,6|0
88,216,115859,2,0,B|128:224|168:200,1,80,2|0
288,232,116381,2,0,B|280:368,1,120,6|2
416,248,117163,1,2
392,136,117424,6,0,B|312:168|240:88,1,160,6|2
192,40,118207,1,0
192,40,118337,1,0
192,40,118468,2,0,B|144:40|104:88,1,80
88,144,118989,1,2
80,184,119120,1,0
96,224,119250,1,2
128,248,119381,1,0
168,248,119511,6,0,B|216:248|256:200,1,80,6|0
296,160,120033,1,2
328,136,120163,1,0
368,128,120294,1,2
400,152,120424,1,0
416,192,120555,2,0,B|424:232|416:280,1,80,2|0
407,350,121076,1,2
407,350,121207,1,0
407,350,121337,1,0
296,280,121598,38,0,B|240:208|280:120,1,160,6|0
296,56,122381,1,0
296,56,122511,1,0
296,56,122642,2,0,B|224:-8|120:48,1,160,2|6
80,136,123555,5,0
80,136,123685,2,0,B|96:288,1,120,6|0
96,296,124207,1,2
160,344,124468,1,0
160,344,124598,1,0
160,344,124729,1,2
216,192,125250,1,6
360,224,125772,5,6
408,160,126033,1,0
408,160,126163,1,0
408,160,126294,2,0,B|400:120|376:80,1,80,2|0
320,32,126815,2,0,B|216:-16|168:96,1,160,2|2
128,128,127598,1,0
160,200,127859,37,6
232,232,128120,1,0
232,232,128250,1,0
232,232,128381,2,0,B|280:232|320:200,1,80,2|0
368,160,128902,2,0,B|464:120|520:224,1,160,2|6
440,344,129946,5,6
360,360,130207,1,0
360,360,130337,1,0
360,360,130468,2,0,B|320:352|272:320,1,80,6|0
224,280,130989,2,0,B|128:240|72:344,2,160,2|6|6
200,136,132294,6,0,B|176:112|184:80,3,39.9999988079071
312,248,132815,2,0,B|336:272|328:304,3,39.9999988079071
200,248,133337,2,0,B|176:272|144:264,3,39.9999988079071
312,136,133859,2,0,B|336:112|368:120,2,39.9999988079071
256,192,134120,38,0,B|192:248|232:352,2,160,6|2|0
312,136,135424,1,2
280,64,135685,1,6
256,32,135815,1,0
224,16,135946,1,2
184,24,136076,1,0
152,48,136207,6,0,B|128:80|128:128,1,80,6|0
136,200,136728,1,2
160,232,136858,1,0
192,248,136989,1,0
232,240,137119,1,0
264,216,137250,1,2
464,128,137641,5,0
464,128,137772,2,0,B|472:96|456:48,2,53.3333333333333,2|0|0
432,184,138294,2,0,B|352:224|272:144,1,160,6|0
224,104,139076,1,0
224,104,139207,1,0
224,104,139337,2,0,B|184:104|128:144,1,80
104,192,139859,1,2
184,328,140381,38,0,B|280:368|344:272,2,160,6|2|0
128,272,141685,1,0
128,272,141815,1,0
128,272,141946,1,6
176,88,142468,6,0,B|152:72|104:72,2,53.3333333333333,6|0|0
232,120,142989,1,2
264,176,143163,1,0
320,208,143337,1,0
384,192,143511,2,0,B|448:136|424:40,1,160,2|6
496,224,144555,5,6
464,296,144815,1,0
424,304,144946,1,0
392,288,145076,1,4
336,184,145468,1,4
336,184,145598,2,0,B|248:144|184:248,1,160,6|6
32,112,146641,38,0,B|16:88|8:48,2,53.3333333333333,6|0|0
80,160,147163,1,2
144,176,147337,1,0
200,144,147511,1,0
232,88,147685,2,0,B|328:56|376:144,1,160,2|6
408,320,148728,5,6
336,352,148989,1,0
296,352,149120,1,0
264,328,149250,1,4
200,224,149641,5,4
200,224,149772,2,0,B|256:160|216:56,2,160,6|6|6
136,272,151076,1,0
136,272,151207,1,0
136,272,151337,1,0
64,232,151598,1,0
48,200,151728,1,0
56,160,151859,1,0
104,96,152120,37,0
144,88,152250,1,0
176,112,152381,2,0,B|272:136|312:40,2,160,6|6|2
120,168,153685,2,0,B|104:176|88:200,2,40
144,248,154207,2,0,B|135:263|136:292,2,40,0|0|6
256,360,154989,5,6
328,328,155250,1,0
328,328,155381,1,0
328,328,155511,2,0,B|288:240|352:168,1,160,2|0
400,120,156294,1,0
352,56,156555,2,0,B|176:40,1,160,6|6
312,248,157337,6,0,B|336:272|328:304,3,39.9999988079071
200,136,157858,2,0,B|176:112|184:80,3,39.9999988079071
312,136,158380,2,0,B|336:112|368:120,3,39.9999988079071
200,248,158902,2,0,B|176:272|144:264,3,39.9999988079071
400,192,174294,22,0,B|456:248|416:352,2,160,10|0|2
280,88,175859,1,0
192,224,176381,2,0,B|96:256|48:168,2,160,10|0|0
328,312,177946,1,0
424,184,178468,54,0,B|480:120|440:24,2,160,10|0|0
352,152,179772,2,0,B|256:120|208:208,1,160,2|0
184,272,180555,1,10
72,160,181077,1,0
176,32,181598,1,0
176,32,182120,1,0
240,176,182642,5,0
240,176,182772,1,0
240,176,182903,2,0,B|328:216|400:128,1,160,10|0
360,32,183685,2,0,B|264:-8|200:80,1,160,0|2
214,62,184468,1,10
184,136,184729,1,0
184,136,184859,1,0
184,136,184990,2,0,B|240:200|200:296,1,160
296,344,185772,2,0,B|312:224,2,120,0|2|10
224,304,186816,53,2
184,312,186946,1,0
144,296,187077,1,0
120,264,187207,1,0
120,224,187337,1,0
144,192,187468,1,0
176,176,187598,1,0
216,184,187728,1,10
248,208,187859,5,0
288,216,187989,1,0
328,200,188120,1,0
352,168,188250,1,0
352,128,188381,2,0,B|352:96|336:64,3,40,0|0|0|10
320,56,188902,53,0
288,40,189033,1,0
248,48,189163,1,0
224,80,189294,1,0
224,120,189424,1,0
256,192,189555,12,2,190990
296,64,193076,53,14
264,136,193597,1,0
192,112,194119,2,0,B|128:80|72:144,1,120,2|0
56,192,195162,5,14
88,264,195684,1,0
168,280,196206,2,0,B|232:304|288:248,1,120,2|0
320,208,197249,21,14
392,248,197771,1,0
440,184,198293,2,0,B|392:144|408:72,1,120,2|0
416,8,199336,37,14
336,32,199858,1,0
344,112,200380,2,0,B|224:96,1,120,2|0
161,85,201423,53,14
