osu file format v12

[General]
AudioFilename: SM64 Main_Theme.mp3
AudioLeadIn: 0
PreviewTime: 38436
Countdown: 0
SampleSet: Normal
StackLeniency: 0.5
Mode: 2
LetterboxInBreaks: 0
WidescreenStoryboard: 1

[Editor]
DistanceSpacing: 0.9
BeatDivisor: 4
GridSize: 16

[Metadata]
Title:Main Theme
TitleUnicode:Main Theme
Artist:Koji Kondo
ArtistUnicode:近藤 浩治
Creator:eblf2013
Version:Salad
Source:Super Mario 64
Tags:Video game mario nintendo 64 Instrumental
BeatmapID:297151
BeatmapSetID:84782

[Difficulty]
HPDrainRate:5
CircleSize:3
OverallDifficulty:7
ApproachRate:7
SliderMultiplier:1.3
SliderTickRate:2

[Events]
//Background and Video events
0,0,"Tall Tall.jpg",0,0
//Break Periods
//Storyboard Layer 0 (Background)
//Storyboard Layer 1 (Fail)
//Storyboard Layer 2 (Pass)
//Storyboard Layer 3 (Foreground)
//Storyboard Sound Samples
//Background Colour Transformations
3,100,163,162,255

[TimingPoints]
704,531.443755535872,4,1,0,40,1,0
38967,-100,4,1,0,40,0,1
55974,-100,4,1,0,40,0,0

[Colours]
Combo1 : 255,128,0
Combo2 : 0,128,0
Combo3 : 0,0,160
Combo4 : 242,24,57

[HitObjects]
160,192,704,1,0,0:0:0:0:
288,192,970,1,0,0:0:0:0:
224,192,1236,1,0,0:0:0:0:
288,192,1634,1,0,0:0:0:0:
352,192,2033,2,0,L|448:192,3,65
208,112,3361,5,0,0:0:0:0:
336,112,3760,1,0,0:0:0:0:
256,176,4689,5,0,0:0:0:0:
160,192,4956,2,0,L|112:192,3,32.5
352,192,5620,1,0,0:0:0:0:
256,176,6019,1,0,0:0:0:0:
256,288,6816,5,0,0:0:0:0:
336,288,7082,1,0,0:0:0:0:
176,288,7480,1,0,0:0:0:0:
256,288,7746,1,0,0:0:0:0:
336,288,8144,1,0,0:0:0:0:
320,192,9207,6,0,L|480:192,1,130
192,192,10270,2,0,L|32:192,1,130
256,192,11200,1,0,0:0:0:0:
144,192,11865,5,0,0:0:0:0:
368,192,12263,1,0,0:0:0:0:
128,192,13459,5,0,0:0:0:0:
256,192,13990,1,0,0:0:0:0:
400,192,14522,1,0,0:0:0:0:
32,192,15585,5,0,0:0:0:0:
256,272,16116,1,0,0:0:0:0:
480,192,16648,1,0,0:0:0:0:
0,192,17710,5,0,0:0:0:0:
128,192,18242,1,0,0:0:0:0:
256,192,18773,1,0,0:0:0:0:
384,192,19305,1,0,0:0:0:0:
512,192,19836,1,0,0:0:0:0:
224,192,20368,6,0,L|320:192,2,65
80,192,21696,5,0,0:0:0:0:
144,192,21962,1,0,0:0:0:0:
224,192,22361,1,0,0:0:0:0:
320,192,22626,1,0,0:0:0:0:
448,192,23025,1,0,0:0:0:0:
144,112,23556,5,0,0:0:0:0:
320,192,24088,2,0,L|480:192,1,130
192,80,25151,2,0,L|32:80,1,130
480,192,26214,1,0,0:0:0:0:
240,288,26745,2,0,B|160:288|160:288|224:240,1,130
432,64,27808,1,0,0:0:0:0:
96,64,28339,1,0,0:0:0:0:
336,192,28871,1,0,0:0:0:0:
176,192,29269,1,0,0:0:0:0:
112,352,30465,5,0,0:0:0:0:
400,352,30997,1,0,0:0:0:0:
256,336,31528,1,0,0:0:0:0:
80,80,32591,5,0,0:0:0:0:
432,80,33122,1,0,0:0:0:0:
256,128,33654,1,0,0:0:0:0:
128,192,34717,2,0,L|64:192,2,65
384,192,35514,2,0,L|464:192,2,65
256,192,36311,1,0,0:0:0:0:
144,192,36577,1,0,0:0:0:0:
256,192,36842,12,0,37905,0:0:0:0:
96,192,38437,5,0,0:0:0:0:
336,192,38968,1,0,0:0:0:0:
176,192,40031,1,0,0:0:0:0:
160,272,41094,1,0,0:0:0:0:
288,272,41493,1,0,0:0:0:0:
416,272,41891,1,0,0:0:0:0:
112,192,42688,5,0,0:0:0:0:
352,192,43220,1,0,0:0:0:0:
192,192,44283,1,0,0:0:0:0:
352,176,45346,1,0,0:0:0:0:
432,208,45743,1,0,0:0:0:0:
256,192,46142,12,0,47072,0:0:0:0:
32,224,47471,5,0,0:0:0:0:
128,224,47737,1,0,0:0:0:0:
304,224,48003,1,0,0:0:0:0:
240,224,48268,1,0,0:0:0:0:
352,224,48534,1,0,0:0:0:0:
416,224,48800,1,0,0:0:0:0:
144,288,49066,1,0,0:0:0:0:
224,288,49331,1,0,0:0:0:0:
192,288,49597,1,0,0:0:0:0:
160,224,49995,1,0,0:0:0:0:
256,192,50261,12,0,51324,0:0:0:0:
48,144,51723,5,0,0:0:0:0:
192,144,51989,1,0,0:0:0:0:
288,144,52254,1,0,0:0:0:0:
368,144,52520,1,0,0:0:0:0:
448,144,52786,1,0,0:0:0:0:
304,192,53051,1,0,0:0:0:0:
448,272,53317,1,0,0:0:0:0:
208,272,53583,1,0,0:0:0:0:
400,240,53849,1,0,0:0:0:0:
160,240,54247,1,0,0:0:0:0:
256,192,54513,12,0,55443,0:0:0:0:
336,192,55974,6,0,P|384:160|336:144,1,130
176,192,57037,2,0,P|128:160|176:144,1,130
448,192,58100,2,0,P|496:160|448:144,1,130
48,208,59163,2,0,P|0:176|48:160,1,130
160,128,60226,5,0,0:0:0:0:
432,128,60625,1,0,0:0:0:0:
432,192,61289,1,0,0:0:0:0:
160,192,61687,1,0,0:0:0:0:
272,192,62352,5,0,0:0:0:0:
368,192,62617,1,0,0:0:0:0:
272,192,62883,1,0,0:0:0:0:
368,192,63149,1,0,0:0:0:0:
272,192,63415,1,0,0:0:0:0:
64,192,63946,1,0,0:0:0:0:
