osu file format v12

[General]
AudioFilename: SM64 Main_Theme.mp3
AudioLeadIn: 0
PreviewTime: 38436
Countdown: 0
SampleSet: Normal
StackLeniency: 0.5
Mode: 1
LetterboxInBreaks: 0
WidescreenStoryboard: 1

[Editor]
DistanceSpacing: 0.9
BeatDivisor: 4
GridSize: 8

[Metadata]
Title:Main Theme
TitleUnicode:Main Theme
Artist:Koji Kondo
ArtistUnicode:近藤 浩治
Creator:eblf2013
Version:Muzukashii
Source:Super Mario 64
Tags:Video game mario nintendo 64 Instrumental
BeatmapID:233364
BeatmapSetID:84782

[Difficulty]
HPDrainRate:4
CircleSize:4
OverallDifficulty:4
ApproachRate:4
SliderMultiplier:1.4
SliderTickRate:1

[Events]
//Background and Video events
0,0,"Tall Tall.jpg",0,0
//Break Periods
//Storyboard Layer 0 (Background)
//Storyboard Layer 1 (Fail)
//Storyboard Layer 2 (Pass)
//Storyboard Layer 3 (Foreground)
//Storyboard Sound Samples
//Background Colour Transformations
3,100,163,162,255

[TimingPoints]
704,531.443755535872,4,1,0,40,1,0
38967,-100,4,1,0,40,0,1
55974,-100,4,1,0,40,0,0

[Colours]
Combo1 : 255,128,0
Combo2 : 0,128,0
Combo3 : 0,0,160
Combo4 : 242,24,57

[HitObjects]
112,176,704,1,0,0:0:0:0:
112,176,969,1,0,0:0:0:0:
112,176,1235,1,8,0:0:0:0:
112,176,1501,1,0,0:0:0:0:
112,176,1634,1,0,0:0:0:0:
112,176,1899,1,8,0:0:0:0:
112,176,2298,1,0,0:0:0:0:
112,176,2564,1,0,0:0:0:0:
112,176,2829,1,8,0:0:0:0:
112,176,3361,1,8,0:0:0:0:
112,176,3494,1,0,0:0:0:0:
112,176,3759,1,8,0:0:0:0:
112,176,4689,1,0,0:0:0:0:
112,176,4822,1,0,0:0:0:0:
112,176,4955,1,0,0:0:0:0:
112,176,5221,1,8,0:0:0:0:
112,176,5354,1,8,0:0:0:0:
112,176,5619,1,0,0:0:0:0:
112,176,5752,1,0,0:0:0:0:
112,176,6018,1,8,0:0:0:0:
224,176,6815,1,0,0:0:0:0:
224,176,6948,1,0,0:0:0:0:
224,176,7081,1,0,0:0:0:0:
224,176,7347,1,0,0:0:0:0:
224,176,7479,1,8,0:0:0:0:
224,176,7745,1,8,0:0:0:0:
224,176,7878,1,0,0:0:0:0:
224,176,8144,1,0,0:0:0:0:
224,176,9207,1,0,0:0:0:0:
224,176,9339,1,0,0:0:0:0:
224,176,9472,1,0,0:0:0:0:
224,176,9605,1,8,0:0:0:0:
80,40,10004,1,0,0:0:0:0:
80,40,10137,1,0,0:0:0:0:
80,40,10269,1,0,0:0:0:0:
80,40,10402,1,8,0:0:0:0:
80,40,10801,1,8,0:0:0:0:
80,40,10934,1,0,0:0:0:0:
80,40,11067,1,0,0:0:0:0:
80,40,11200,1,8,0:0:0:0:
80,40,11598,1,8,0:0:0:0:
80,40,11864,1,8,0:0:0:0:
80,40,11997,1,0,0:0:0:0:
80,40,12262,1,0,0:0:0:0:
80,40,13192,1,0,0:0:0:0:
80,40,13325,1,0,0:0:0:0:
80,40,13458,1,8,0:0:0:0:
80,40,13724,1,0,0:0:0:0:
80,40,13857,1,8,0:0:0:0:
80,40,14122,1,8,0:0:0:0:
80,40,14255,1,0,0:0:0:0:
80,40,14521,1,4,0:0:0:0:
80,40,15318,1,0,0:0:0:0:
80,40,15451,1,0,0:0:0:0:
80,40,15584,1,8,0:0:0:0:
80,40,15850,1,0,0:0:0:0:
80,40,15983,1,8,0:0:0:0:
80,40,16248,1,8,0:0:0:0:
80,40,16381,1,0,0:0:0:0:
80,40,16647,1,4,0:0:0:0:
256,192,17710,1,0,0:0:0:0:
256,192,18241,1,0,0:0:0:0:
256,192,18773,1,0,0:0:0:0:
256,192,19304,1,0,0:0:0:0:
256,192,19835,12,0,21430,0:0:0:0:
80,40,21696,1,0,0:0:0:0:
80,40,21828,1,0,0:0:0:0:
80,40,21961,1,8,0:0:0:0:
80,40,22227,1,0,0:0:0:0:
80,40,22360,1,8,0:0:0:0:
80,40,22626,1,8,0:0:0:0:
80,40,22758,1,0,0:0:0:0:
80,40,23024,1,4,0:0:0:0:
256,192,23556,1,14,0:0:0:0:
80,40,23821,1,0,0:0:0:0:
80,40,23954,1,0,0:0:0:0:
80,40,24087,1,8,0:0:0:0:
80,40,24353,1,0,0:0:0:0:
80,40,24486,1,8,0:0:0:0:
80,40,24751,1,8,0:0:0:0:
80,40,24884,1,0,0:0:0:0:
80,40,25150,1,4,0:0:0:0:
256,192,25681,1,14,0:0:0:0:
256,192,26213,1,0,0:0:0:0:
256,192,26346,1,0,0:0:0:0:
256,192,26611,1,8,0:0:0:0:
256,192,27010,1,0,0:0:0:0:
256,192,27143,1,0,0:0:0:0:
256,192,27409,1,0,0:0:0:0:
256,192,27807,1,0,0:0:0:0:
256,192,27940,1,0,0:0:0:0:
256,192,28206,1,0,0:0:0:0:
256,192,28604,1,0,0:0:0:0:
256,192,28870,1,8,0:0:0:0:
256,192,29003,1,0,0:0:0:0:
256,192,29269,1,0,0:0:0:0:
176,288,30199,1,0,0:0:0:0:
176,288,30331,1,0,0:0:0:0:
176,288,30464,1,8,0:0:0:0:
176,288,30730,1,0,0:0:0:0:
176,288,30863,1,8,0:0:0:0:
176,288,31129,1,8,0:0:0:0:
176,288,31262,1,0,0:0:0:0:
176,288,31527,1,8,0:0:0:0:
224,176,32324,1,0,0:0:0:0:
224,176,32590,1,0,0:0:0:0:
224,176,32723,1,0,0:0:0:0:
224,176,32989,1,8,0:0:0:0:
224,176,33254,1,8,0:0:0:0:
224,176,33387,1,0,0:0:0:0:
224,176,33653,1,0,0:0:0:0:
224,176,34583,1,0,0:0:0:0:
224,176,34716,1,0,0:0:0:0:
224,176,34982,1,0,0:0:0:0:
224,176,35114,1,0,0:0:0:0:
224,176,35513,1,0,0:0:0:0:
224,176,35646,1,0,0:0:0:0:
224,176,35779,1,0,0:0:0:0:
224,176,35912,1,0,0:0:0:0:
224,176,36310,1,0,0:0:0:0:
224,176,36576,1,0,0:0:0:0:
256,192,36842,12,0,37772,0:0:0:0:
256,192,38436,1,0,0:0:0:0:
256,192,38702,1,8,0:0:0:0:
256,192,38967,1,0,0:0:0:0:
256,192,39765,1,8,0:0:0:0:
256,192,40030,1,0,0:0:0:0:
256,192,40828,1,0,0:0:0:0:
256,192,41093,1,0,0:0:0:0:
256,192,41492,1,8,0:0:0:0:
256,192,41890,1,0,0:0:0:0:
256,192,42688,1,0,0:0:0:0:
256,192,42953,1,0,0:0:0:0:
256,192,43219,1,8,0:0:0:0:
256,192,44016,1,8,0:0:0:0:
256,192,44282,1,0,0:0:0:0:
256,192,45079,1,0,0:0:0:0:
256,192,45345,1,0,0:0:0:0:
256,192,45743,1,0,0:0:0:0:
256,192,46142,1,0,0:0:0:0:
256,192,47471,1,8,0:0:0:0:
256,192,47736,1,8,0:0:0:0:
256,192,48002,1,8,0:0:0:0:
256,192,48268,1,8,0:0:0:0:
256,192,48533,1,8,0:0:0:0:
256,192,48799,1,8,0:0:0:0:
256,192,49065,1,8,0:0:0:0:
256,192,49331,1,8,0:0:0:0:
256,192,49596,1,0,0:0:0:0:
256,192,49995,1,0,0:0:0:0:
256,192,50393,12,0,51456,0:0:0:0:
152,208,51722,1,0,0:0:0:0:
152,208,51988,1,0,0:0:0:0:
152,208,52254,1,8,0:0:0:0:
152,208,52519,1,8,0:0:0:0:
152,208,52785,1,0,0:0:0:0:
152,208,53051,1,0,0:0:0:0:
152,208,53316,1,8,0:0:0:0:
152,208,53582,1,8,0:0:0:0:
152,208,53848,1,0,0:0:0:0:
152,208,54246,1,0,0:0:0:0:
152,208,54645,1,0,0:0:0:0:
152,208,55044,1,0,0:0:0:0:
152,208,55176,1,0,0:0:0:0:
152,208,55442,1,0,0:0:0:0:
152,208,55708,1,0,0:0:0:0:
384,208,55974,1,8,0:0:0:0:
384,208,56107,1,0,0:0:0:0:
384,208,56372,1,8,0:0:0:0:
384,208,57037,1,8,0:0:0:0:
384,208,57169,1,0,0:0:0:0:
384,208,57435,1,8,0:0:0:0:
384,208,58099,1,8,0:0:0:0:
384,208,58232,1,0,0:0:0:0:
384,208,58498,1,8,0:0:0:0:
384,208,59162,1,8,0:0:0:0:
384,208,59295,1,0,0:0:0:0:
384,208,59561,1,8,0:0:0:0:
384,208,60225,1,8,0:0:0:0:
384,208,60358,1,0,0:0:0:0:
384,208,60624,1,8,0:0:0:0:
384,208,61288,1,8,0:0:0:0:
384,208,61421,1,0,0:0:0:0:
384,208,61687,1,8,0:0:0:0:
384,208,62351,1,0,0:0:0:0:
384,208,62617,1,0,0:0:0:0:
384,208,62882,1,0,0:0:0:0:
384,208,63148,1,0,0:0:0:0:
384,208,63414,1,0,0:0:0:0:
384,208,63945,1,8,0:0:0:0:
384,208,64477,1,0,0:0:0:0:
384,208,64610,1,0,0:0:0:0:
384,208,64875,1,8,0:0:0:0:
384,208,65540,1,0,0:0:0:0:
384,208,65672,1,0,0:0:0:0:
384,208,65938,1,8,0:0:0:0:
384,208,66603,1,8,0:0:0:0:
384,208,66735,1,0,0:0:0:0:
384,208,67001,1,0,0:0:0:0:
384,208,67665,1,8,0:0:0:0:
384,208,67798,1,0,0:0:0:0:
384,208,68064,1,0,0:0:0:0:
136,16,68728,1,8,0:0:0:0:
136,16,68861,1,0,0:0:0:0:
136,16,69127,1,8,0:0:0:0:
136,16,69791,1,8,0:0:0:0:
136,16,69924,1,0,0:0:0:0:
136,16,70190,1,8,0:0:0:0:
136,16,70854,1,0,0:0:0:0:
136,16,71120,1,0,0:0:0:0:
136,16,71386,1,0,0:0:0:0:
136,16,71651,1,0,0:0:0:0:
136,16,71917,1,0,0:0:0:0:
136,16,72448,1,14,0:0:0:0:
