osu file format v12

[General]
AudioFilename: SM64 Main_Theme.mp3
AudioLeadIn: 0
PreviewTime: 38436
Countdown: 0
SampleSet: Normal
StackLeniency: 0.5
Mode: 1
LetterboxInBreaks: 0
WidescreenStoryboard: 1

[Editor]
DistanceSpacing: 0.9
BeatDivisor: 4
GridSize: 8

[Metadata]
Title:Main Theme
TitleUnicode:Main Theme
Artist:Koji Kondo
ArtistUnicode:近藤 浩治
Creator:eblf2013
Version:Futsuu
Source:Super Mario 64
Tags:Video game mario nintendo 64 Instrumental
BeatmapID:256311
BeatmapSetID:84782

[Difficulty]
HPDrainRate:3
CircleSize:3
OverallDifficulty:3
ApproachRate:2
SliderMultiplier:1.2
SliderTickRate:1

[Events]
//Background and Video events
0,0,"Tall Tall.jpg",0,0
//Break Periods
//Storyboard Layer 0 (Background)
//Storyboard Layer 1 (Fail)
//Storyboard Layer 2 (Pass)
//Storyboard Layer 3 (Foreground)
//Storyboard Sound Samples
//Background Colour Transformations
3,100,163,162,255

[TimingPoints]
704,531.443755535872,4,1,0,40,1,0
38967,-100,4,1,0,40,0,1
55974,-100,4,1,0,40,0,0

[Colours]
Combo1 : 255,128,0
Combo2 : 0,128,0
Combo3 : 0,0,160
Combo4 : 242,24,57

[HitObjects]
256,192,704,1,0,0:0:0:0:
256,192,1235,1,8,0:0:0:0:
256,192,1766,1,0,0:0:0:0:
256,192,2298,1,0,0:0:0:0:
256,192,2829,1,8,0:0:0:0:
256,192,3361,1,0,0:0:0:0:
256,192,3759,1,4,0:0:0:0:
256,192,4955,1,0,0:0:0:0:
256,192,5486,1,8,0:0:0:0:
256,192,6018,1,4,0:0:0:0:
256,192,7081,1,0,0:0:0:0:
256,192,7479,1,8,0:0:0:0:
256,192,8144,1,0,0:0:0:0:
256,192,9207,1,0,0:0:0:0:
256,192,9605,1,8,0:0:0:0:
256,192,10004,1,0,0:0:0:0:
256,192,10402,1,8,0:0:0:0:
256,192,10801,1,0,0:0:0:0:
256,192,11200,1,14,0:0:0:0:
256,192,11864,1,0,0:0:0:0:
256,192,12262,1,4,0:0:0:0:
256,192,13458,1,0,0:0:0:0:
256,192,13990,1,8,0:0:0:0:
256,192,14521,1,0,0:0:0:0:
256,192,15584,1,0,0:0:0:0:
256,192,15983,1,0,0:0:0:0:
256,192,16248,1,8,0:0:0:0:
256,192,16647,1,0,0:0:0:0:
256,192,17311,1,0,0:0:0:0:
256,192,17710,1,0,0:0:0:0:
256,192,18241,1,8,0:0:0:0:
256,192,18773,1,0,0:0:0:0:
256,192,19304,1,0,0:0:0:0:
256,192,19835,12,0,21430,0:0:0:0:
256,192,21961,5,0,0:0:0:0:
256,192,22493,1,8,0:0:0:0:
256,192,23024,1,0,0:0:0:0:
256,192,23556,1,14,0:0:0:0:
256,192,24087,1,0,0:0:0:0:
256,192,24618,1,8,0:0:0:0:
256,192,25150,1,0,0:0:0:0:
256,192,25681,1,14,0:0:0:0:
256,192,26213,1,0,0:0:0:0:
256,192,26611,1,8,0:0:0:0:
256,192,27010,1,0,0:0:0:0:
256,192,27409,1,8,0:0:0:0:
256,192,27807,1,0,0:0:0:0:
256,192,28339,1,4,0:0:0:0:
256,192,28870,1,12,0:0:0:0:
256,192,29136,12,0,29933,0:0:0:0:
256,192,30464,5,0,0:0:0:0:
256,192,30996,1,8,0:0:0:0:
256,192,31527,1,4,0:0:0:0:
256,192,32324,1,0,0:0:0:0:
256,192,32590,1,0,0:0:0:0:
256,192,32856,1,8,0:0:0:0:
256,192,33387,1,0,0:0:0:0:
256,192,33653,1,4,0:0:0:0:
256,192,34450,1,0,0:0:0:0:
256,192,34716,1,0,0:0:0:0:
256,192,34982,1,0,0:0:0:0:
256,192,35513,1,0,0:0:0:0:
256,192,35779,1,0,0:0:0:0:
256,192,36045,1,0,0:0:0:0:
256,192,36310,1,0,0:0:0:0:
256,192,36709,12,0,37639,0:0:0:0:
256,184,38436,5,0,0:0:0:0:
256,184,38702,1,4,0:0:0:0:
256,184,38967,1,14,0:0:0:0:
256,184,39765,1,8,0:0:0:0:
256,184,40030,1,0,0:0:0:0:
256,184,40828,1,0,0:0:0:0:
256,184,41093,1,8,0:0:0:0:
256,184,41492,1,0,0:0:0:0:
256,192,41625,12,0,42422,0:0:0:0:
256,184,42688,5,0,0:0:0:0:
256,184,42953,1,0,0:0:0:0:
256,184,43219,1,8,0:0:0:0:
256,184,44016,1,4,0:0:0:0:
256,184,44282,1,4,0:0:0:0:
256,184,45079,1,0,0:0:0:0:
256,184,45345,1,8,0:0:0:0:
256,184,45743,1,0,0:0:0:0:
256,192,46009,12,0,46939,0:0:0:0:
256,192,47471,5,8,0:0:0:0:
256,192,47736,1,8,0:0:0:0:
256,192,48002,1,8,0:0:0:0:
256,192,48268,1,8,0:0:0:0:
256,192,48533,1,8,0:0:0:0:
256,192,48799,1,8,0:0:0:0:
256,192,49065,1,8,0:0:0:0:
256,192,49331,1,8,0:0:0:0:
256,192,49596,1,4,0:0:0:0:
256,192,49995,1,4,0:0:0:0:
256,192,50261,12,0,51058,0:0:0:0:
256,192,51722,5,8,0:0:0:0:
256,192,51988,1,8,0:0:0:0:
256,192,52254,1,8,0:0:0:0:
256,192,52519,1,8,0:0:0:0:
256,192,52785,1,8,0:0:0:0:
256,192,53051,1,8,0:0:0:0:
256,192,53316,1,8,0:0:0:0:
256,192,53582,1,8,0:0:0:0:
256,192,53848,1,4,0:0:0:0:
256,192,54246,1,4,0:0:0:0:
256,192,54512,12,0,55309,0:0:0:0:
256,184,55974,5,0,0:0:0:0:
256,184,56372,1,8,0:0:0:0:
256,184,57037,1,0,0:0:0:0:
256,184,57435,1,8,0:0:0:0:
256,184,58099,1,0,0:0:0:0:
256,184,58498,1,8,0:0:0:0:
256,184,59162,1,4,0:0:0:0:
256,184,59561,1,8,0:0:0:0:
256,184,60225,1,0,0:0:0:0:
256,184,60624,1,8,0:0:0:0:
256,184,61288,1,0,0:0:0:0:
256,184,61687,1,8,0:0:0:0:
256,184,62351,1,4,0:0:0:0:
256,184,62617,1,4,0:0:0:0:
256,184,62882,1,4,0:0:0:0:
256,184,63148,1,4,0:0:0:0:
256,184,63414,1,4,0:0:0:0:
256,192,63945,12,0,64477,0:0:0:0:
