osu file format v12

[General]
AudioFilename: SM64 Main_Theme.mp3
AudioLeadIn: 0
PreviewTime: 38436
Countdown: 0
SampleSet: Normal
StackLeniency: 0.5
Mode: 0
LetterboxInBreaks: 1
WidescreenStoryboard: 1

[Editor]
DistanceSpacing: 0.8
BeatDivisor: 2
GridSize: 16

[Metadata]
Title:Main Theme
TitleUnicode:Main Theme
Artist:Koji Kondo
ArtistUnicode:近藤 浩治
Creator:eblf2013
Version:Bob-omb battlefield
Source:Super Mario 64
Tags:Video game mario nintendo 64 Instrumental
BeatmapID:233360
BeatmapSetID:84782

[Difficulty]
HPDrainRate:2
CircleSize:3
OverallDifficulty:3
ApproachRate:3
SliderMultiplier:1.3
SliderTickRate:2

[Events]
//Background and Video events
0,0,"Tall Tall.jpg",0,0
//Break Periods
//Storyboard Layer 0 (Background)
//Storyboard Layer 1 (Fail)
//Storyboard Layer 2 (Pass)
//Storyboard Layer 3 (Foreground)
//Storyboard Sound Samples
//Background Colour Transformations
3,100,163,162,255

[TimingPoints]
704,531.443755535872,4,1,0,40,1,0
38967,-100,4,1,0,40,0,1
55974,-100,4,1,0,40,0,0

[Colours]
Combo1 : 255,128,0
Combo2 : 0,128,0
Combo3 : 0,0,160
Combo4 : 242,24,57

[HitObjects]
144,288,704,6,0,L|56:168,2,130
256,288,2298,1,0,0:0:0:0:
368,288,2829,2,0,L|456:160,2,130
144,208,4955,5,0,0:0:0:0:
144,96,5486,1,0,0:0:0:0:
256,96,6018,1,0,0:0:0:0:
464,192,7081,5,0,0:0:0:0:
352,224,7612,1,0,0:0:0:0:
240,192,8144,1,0,0:0:0:0:
256,112,9207,6,0,L|400:112,1,130
336,128,10004,2,0,L|466:128,1,130
416,160,10801,2,0,L|286:160,1,130
240,144,11598,38,0,B|256:64|256:64|288:96|288:96|320:64|320:64|368:160,1,260
208,160,13458,22,0,B|96:256|208:368|304:256,1,260
288,176,15052,1,0,0:0:0:0:
384,176,15584,2,0,B|493:115|397:-12|301:67,1,260
288,176,17178,1,0,0:0:0:0:
208,240,17710,6,0,L|368:240,1,130
336,128,18773,2,0,L|184:128,1,130
272,48,19835,1,0,0:0:0:0:
176,96,20367,2,0,L|16:96,1,130
272,64,21961,6,0,L|272:224,2,130
384,64,23556,1,0,0:0:0:0:
432,160,24087,2,0,L|432:304,2,130
320,160,25681,1,0,0:0:0:0:
224,176,26213,6,0,P|256:232|256:312,3,130
160,272,28339,1,0,0:0:0:0:
64,288,28870,2,0,P|128:352|224:352,1,130
160,48,30464,6,0,B|0:48|0:48,2,130
256,96,32059,1,0,0:0:0:0:
272,192,32590,2,0,L|464:192,2,130
256,288,34184,1,0,0:0:0:0:
368,224,34716,6,0,P|320:320|256:352,4,130
304,144,37373,2,0,B|256:144|256:144|240:128|240:128|224:144|224:144|176:144,1,130
64,264,38436,5,8,0:0:0:0:
128,256,38702,1,0,0:0:0:0:
192,240,38967,1,2,0:0:0:0:
416,192,40030,5,2,0:0:0:0:
351,139,41093,2,4,B|352:48|344:40|328:32|240:32,1,195
176,176,42688,2,0,B|144:192|112:176|96:144|80:176|32:208,1,130
176,16,44282,1,8,0:0:0:0:
368,112,45345,2,0,L|512:112,2,130
32,112,47471,6,8,L|32:272,2,130
144,112,49065,1,0,0:0:0:0:
144,224,49596,2,8,P|224:272|288:272,2,130
368,256,51722,6,8,L|368:96,2,130
272,240,53316,1,0,0:0:0:0:
272,128,53848,2,8,P|192:80|128:80,2,130
32,128,55974,6,0,B|64:112|64:112|96:112|96:112|128:112|128:112|160:128,1,130
128,240,57037,2,0,B|160:256|160:256|192:256|192:256|224:256|224:256|256:240,1,130
224,128,58099,2,0,B|251:114|251:114|283:114|283:114|315:114|315:114|347:130,1,130
304,240,59162,2,0,B|331:253|331:253|363:253|363:253|395:253|395:253|427:237,1,130
352,144,60225,5,0,0:0:0:0:
240,144,60757,1,8,0:0:0:0:
240,256,61288,5,0,0:0:0:0:
352,256,61820,1,8,0:0:0:0:
256,320,62351,5,8,0:0:0:0:
176,224,62882,1,0,0:0:0:0:
288,224,63414,1,4,0:0:0:0:
400,224,63945,1,8,0:0:0:0:
480,304,64477,6,0,B|448:320|448:320|416:320|416:320|384:320|384:320|352:304,1,130
368,192,65540,2,0,B|336:176|336:176|304:176|304:176|272:176|272:176|240:192,1,130
240,304,66602,2,0,B|213:318|213:318|181:318|181:318|149:318|149:318|117:302,1,130
176,208,67665,2,0,B|149:195|149:195|117:195|117:195|85:195|85:195|53:211,1,130
160,240,68728,5,0,0:0:0:0:
272,240,69260,1,8,0:0:0:0:
192,160,69791,5,0,0:0:0:0:
304,160,70323,1,8,0:0:0:0:
368,96,70854,5,8,0:0:0:0:
256,96,71385,1,0,0:0:0:0:
256,192,71917,1,4,0:0:0:0:
144,192,72448,1,8,0:0:0:0:
80,272,72980,6,8,B|128:304|128:192|192:224,1,130
256,224,74043,1,0,0:0:0:0:
352,224,75106,6,0,P|432:224|448:160,2,130
272,192,77231,1,0,0:0:0:0:
208,192,77763,1,0,0:0:0:0:
128,240,78294,2,0,L|16:336,2,130
144,160,79889,2,0,P|224:128|288:128,1,130
352,128,80952,1,0,0:0:0:0:
416,192,81483,5,0,0:0:0:0:
416,256,82014,1,0,0:0:0:0:
416,320,82546,1,0,0:0:0:0:
336,320,83609,5,0,0:0:0:0:
336,256,84140,1,0,0:0:0:0:
336,192,84672,1,0,0:0:0:0:
224,208,85735,6,0,P|160:240|96:240,1,130
176,144,86797,2,0,P|112:176|48:176,1,130
256,192,87860,12,0,88923,0:0:0:0:
128,144,89986,5,0,0:0:0:0:
192,80,90517,1,8,0:0:0:0:
256,144,91049,1,0,0:0:0:0:
192,80,91580,1,4,0:0:0:0:
224,128,92112,5,0,0:0:0:0:
288,64,92643,1,8,0:0:0:0:
352,128,93175,1,0,0:0:0:0:
288,64,93706,1,12,0:0:0:0:
256,192,94238,6,0,L|416:192,1,130
320,256,95300,1,0,0:0:0:0:
208,256,95832,1,0,0:0:0:0:
208,176,96363,2,0,L|64:176,2,130
272,128,98489,6,0,P|384:80|400:80,2,130
256,128,100083,1,0,0:0:0:0:
240,128,100615,2,0,P|128:80|112:80,2,130
272,128,102209,1,0,0:0:0:0:
400,192,102741,6,0,P|357:259|410:308,1,130
308,240,103804,2,0,L|172:241,1,130
128,288,104866,2,0,P|170:220|117:171,2,130
32,272,106461,5,0,0:0:0:0:
32,192,106992,1,0,0:0:0:0:
32,112,108055,2,0,P|128:96|192:96,2,130
112,176,109649,1,0,0:0:0:0:
176,208,110181,1,0,0:0:0:0:
240,176,110712,1,0,0:0:0:0:
176,128,111244,6,0,B|256:96|272:80|288:96|320:96,2,130
96,128,112838,1,0,0:0:0:0:
256,192,113370,12,0,114964,0:0:0:0:
192,160,115495,6,0,L|272:160,3,65
192,208,116558,2,0,L|272:208,3,65,0|0|0|0,0:0|0:0|0:0|0:0,0:0:0:0:
320,272,117621,2,0,P|368:192|336:144,1,130
288,128,118418,6,0,P|208:128|80:304,1,260
160,304,119747,1,0,0:0:0:0:
240,304,120278,1,0,0:0:0:0:
320,304,120810,1,0,0:0:0:0:
384,304,121341,1,0,0:0:0:0:
256,192,121873,12,0,122670,0:0:0:0:
