osu file format v5

[General]
AudioFilename: Nintendo - Zelda 64 - Gerudo Valley Theme Song.mp3
AudioLeadIn: 0
PreviewTime: -1
Countdown: 1
SampleSet: Soft
StackLeniency: 0.7
Mode: 0
LetterboxInBreaks: 1

[Metadata]
Title:Gerudo Valley Theme Song
Artist:Koji Kondo
Creator:James2250
Version:Normal
Source:
Tags:

[Difficulty]
HPDrainRate:4
CircleSize:4
OverallDifficulty:4
SliderMultiplier:1.4
SliderTickRate:2

[Events]
//Background and Video events
0,0,"twilightuo9-800.jpg"
//Break Periods
//Storyboard Layer 0 (Background)
//Storyboard Layer 1 (Failing)
//Storyboard Layer 2 (Passing)
//Storyboard Layer 3 (Foreground)
//Storyboard Sound Samples
//Background Colour Transformations
3,100,163,162,255

[TimingPoints]
6279,500,4,2,0,100,1

[HitObjects]
448,160,14404,2,0,B|448:256|416:128,1,105,2|2
320,160,15154,2,2,B|384:256|352:160|384:160,1,105
160,64,16404,6,0,B|128:96,3,35
240,80,17154,2,0,B|272:48,3,35,0|0|0|0
80,208,18404,6,0,B|208:208,1,105
176,304,19154,2,0,B|48:304,1,105
336,304,20404,2,0,B|272:304,3,35
16,16,22404,6,10,B|16:128,1,105,2|2
16,224,23154,2,2,B|16:336,1,105,2|2
256,320,24404,6,2,B|384:320,1,105
384,224,25154,2,2,B|256:224,1,105
448,48,26404,6,2,B|448:176,1,105
448,256,27154,2,2,B|448:384,1,105
256,192,28404,6,0,B|256:256,3,35
80,80,30529,6,2,B|80:192,2,105
192,80,31654,1,0
304,80,32029,1,0
304,144,32279,2,0,B|304:240|304:240,1,70
320,272,32779,2,0,B|368:272,3,35
160,48,34529,6,2,B|32:48,1,105
48,144,35279,1,0
160,144,35654,1,0
160,256,36029,2,0,B|64:256,1,70
224,256,36779,2,2,B|288:256,3,35
32,32,38529,6,2,B|160:32,1,105
240,32,39279,1,0
240,144,39654,1,0
336,96,40029,1,0
336,160,40279,1,0
336,304,40779,2,0,B|272:304,3,35
128,144,42029,5,2
192,144,42279,1,0
400,144,43029,2,0,B|400:240,1,70
192,256,44029,1,2
128,256,44279,1,0
448,336,46529,6,2,B|320:336,1,105
336,224,47279,2,2,B|464:224,1,105
432,112,48029,1,0
432,48,48279,1,0
256,48,48904,2,0,B|192:48,2,35
32,352,50529,5,0
32,240,50904,1,0
144,240,51279,2,2,B|272:240,1,105
352,240,52029,1,0
352,176,52279,1,0
352,32,52779,2,0,B|288:32,3,35
64,320,54529,5,0
64,320,54654,2,2,B|112:320,2,35
208,320,55279,1,0
208,320,55404,2,2,B|144:320,2,35
48,128,56529,5,0
48,128,56654,1,0
48,128,56779,2,0,B|48:176,1,35
160,160,57279,1,0
160,160,57404,1,0
160,160,57529,2,0,B|160:96,1,35
256,112,58029,5,0
256,176,58279,1,0
448,112,59029,2,2,B|448:208,1,70
272,304,60029,1,0
208,304,60279,1,0
224,144,62279,6,0,B|288:144,2,35
32,352,63529,2,2,B|208:352,1,140
192,288,64279,2,0,B|128:288,2,35
240,160,66279,6,0,B|176:160,2,35
448,352,67529,2,0,B|512:352,5,35
448,352,68279,2,0,B|320:352,1,105,0|0
256,176,70279,6,0,B|256:80,1,70,0|2
32,16,71529,1,0
32,16,71654,1,0
32,16,71779,2,2,B|112:16,1,70
128,80,72279,2,0,B|128:16,2,35
416,272,74279,6,0,B|480:272,2,35
256,32,75529,1,0
256,64,75654,1,0
256,96,75779,2,0,B|176:96,1,70,0|2
192,160,76279,2,0,B|240:160,2,35
64,48,78279,6,2,B|64:160,1,105
64,256,79029,1,0
64,320,79279,1,0
128,320,79529,2,2,B|128:176,1,140
128,80,80279,5,0
192,80,80529,2,2,B|256:80,2,35
192,144,81029,1,0
192,208,81279,1,0
192,272,81529,2,2,B|240:272,2,35
192,336,82029,1,0
256,336,82279,5,0
256,272,82529,2,0,B|304:272,2,35
256,208,83029,1,2
256,144,83279,1,0
256,80,83529,2,0,B|256:16,2,35
320,80,84029,1,2
368,128,84279,5,0
368,128,84404,1,0
368,128,84529,1,0
368,128,84654,1,0
368,224,86404,6,0,B|400:256|448:304,1,105
352,240,87154,2,0,B|272:320,1,105
128,128,88404,6,0,B|128:208,1,70
128,240,88779,1,0
240,240,89154,2,0,B|240:144,1,70
240,128,89529,1,0
464,48,90404,6,0,B|528:48,3,35
400,48,91154,2,0,B|464:48,3,35
192,80,92404,5,0
208,96,92529,1,0
224,112,92654,1,0
240,128,92779,1,0
272,160,94404,6,2,B|272:288,1,105
160,256,95154,2,2,B|160:384,1,105
80,128,96404,2,2,B|208:128,1,105
256,192,97154,2,2,B|128:192,1,105
368,320,98404,5,0
368,320,98529,1,0
368,320,98654,1,0
368,320,98779,1,0
288,256,99154,1,0
288,256,99279,1,0
288,256,99404,1,0
288,256,99529,1,0
48,208,100404,6,0,B|48:144,3,35
80,336,102529,5,0
208,336,102904,1,0
208,224,103279,1,0
208,112,103654,2,0,B|80:112,1,105
96,48,104279,1,0
256,48,104779,2,2,B|320:48,2,35
256,48,105154,1,0
64,336,106529,5,0
64,224,106904,1,0
176,224,107279,2,2,B|176:352,1,105
288,336,108029,1,0
352,336,108279,1,0
288,208,108779,1,0
288,208,108904,2,2,B|288:128,1,70
48,304,110529,6,2,B|176:304,1,105
256,304,111279,1,0
368,304,111654,1,0
368,192,112029,1,0
368,128,112279,2,2,B|272:256,1,140
256,240,112904,1,0
224,240,113029,2,0,B|160:240|160:240,1,35
304,32,114029,5,0
304,96,114279,1,0
96,128,115029,2,2,B|96:224,1,70
288,256,116029,2,2,B|320:320,1,70
80,96,118529,5,0
192,96,118904,1,0
304,96,119279,2,2,B|272:192|240:192,2,105
368,96,120279,1,0
480,96,120904,2,0,B|480:160,2,35
144,288,122529,5,0
144,176,122904,1,0
256,176,123279,2,2,B|224:304|288:240|288:240,2,105
256,112,124279,1,0
400,112,124779,2,0,B|400:48,3,35
48,256,126529,5,0
64,272,126654,2,2,B|128:336,1,70
192,256,127279,2,2,B|272:320,1,70
272,320,127654,1,0
256,80,128529,6,2,B|384:80,1,105
432,144,129279,2,2,B|432:272,1,105
352,320,130029,6,2,B|448:320,1,70
352,128,131029,2,2,B|256:128,1,70
80,208,132029,1,0
144,208,132279,1,0
352,192,134279,5,0
352,192,134404,1,0
352,192,134529,1,0
96,80,135529,2,2,B|96:144|96:176,1,70
96,224,136029,2,0,B|176:224,1,70
192,224,136404,1,0
224,224,136529,1,0
240,128,138279,6,0,B|304:128,1,35
304,128,138529,1,0
48,256,139529,2,0,B|16:352,1,70
96,320,140029,1,0
160,320,140279,2,0,B|160:256,2,35
288,320,142279,5,0
288,320,142404,1,0
288,320,142529,1,0
368,48,143529,2,0,B|368:112,1,35
368,112,143779,2,2,B|272:112,1,70
224,112,144279,1,0
224,112,144404,1,0
224,112,144529,1,0
176,256,146279,5,0
176,288,146404,1,0
176,256,146529,1,0
432,160,147529,6,2,B|432:256,2,70
368,160,148279,2,0,B|368:224,2,35
272,160,150279,5,0
208,160,150529,1,2
208,160,150654,1,0
96,160,151029,1,2
32,160,151279,2,0,B|80:112,3,35
32,240,152029,1,0
96,240,152279,6,2,B|240:240,1,140
304,240,153029,1,0
304,304,153279,2,2,B|176:304,1,105
304,304,154029,1,0
368,304,154279,5,2
432,304,154529,2,0,B|432:368,1,35
432,240,155029,1,2
432,176,155279,1,0
368,176,155529,2,2,B|368:272,1,70
304,240,156029,1,0
240,240,156279,6,2,B|240:96,1,140
