osu file format v14

[General]
AudioFilename: Gerudo Valley.mp3
AudioLeadIn: 0
PreviewTime: -1
Countdown: 1
SampleSet: Soft
StackLeniency: 0.7
Mode: 0
LetterboxInBreaks: 1
WidescreenStoryboard: 0

[Editor]
DistanceSpacing: 1.8
BeatDivisor: 4
GridSize: 4
TimelineZoom: 2.6

[Metadata]
Title:Gerudo Valley
TitleUnicode:Gerudo Valley
Artist:Koji Kondo
ArtistUnicode:Kōji Kondō
Creator:Boldenouy
Version:Master Sword
Source:The Legend of Zelda 25t Anniversary Special Orchestra CD
Tags:the legend of zelda gerudo valley orchestral tloz koji kondo
BeatmapID:757467
BeatmapSetID:342708

[Difficulty]
HPDrainRate:6
CircleSize:4
OverallDifficulty:7.5
ApproachRate:9.2
SliderMultiplier:2.5
SliderTickRate:1

[Events]
//Background and Video events
0,0,"zelda_25th_anniversary_by_link_leob-d4eshuk.jpg",0,0
//Break Periods
2,48110,50340
//Storyboard Layer 0 (Background)
//Storyboard Layer 1 (Fail)
//Storyboard Layer 2 (Pass)
//Storyboard Layer 3 (Foreground)
//Storyboard Sound Samples

[TimingPoints]
532,400,4,2,0,15,1,0
3732,-100,4,2,0,23,0,0
6932,-100,4,2,0,30,0,0
7082,-100,4,2,0,5,0,0
7132,-100,4,2,0,30,0,0
7282,-100,4,2,0,5,0,0
7332,-100,4,2,0,30,0,0
7882,-100,4,2,0,5,0,0
7932,-100,4,2,0,30,0,0
8082,-100,4,2,0,5,0,0
8132,-100,4,2,0,30,0,0
35732,-100,4,2,0,60,0,0
42110,400,4,2,0,70,1,1
45310,-100,4,2,0,80,0,1

[Colours]
Combo1 : 204,154,40
Combo2 : 77,167,61
Combo3 : 249,232,5
Combo4 : 183,128,170

[HitObjects]
167,161,532,5,0,0:0:0:0:
248,21,732,1,0,0:0:0:0:
329,161,932,2,0,L|195:161,1,125,0|0,0:0|0:0,0:0:0:0:
249,302,1332,5,0,0:0:0:0:
86,301,1532,1,0,0:0:0:0:
167,161,1732,2,0,L|229:269,1,125,0|0,0:0|0:0,0:0:0:0:
329,161,2132,5,0,0:0:0:0:
410,301,2332,1,0,0:0:0:0:
249,302,2532,2,0,L|311:193,1,125,0|0,0:0|0:0,0:0:0:0:
250,107,2932,6,0,P|314:87|391:128,1,125
262,277,3332,2,0,P|198:297|121:256,1,125,0|0,0:0|0:0,0:0:0:0:
367,104,3732,5,0,0:0:0:0:
350,130,3832,1,0,0:0:0:0:
332,156,3932,1,0,0:0:0:0:
313,180,4032,1,0,0:0:0:0:
292,204,4132,2,0,P|241:251|187:277,1,125,2|0,0:0|0:0,0:0:0:0:
44,128,4532,5,0,0:0:0:0:
62,102,4632,1,0,0:0:0:0:
87,84,4732,1,0,0:0:0:0:
117,77,4832,1,0,0:0:0:0:
148,80,4932,2,0,L|266:135,1,125,2|0,0:0|0:0,0:0:0:0:
461,184,5332,5,0,0:0:0:0:
481,161,5432,1,0,0:0:0:0:
489,131,5532,1,0,0:0:0:0:
485,100,5632,1,0,0:0:0:0:
468,74,5732,2,0,P|417:61|355:138,1,125,2|0,0:0|0:0,0:0:0:0:
216,256,6132,5,0,0:0:0:0:
187,268,6232,1,0,0:0:0:0:
157,276,6332,1,0,0:0:0:0:
126,282,6432,1,0,0:0:0:0:
96,287,6532,2,0,P|42:248|27:174,1,125,2|0,0:0|0:0,0:0:0:0:
354,39,6932,6,0,L|309:125,1,93.75
307,133,7132,2,0,L|399:99,1,93.75
406,98,7332,2,2,P|391:161|437:224,1,125
166,308,7732,2,0,L|209:224,1,93.75
213,214,7932,2,0,L|125:246,1,93.75
113,250,8132,2,2,P|128:190|100:136,1,125
341,209,8532,5,0,0:0:0:0:
315,226,8732,1,0,0:0:0:0:
317,257,8932,2,2,P|342:301|433:272,1,125
178,71,9332,1,0,0:0:0:0:
159,45,9532,1,0,0:0:0:0:
128,49,9732,2,2,P|85:76|119:165,1,125
256,330,10132,6,0,L|95:330,2,125,0|0|2,0:0|0:0|0:0,0:0:0:0:
244,301,10632,1,2,0:0:0:0:
230,273,10732,1,2,0:0:0:0:
381,54,10932,2,0,L|220:54,2,125,0|0|2,0:0|0:0|0:0,0:0:0:0:
369,83,11432,1,2,0:0:0:0:
355,111,11532,1,2,0:0:0:0:
116,184,11732,5,0,0:0:0:0:
341,61,11932,1,8,0:0:0:0:
336,318,12132,1,2,0:0:0:0:
338,321,12232,1,2,0:0:0:0:
340,324,12332,1,2,0:0:0:0:
192,66,12532,5,0,0:0:0:0:
411,200,12732,1,8,0:0:0:0:
186,324,12932,1,2,0:0:0:0:
188,327,13032,1,2,0:0:0:0:
190,330,13132,1,2,0:0:0:0:
235,138,13332,5,0,0:0:0:0:
146,174,13532,1,8,0:0:0:0:
324,102,13732,2,2,L|388:77,2,62.5
271,227,14132,1,0,0:0:0:0:
199,49,14332,1,8,0:0:0:0:
307,316,14532,2,2,L|332:376,2,62.5
213,295,14932,5,0,0:0:0:0:
100,237,15132,1,8,0:0:0:0:
62,84,15332,1,2,0:0:0:0:
70,54,15432,1,2,0:0:0:0:
90,30,15532,1,2,0:0:0:0:
144,221,15732,1,0,0:0:0:0:
358,295,15932,1,8,0:0:0:0:
199,91,16132,1,2,0:0:0:0:
221,69,16232,1,2,0:0:0:0:
251,61,16332,1,2,0:0:0:0:
256,192,16532,12,2,19332,0:0:0:0:
256,192,19532,5,8,0:0:0:0:
256,192,19732,12,4,22932,0:0:0:0:
90,49,23332,6,0,L|222:79,1,125
422,222,23732,1,2,0:0:0:0:
425,224,23932,1,2,0:0:0:0:
173,172,24133,2,0,L|49:194,2,125
383,41,24732,6,0,P|389:104|347:149,1,125
214,105,25132,2,0,P|266:68|326:83,1,125
280,145,25532,2,0,P|228:182|167:168,1,125
386,375,25932,1,2,0:0:0:0:
172,171,26132,1,2,0:0:0:0:
141,112,26332,6,0,L|199:229,4,125
363,275,27332,1,2,0:0:0:0:
451,317,27532,1,2,0:0:0:0:
441,220,27732,1,2,0:0:0:0:
472,161,27932,6,0,L|416:272,4,125
405,72,28932,1,2,0:0:0:0:
333,138,29132,1,2,0:0:0:0:
285,323,29332,6,2,P|234:296|194:226,1,125,0|2,0:0|0:0,0:0:0:0:
453,57,29732,1,8,0:0:0:0:
285,260,29932,2,2,P|339:230|372:177,1,125
453,57,30332,1,2,0:0:0:0:
404,212,30532,1,2,0:0:0:0:
208,320,30732,1,8,0:0:0:0:
290,39,30932,6,2,P|349:55|394:98,1,125
122,206,31332,1,8,0:0:0:0:
410,156,31532,2,2,P|421:216|402:275,1,125
208,320,31932,1,2,0:0:0:0:
404,212,32132,1,2,0:0:0:0:
453,57,32332,1,8,0:0:0:0:
88,67,32532,2,0,L|45:214,2,125
335,160,33132,2,0,L|378:307,2,125
141,279,33732,6,2,L|177:160,1,125
459,186,34132,2,2,L|424:67,1,125
177,159,34532,1,0,0:0:0:0:
141,279,34732,1,2,0:0:0:0:
167,287,34832,6,0,L|203:295,17,31.25
218,298,35732,5,8,0:0:0:0:
414,143,35932,2,0,P|395:210|420:262,1,125,8|0,0:0|0:0,0:0:0:0:
220,103,36332,1,0,0:0:0:0:
104,55,36732,1,0,0:0:0:0:
127,177,37132,1,0,0:0:0:0:
130,179,37332,1,0,0:0:0:0:
326,181,37532,2,0,P|299:238|295:309,1,125
442,229,37932,1,2,0:0:0:0:
418,107,38132,2,0,P|374:63|317:38,1,125
114,62,38532,5,2,0:0:0:0:
51,274,38732,1,2,0:0:0:0:
267,223,38932,1,2,0:0:0:0:
180,132,39132,2,0,B|143:184|143:184|90:151,1,125
328,263,39532,2,0,B|379:230|379:230|416:282,1,125
215,132,39932,2,0,L|336:89,1,125
407,79,40332,1,2,0:0:0:0:
456,135,40532,1,2,0:0:0:0:
443,208,40732,2,0,L|342:318,1,125
249,145,41132,1,2,0:0:0:0:
153,300,41332,2,0,L|69:208,1,125
56,135,41732,1,0,0:0:0:0:
105,79,41932,1,0,0:0:0:0:
179,90,42110,5,4,0:0:0:0:
363,126,42310,1,0,0:0:0:0:
239,267,42510,1,0,0:0:0:0:
426,257,42710,1,8,0:0:0:0:
262,345,42910,1,0,0:0:0:0:
269,158,43110,1,0,0:0:0:0:
210,180,43310,1,0,0:0:0:0:
172,230,43510,1,0,0:0:0:0:
164,292,43710,5,4,0:0:0:0:
49,106,43910,1,0,0:0:0:0:
267,99,44110,1,0,0:0:0:0:
350,301,44310,1,8,0:0:0:0:
171,174,44510,1,0,0:0:0:0:
369,83,44710,1,0,0:0:0:0:
319,121,44910,1,0,0:0:0:0:
256,114,45110,1,0,0:0:0:0:
210,71,45310,5,4,0:0:0:0:
69,277,45510,1,0,0:0:0:0:
318,297,45710,1,0,0:0:0:0:
493,118,45910,1,8,0:0:0:0:
244,138,46110,1,0,0:0:0:0:
385,344,46310,1,0,0:0:0:0:
322,344,46510,1,0,0:0:0:0:
259,346,46710,1,0,0:0:0:0:
196,346,46910,5,4,0:0:0:0:
24,123,47110,1,0,0:0:0:0:
303,85,47310,1,0,0:0:0:0:
438,332,47510,1,8,0:0:0:0:
167,252,47710,1,0,0:0:0:0:
371,57,47910,1,0,0:0:0:0:
119,130,50910,5,0,0:0:0:0:
157,115,51010,1,0,0:0:0:0:
193,102,51110,1,0,0:0:0:0:
345,106,51310,1,0,0:0:0:0:
448,189,51510,1,0,0:0:0:0:
