osu file format v5

[General]
AudioFilename: Dire Dire Docks.mp3
AudioLeadIn: 2000
PreviewTime: 20687
Countdown: 0
SampleSet: Soft
StackLeniency: 0.7
Mode: 0
LetterboxInBreaks: 1
EditorBookmarks: 21330,31776,87503,101433,153638

[Metadata]
Title:Dire Dire Docks
Artist:Koji Kondo
Creator:m980
Version:Insane
Source:
Tags:

[Difficulty]
HPDrainRate:7
CircleSize:4
OverallDifficulty:8
SliderMultiplier:1.8
SliderTickRate:2

[Events]
//Background and Video events
0,0,"DireDireDocks.jpg"
//Break Periods
2,87050,100233
//Storyboard Layer 0 (Background)
//Storyboard Layer 1 (Failing)
//Storyboard Layer 2 (Passing)
//Storyboard Layer 3 (Foreground)
//Storyboard Sound Samples
//Background Colour Transformations
3,100,163,162,255

[TimingPoints]
452,435.17679057117,4,2,0,49,1
118167,435.224140432323,4,1,0,71,0
128937,435.224140432323,4,2,0,49,0
142972,435.17679057117,4,2,0,49,0

[Colours]
Combo1 : 13,0,255
Combo2 : 0,208,244
Combo3 : 0,116,244
Combo4 : 0,55,244

[HitObjects]
32,192,452,5,2
80,112,669,1,0
128,192,887,1,2
176,112,1104,2,2,B|256:24|336:120,2,180
256,152,2192,1,2
208,232,2410,1,0
296,232,2627,1,2
296,232,2845,1,4
480,192,3933,5,2
432,112,4150,1,0
384,192,4368,1,2
336,112,4585,2,2,B|256:24|176:120,2,180
256,152,5673,1,2
304,232,5891,1,0
216,232,6108,1,2
216,232,6326,1,4
16,120,7414,6,2,B|72:-32|152:272|208:112,1,270
360,16,8502,2,2,B|464:88|360:160,1,180
336,88,9155,2,2,B|232:160|336:232,1,180
256,256,9808,1,4
496,120,10896,6,2,B|440:-32|360:272|304:112,1,270
152,16,11984,2,2,B|48:88|152:160,1,180
176,88,12637,2,2,B|280:160|176:232,1,180
256,256,13290,1,4
16,288,14377,5,2
88,344,14595,1,0
160,288,14812,1,2
232,344,15030,2,2,B|424:344,2,180
264,256,16118,1,2
304,176,16335,1,0
344,256,16553,1,2
384,176,16771,1,4
496,96,17859,5,2
424,40,18077,1,0
352,96,18294,1,2
280,40,18512,2,2,B|88:40,2,180
248,128,19600,1,2
208,208,19817,1,0
168,128,20035,1,2
128,208,20253,1,4
112,192,21558,5,2
152,88,21775,1,2
256,48,21993,1,2
360,88,22210,1,6
400,192,22428,1,6
360,296,22646,1,2
256,336,22863,1,2
152,296,23081,1,6
424,32,23516,5,2
512,192,23951,1,2
424,352,24386,1,2
64,64,24821,6,4,B|-16:192|64:328,1,270
449,20,26127,5,2
497,92,26345,1,0
425,148,26562,1,2
425,236,26780,1,2
497,292,26997,1,0
449,364,27215,1,2
256,192,27650,5,2
159,68,28085,5,0
119,148,28303,1,4
119,236,28520,1,0
159,316,28738,1,4
195,159,28956,6,2,B|267:47|459:191|259:351|187:207,1,360
24,324,30044,5,2
24,236,30261,1,0
24,148,30479,1,2
24,60,30696,1,4
480,192,31131,1,2
400,192,32002,5,2
360,88,32219,1,2
256,48,32437,1,2
152,88,32655,1,6
112,192,32872,1,6
152,296,33090,1,2
256,336,33307,1,2
360,296,33525,1,6
88,32,33960,5,2
0,192,34395,1,2
88,352,34830,1,2
464,48,35266,5,4
464,232,35701,1,2
464,320,35918,1,4
280,336,36354,5,2
200,288,36571,1,0
280,248,36789,1,2
200,200,37006,5,4
200,104,37224,1,0
120,152,37442,1,0
120,56,37659,1,2
304,56,38094,6,0,B|416:80|400:208,1,180
392,272,38747,5,6
336,344,38965,1,0
240,344,39182,1,2
320,160,39400,6,2,B|248:48|56:192|256:352|328:208,1,360
488,324,40488,5,2
488,236,40705,1,0
488,148,40923,1,2
488,60,41141,1,4
256,352,42228,5,2
212,273,42446,1,0
300,273,42664,1,2
344,192,42881,5,0
256,192,43099,1,2
168,192,43316,1,0
212,111,43534,1,2
300,111,43752,1,0
256,32,43969,2,2,B|88:32|88:200,1,270
436,352,45275,6,2,B|248:352,1,180
300,273,45927,1,0
212,273,46145,1,2
168,192,46363,5,0
256,192,46580,1,2
344,192,46798,1,0
300,111,47015,1,2
212,111,47233,1,0
256,32,47451,2,2,B|424:32|424:200,2,270
0,288,49191,6,0,B|48:192|104:392|168:256,1,180
128,208,49844,5,0
48,160,50062,1,2
120,112,50279,1,0
200,72,50497,1,2
208,160,50714,1,0
216,248,50932,2,2,B|400:248,1,180
400,336,51585,2,2,B|120:336,1,270
448,24,52673,5,2
500,120,52890,1,0
396,120,53108,1,2
24,24,53543,5,2
120,24,53761,1,0
120,120,53978,1,2
24,120,54196,1,0
256,192,54413,5,4
472,336,54849,6,2,B|472:216|360:224,1,180
392,312,55501,1,2
360,88,56372,5,2
256,48,56589,1,2
152,88,56807,1,2
112,192,57024,1,6
152,296,57242,1,6
256,336,57460,1,2
360,296,57677,1,2
400,192,57895,1,6
40,104,58330,6,2,B|8:192|48:312,2,180
296,232,59636,6,2,B|200:296|160:192|200:88|304:160,1,270
488,192,60723,5,0
488,192,60941,1,4
488,192,61159,1,0
488,280,61376,5,2
409,236,61594,1,0
409,148,61811,1,2
488,104,62029,1,2
328,192,62464,2,2,B|136:192,1,180
96,112,63117,1,0
48,192,63335,1,0
96,272,63552,1,0
168,328,63770,6,2,B|256:368|352:320,2,180
212,250,64858,1,0
300,250,65075,1,0
256,176,65293,1,0
256,88,65510,1,4
152,88,66816,5,2
256,48,67034,1,2
360,88,67251,1,2
400,192,67469,1,6
360,296,67686,1,6
256,336,67904,1,2
152,296,68121,1,2
112,192,68339,1,6
472,104,68774,6,2,B|504:192|464:312,2,180
216,232,70080,6,2,B|312:296|352:192|312:88|208:160,1,270
24,192,71168,5,0
24,192,71603,1,2
24,280,71820,5,2
103,236,72038,1,0
103,148,72256,1,2
24,104,72473,1,2
184,192,72908,2,2,B|376:192,1,180
416,112,73561,1,2
464,192,73779,1,2
416,272,73996,1,2
344,328,74214,6,2,B|256:368|160:320,2,180
352,238,75302,1,2
301,164,75519,1,0
211,164,75737,1,0
160,238,75955,1,2
256,0,76390,5,4
24,16,77043,5,0
24,104,77260,1,0
24,192,77478,1,0
152,296,77695,5,2
360,296,78131,1,0
360,296,78348,1,0
360,296,78566,1,2
360,88,79001,1,0
360,88,79218,1,0
360,88,79436,1,2
152,88,79871,1,0
152,88,80089,1,2
152,88,80306,1,0
256,88,80524,5,2
256,192,80742,1,2
256,296,80959,1,2
120,328,81177,5,2
392,328,81612,1,0
392,328,81830,1,0
392,328,82047,1,2
392,56,82482,1,2
120,56,82918,1,0
120,56,83135,1,2
120,56,83353,1,0
120,56,83570,1,2
120,56,83788,1,0
256,56,84005,5,2
256,192,84223,1,2
256,328,84441,1,2
424,360,84658,5,2
424,24,85093,5,2
88,24,85529,5,2
88,360,85964,5,2
424,360,86399,5,2
424,24,86834,5,2
216,232,101413,5,2
296,232,101630,1,2
296,152,101848,1,2
216,152,102065,1,2
256,304,102500,5,2
256,80,102936,5,2
384,160,103153,1,2
332,304,103371,1,2
180,304,103588,1,2
128,160,103806,1,6
216,152,104894,5,2
296,152,105112,1,2
296,232,105329,1,2
216,232,105547,1,2
256,80,105982,5,2
256,304,106417,5,2
384,224,106635,1,2
332,80,106852,1,2
180,80,107070,1,2
128,224,107287,1,6
112,192,108593,5,2
152,296,108811,1,2
256,336,109028,1,2
360,296,109246,1,6
400,192,109463,1,6
360,88,109681,1,2
256,48,109898,1,2
152,88,110116,1,6
424,352,110551,5,2
512,192,110986,1,2
424,32,111422,1,2
64,320,111857,6,2,B|-16:192|64:56,1,270
449,364,113162,5,4
497,292,113380,1,0
425,236,113597,1,2
425,148,113815,1,2
497,92,114033,1,0
449,20,114250,1,2
256,192,114685,5,2
256,192,115121,1,2
256,192,115338,12,4,118384
24,80,118820,6,0,B|120:80,2,90,0|0|12
114,152,119581,5,0
114,152,119690,2,0,B|24:152,2,90,0|0|12
24,224,120452,5,0
24,224,120560,2,0,B|128:224,2,90,0|0|12
24,296,121213,5,0
24,296,121322,1,0
24,296,121431,2,0,B|128:296,2,90,0|0|12
488,80,122192,5,0
488,80,122301,2,0,B|392:80,2,90,0|0|12
398,152,123063,5,0
398,152,123171,2,0,B|488:152,2,90,0|0|12
488,224,123933,5,0
488,224,124042,2,0,B|384:224,2,90,0|0|12
488,296,124694,5,0
488,296,124803,1,0
488,296,124912,2,0,B|384:296,2,90,0|0|12
256,192,125782,12,4,128829
32,8,129264,5,0
0,96,129481,1,2
72,152,129699,1,0
40,240,129917,1,2
120,288,130134,1,0
184,224,130352,1,6
256,168,130569,1,0
256,168,130678,1,6
480,8,131005,5,0
512,96,131222,1,2
440,152,131440,1,0
472,240,131658,1,2
392,288,131875,1,0
328,224,132093,1,6
256,168,132310,1,0
256,168,132419,1,6
136,240,132745,5,0
80,160,132963,1,2
32,240,133180,1,0
80,320,133398,1,2
168,344,133616,1,0
256,320,133833,1,6
256,224,134051,1,0
256,224,134160,1,6
304,96,134486,5,0
376,48,134704,1,2
440,112,134921,1,0
368,168,135139,1,2
440,224,135356,1,0
360,272,135574,1,6
432,320,135791,1,0
432,320,135900,1,6
256,192,136444,12,14,138838
32,304,139708,5,0
80,232,139926,1,2
128,304,140143,2,0,B|176:224,1,90,0|2
80,136,140578,5,0
32,64,140796,1,6
104,16,141014,1,0
104,16,141122,1,6
480,304,141449,5,0
432,232,141667,1,2
384,304,141884,2,0,B|336:224,1,90,0|2
432,136,142319,5,0
480,64,142537,1,6
408,16,142755,1,0
408,16,142863,1,6
256,192,143189,5,4
80,192,143407,5,4
136,72,143625,1,4
256,16,143842,1,0
376,72,144060,1,4
432,192,144277,1,4
376,312,144495,1,4
256,368,144713,1,0
136,312,144930,1,4
256,192,145365,5,2
56,112,145801,2,2,B|-16:192|64:280,1,180
456,112,146671,2,6,B|528:192|448:280,1,180,6|2
408,192,147324,1,2
256,128,147759,5,2
192,64,147976,1,2
128,128,148194,1,2
192,192,148412,5,6
128,256,148629,1,2
192,320,148847,1,2
256,256,149064,1,2
333,56,149500,6,2,B|333:344,1,270,2|6
424,328,150370,1,2
424,240,150587,1,2
424,152,150805,6,2,B|528:80|424:8,2,180
368,80,151893,1,6
280,80,152111,1,2
192,80,152328,1,2
104,80,152546,1,0
432,192,153851,5,2
376,72,154069,1,6
256,16,154286,1,2
136,72,154504,1,6
80,192,154721,1,6
136,312,154939,1,6
256,368,155157,1,2
376,312,155374,1,6
256,192,155809,5,2
456,112,156245,2,2,B|528:192|448:280,1,180
56,112,157115,2,2,B|-16:192|64:280,1,180,6|2
104,192,157768,1,2
256,128,158203,5,2
320,64,158420,1,2
384,128,158638,1,2
320,192,158856,5,6
384,256,159073,1,2
320,320,159291,1,2
256,256,159508,1,2
179,56,159944,6,2,B|179:344,1,270,2|6
88,328,160814,1,2
88,232,161031,1,0
256,192,161249,12,4,163643
256,232,164078,5,0
302,153,164296,1,0
211,153,164513,1,0
256,72,164731,5,2
376,192,165166,5,0
376,192,165384,1,0
376,192,165601,1,2
256,312,166036,5,0
256,312,166254,1,0
256,312,166471,1,2
136,192,166907,5,0
136,192,167125,1,2
136,192,167342,1,0
256,192,167559,5,2
256,192,167777,1,2
256,192,167995,1,2
376,72,168212,5,2
376,312,168647,5,0
376,312,168865,1,0
376,312,169083,1,2
136,312,169518,5,2
136,72,169953,5,0
136,72,170170,1,2
136,72,170388,1,0
136,72,170606,1,2
136,72,170823,1,0
256,192,171041,5,2
256,192,171258,1,2
256,192,171476,1,2
80,192,171694,5,2
256,16,172129,5,2
432,192,172564,5,2
256,368,172999,5,2
80,192,173434,5,2
256,16,173869,5,2
256,192,174522,12,0,178004
