osu file format v5

[General]
AudioFilename: Super_mario2.mp3
AudioLeadIn: 0
PreviewTime: -1
Countdown: 0
SampleSet: Soft
StackLeniency: 0.6
Mode: 0
LetterboxInBreaks: 1

[Editor]
DistanceSpacing: 0.800000011920929
BeatDivisor: 4
GridSize: 8

[Metadata]
Title:Super Mario Bros. 2 (Techno Remix)
Artist:Koji Kondo (Qygen MiX)
Creator:Dedoum
Version:Normal
Source:
Tags:mario bros 2 techno

[Difficulty]
HPDrainRate:1
CircleSize:4
OverallDifficulty:3
SliderMultiplier:1.5
SliderTickRate:2

[Events]
//Background and Video events
Video,0,"Superfast Mario Bros. 2.avi"
0,0,"super-mario-bros-2-nes-title-screen.jpg"
//Break Periods
2,27725,28200
2,49407,59107
2,81732,83107
2,120207,121507
2,126200,130950
//Storyboard Layer 0 (Background)
//Storyboard Layer 1 (Fail)
//Storyboard Layer 2 (Pass)
//Storyboard Layer 3 (Foreground)
//Storyboard Sound Samples
//Background Colour Transformations
3,100,163,162,255

[TimingPoints]
2482,300,4,2,0,100,1,0
50025,-100,4,2,0,100,0,0
69000,-100,4,2,0,80,0,1
87757,-100,4,2,0,100,0,0

[HitObjects]
48,72,2482,1,0
80,160,2782,1,0
168,160,3007,1,0
200,280,3382,1,0
352,288,3682,1,0
440,288,3982,1,0
440,200,4207,1,0
232,32,4882,5,0
136,56,5182,1,0
104,136,5407,1,0
136,256,5782,1,0
136,344,6007,2,0,C|344:344,1,187.5
320,256,6607,1,0
456,88,7282,5,0
456,0,7582,1,0
376,48,7807,1,0
272,96,8182,5,0
184,128,8482,1,0
216,216,8782,1,0
304,216,9007,1,2
424,248,9382,5,0
392,336,9682,1,0
272,336,9982,1,0
184,336,10207,1,0
64,304,10582,1,0
64,216,10807,2,0,C|264:40,1,262.5
152,344,12307,5,0
240,224,12682,1,0
152,136,12982,1,0
152,48,13207,1,0
32,48,13882,5,0
32,168,14182,1,0
32,288,14482,1,0
128,352,14782,1,0
216,320,15082,1,0
216,232,15307,1,0
304,232,15532,1,0
304,80,15907,2,0,C|272:112|264:152|224:88|192:152|160:88|120:152|80:80,1,450
96,256,17182,5,0
128,344,17482,1,0
216,344,17707,1,0
336,344,18007,1,0
456,312,18382,1,0
456,192,18682,1,0
368,104,18982,1,0
280,104,19207,1,0
160,104,19507,2,0,C|104:120|88:136|96:168|128:184|176:184|216:168|216:136|216:112|216:64,1,337.5
368,192,20707,5,0
304,192,20857,1,0
304,280,21082,1,0
304,368,21307,1,0
360,368,21457,1,0
48,72,21907,5,0
48,224,22282,1,0
48,344,22582,1,0
136,344,22807,1,0
408,344,23482,1,0
376,256,23782,1,0
376,168,24082,1,2
376,80,24382,1,2
288,112,24682,1,0
288,200,24907,1,0
288,320,25207,1,0
168,320,25507,2,0,C|136:288|160:272|200:272|224:296|216:336|184:352|144:352|112:352|80:336,1,337.5
40,320,26407,5,0
64,176,26782,1,0
144,88,27082,1,0
232,88,27307,1,0
352,88,27607,1,0
256,224,29482,5,0
224,312,29782,1,0
136,312,30007,1,0
136,72,30607,1,4
376,72,31207,5,0
376,224,31582,1,0
344,312,31882,1,0
224,320,32182,1,0
136,320,32407,5,0
136,168,32782,5,0
248,120,33082,1,0
360,80,33382,1,0
448,80,33607,6,0,C|448:136,5,37.5
432,232,34282,1,0
344,312,34582,1,0
264,352,34807,5,0
80,72,35482,1,0
48,184,35782,5,0
256,192,36307,5,0
408,192,36682,1,0
408,312,36982,1,0
328,312,37207,1,0
176,312,37582,5,0
96,224,37882,1,0
176,128,38182,1,0
296,128,38482,1,0
400,176,38782,5,0
400,264,39082,1,0
488,232,39382,1,0
488,112,39682,1,0
456,24,39982,1,0
336,24,40282,1,0
248,56,40582,1,0
248,176,40882,1,0
128,176,41182,1,0
40,176,41407,5,0
72,296,41782,1,0
160,296,42007,2,0,C|160:248|192:248|224:248|224:288|200:320,1,187.5
288,296,42607,1,0
432,64,43282,5,0
320,88,43582,1,0
256,152,43807,1,0
136,176,44182,1,0
104,256,44407,2,0,C|296:256,1,187.5
256,80,45007,1,0
256,288,45682,1,0
256,168,45982,1,0
256,80,46207,1,0
112,32,46582,1,0
40,88,46807,2,0,C|128:88|192:88,2,150
320,160,47782,5,0
288,72,48082,1,0
200,104,48382,1,0
200,192,48607,1,0
232,312,48982,1,0
320,312,49207,1,4
80,32,60307,5,0
80,184,60682,1,0
80,304,60982,1,0
168,304,61207,1,0
440,304,61882,5,0
408,216,62182,1,0
408,136,62482,1,0
408,48,62782,1,0
296,96,63082,1,0
288,184,63307,1,0
288,304,63607,1,0
168,312,63907,2,0,C|136:344|104:344|64:320|64:296|64:256|104:248|152:248|136:280|104:296,1,337.5
128,200,64807,5,4
160,120,65182,1,0
160,32,65482,1,0
248,32,65707,1,0
248,120,66007,1,0
328,32,66382,1,0
360,144,66682,1,0
360,264,66982,1,0
248,264,67207,1,0
8,272,67807,6,2,C|56:216,1,37.5
88,176,68107,2,2,C|112:144,1,37.5
160,72,68407,1,10
392,72,69007,1,0
400,224,69382,1,0
312,224,69607,5,0
192,224,69907,5,0
192,224,69982,1,0
104,224,70207,5,0
104,224,70282,1,0
16,224,70507,5,0
16,224,70582,1,0
64,152,70807,5,0
216,152,71182,5,0
336,152,71482,1,0
456,152,71782,1,0
360,224,72082,2,0,C|328:248,4,37.5
368,312,72607,5,0
368,312,72682,1,0
280,312,72907,5,0
280,312,72982,1,0
192,312,73207,5,0
392,184,73807,5,0
392,184,73882,1,0
392,64,74182,1,0
184,64,74707,5,0
184,216,75082,1,0
64,216,75382,1,0
64,272,75607,1,0
224,352,75982,5,0
376,352,76282,1,0
296,256,76582,1,0
216,168,76882,5,0
96,168,77182,1,0
72,232,77482,1,0
72,320,77782,1,0
160,288,78082,1,0
240,288,78382,1,0
320,288,78682,1,0
400,288,78982,1,0
480,288,79282,1,0
448,200,79582,1,0
248,72,80182,5,0
136,72,80482,6,0,C|136:112,4,37.5
136,160,81007,2,0,C|352:312,1,262.5
288,192,84082,5,0
288,272,84382,1,0
376,272,84607,1,0
408,152,84982,1,0
408,64,85282,1,0
496,96,85582,1,0
496,184,85807,1,0
464,304,86182,1,0
376,304,86407,1,0
344,304,86482,1,0
232,288,86782,1,0
160,224,87007,1,0
192,104,87382,1,0
280,104,87607,1,0
256,192,88282,12,0,90007
48,72,90682,5,0
80,160,90982,1,0
80,240,91282,1,0
80,328,91582,1,0
168,296,91882,1,0
168,208,92107,1,0
168,88,92407,1,0
288,88,92707,2,4,C|328:56|360:48|392:56|432:64|448:88|448:128|392:144|368:168|320:168,1,337.5
288,184,93607,5,0
320,304,93982,1,0
408,272,94282,1,0
408,184,94507,1,0
408,64,94807,1,0
256,64,95182,1,0
136,64,95482,1,0
48,96,95782,1,0
48,184,96007,1,0
168,192,96307,2,4,C|208:208|200:240|160:240|128:224|112:192|128:160|168:144|208:144|240:168,1,337.5
392,280,97507,5,0
440,240,97657,1,0
440,152,97882,1,0
416,64,98107,1,0
368,24,98257,1,0
256,192,98707,5,0
352,72,99082,1,0
472,72,99382,1,0
472,160,99607,1,0
256,192,100282,5,0
256,280,100582,1,0
168,280,100882,1,0
80,280,101182,1,0
80,192,101482,1,0
144,128,101707,1,0
232,48,102007,1,0
352,48,102307,2,4,C|400:48|440:48|480:48|504:48|504:88|504:128|504:160|456:160|400:160,1,337.5
352,128,103207,5,0
320,248,103582,1,0
200,248,103882,1,0
112,248,104107,1,0
112,128,104407,1,0
144,8,104782,5,0
264,8,105082,1,0
384,8,105382,1,0
472,8,105607,1,0
472,280,106282,1,0
384,280,106582,1,0
296,264,106807,1,0
64,192,107407,5,6
256,48,108007,5,0
408,48,108382,1,0
496,80,108682,1,0
496,200,108982,1,0
432,256,109207,5,0
304,336,109582,1,0
216,248,109882,1,0
304,168,110182,1,0
216,88,110482,2,0,C|184:48,4,37.5
112,72,111082,1,0
8,96,111382,1,0
72,160,111607,1,0
288,192,112282,1,0
408,192,112582,1,0
296,16,113107,5,0
144,16,113482,1,0
24,16,113782,1,0
80,80,114007,1,0
296,16,114382,5,0
144,16,114682,1,0
24,16,114982,1,0
24,136,115282,1,0
104,216,115582,1,0
200,288,115882,1,0
320,288,116182,1,0
432,264,116482,1,0
432,144,116782,1,0
360,48,117082,1,0
240,48,117382,1,0
256,192,117682,5,0
168,160,117982,1,0
88,192,118207,1,0
168,160,118582,1,0
256,128,118882,6,0,C|304:128|344:128|368:128|400:128|416:128,1,150
408,216,119407,6,0,C|112:344,1,300
88,72,122482,5,0
104,184,122782,1,0
104,272,123007,1,4
208,328,123382,1,0
320,304,123682,1,0
424,280,123982,1,0
424,192,124207,1,4
400,56,124582,1,2
288,56,124882,1,2
168,56,125182,1,2
80,56,125407,1,0
112,176,125782,1,4
256,192,126007,5,6
