osu file format v5

[General]
AudioFilename: Super_mario2.mp3
AudioLeadIn: 0
PreviewTime: -1
Countdown: 0
SampleSet: Soft
StackLeniency: 0.6
Mode: 0
LetterboxInBreaks: 1

[Editor]
DistanceSpacing: 0.800000011920929
BeatDivisor: 4
GridSize: 8

[Metadata]
Title:Super Mario Bros. 2 (Techno Remix)
Artist:Koji Kondo (Qygen MiX)
Creator:Dedoum
Version:Insane
Source:
Tags:mario bros 2 techno

[Difficulty]
HPDrainRate:3
CircleSize:6
OverallDifficulty:7
SliderMultiplier:1.5
SliderTickRate:2

[Events]
//Background and Video events
Video,0,"Superfast Mario Bros. 2.avi"
0,0,"super-mario-bros-2-nes-title-screen.jpg"
//Break Periods
2,27725,28200
2,81732,83107
2,120207,121507
2,126200,130950
//Storyboard Layer 0 (Background)
//Storyboard Layer 1 (Fail)
//Storyboard Layer 2 (Pass)
//Storyboard Layer 3 (Foreground)
//Storyboard Sound Samples
//Background Colour Transformations
3,100,163,162,255

[TimingPoints]
2482,300,4,2,0,100,1,0
50025,-100,4,2,0,49,0,0
69000,-100,4,2,0,100,0,1
87757,-100,4,2,0,100,0,0

[HitObjects]
48,72,2482,1,0
48,192,2707,1,0
88,192,2782,1,0
48,304,3007,1,0
208,304,3307,1,0
208,344,3382,1,0
320,304,3607,1,0
320,344,3682,1,0
360,344,3757,1,0
440,304,3982,1,0
440,184,4207,1,0
112,24,4882,5,0
120,144,5107,1,0
160,144,5182,1,0
120,256,5407,1,0
280,256,5707,1,0
240,256,5782,1,0
280,144,6007,2,0,C|216:144,5,37.5
280,32,6607,1,0
448,304,7207,5,0
408,304,7282,1,0
448,192,7507,1,0
408,192,7582,1,0
448,80,7807,1,0
288,80,8107,5,0
288,120,8182,1,0
288,240,8407,1,0
288,280,8482,1,0
168,280,8707,1,0
168,240,8782,1,0
168,120,9007,1,2
320,80,9307,5,0
320,120,9382,1,0
328,240,9607,1,0
328,280,9682,1,0
208,280,9907,1,0
208,240,9982,1,0
208,120,10207,1,0
88,120,10507,1,0
56,120,10582,1,0
56,32,10807,2,0,C|352:32,1,262.5
152,344,12307,5,0
344,336,12682,1,0
248,208,12982,1,0
248,88,13207,1,0
32,48,13882,5,0
32,168,14107,1,0
32,208,14182,1,0
32,328,14407,1,0
72,328,14482,1,0
192,328,14707,1,0
232,328,14782,1,0
352,328,15007,1,0
392,328,15082,1,0
512,328,15307,1,0
512,208,15532,1,0
464,16,15907,2,0,C|432:48|424:88|384:24|352:88|320:24|280:88|240:16,1,450
128,184,17107,5,0
128,224,17182,1,0
136,344,17407,1,0
176,344,17482,1,0
296,344,17707,1,0
456,344,18007,1,0
448,184,18307,1,0
448,224,18382,1,0
448,104,18607,1,0
408,104,18682,1,0
288,104,18907,1,0
256,128,18982,1,0
176,216,19207,1,0
176,336,19507,2,0,C|208:312,9,37.5
256,192,20707,5,0
224,192,20857,1,0
224,232,21082,1,0
224,272,21307,1,0
248,272,21457,1,0
48,72,21907,5,0
48,224,22282,1,0
48,344,22582,1,0
136,344,22807,1,0
408,344,23482,1,0
408,256,23707,1,0
376,256,23782,1,0
408,168,24007,1,2
376,168,24082,1,2
408,80,24307,1,2
376,80,24382,1,2
288,80,24607,1,0
288,112,24682,1,0
288,200,24907,1,0
288,320,25207,1,0
144,320,25507,6,0,C|88:320,9,37.5
16,320,26407,5,0
16,200,26707,1,0
48,200,26782,1,0
136,200,27007,1,0
168,200,27082,1,0
168,112,27307,1,0
288,112,27607,1,0
256,192,29407,5,0
256,224,29482,1,0
256,312,29707,1,0
224,312,29782,1,0
136,312,30007,1,0
136,72,30607,1,4
376,72,31207,5,0
376,192,31507,5,0
376,224,31582,1,0
376,312,31807,5,0
344,312,31882,1,0
256,320,32107,5,0
224,320,32182,1,0
136,320,32407,5,0
136,168,32782,5,0
248,120,33082,1,0
360,80,33382,1,0
448,80,33607,6,0,C|448:136,5,37.5
448,208,34207,5,0
432,232,34282,1,0
368,296,34507,5,0
344,312,34582,1,0
264,352,34807,5,0
48,72,35407,5,0
80,72,35482,1,0
48,184,35782,5,0
256,192,36307,5,0
408,192,36682,1,0
416,312,36982,1,0
328,312,37207,1,0
176,312,37582,5,0
96,224,37882,1,0
176,128,38182,1,0
296,128,38482,1,0
368,176,38707,5,0
400,176,38782,1,0
368,264,39007,5,0
400,264,39082,1,0
488,264,39307,5,0
488,232,39382,1,0
488,144,39607,5,0
488,112,39682,1,0
488,24,39907,5,0
456,24,39982,1,0
368,24,40207,5,0
336,24,40282,1,0
248,24,40507,5,0
248,56,40582,1,0
248,176,40807,5,0
248,176,40882,1,0
160,176,41107,5,0
128,176,41182,1,0
40,176,41407,5,0
40,296,41707,5,0
72,296,41782,1,0
160,296,42007,2,0,C|200:296,5,37.5
288,296,42607,1,0
432,64,43282,5,0
344,64,43507,1,0
320,88,43582,1,0
272,144,43807,1,0
152,152,44107,1,0
136,176,44182,1,0
96,256,44407,2,0,C|136:256,5,37.5
256,80,45007,1,0
256,192,45607,5,0
256,192,45682,1,0
104,192,45907,1,0
104,192,45982,1,0
104,104,46207,1,0
240,312,46507,1,0
240,312,46582,1,0
328,312,46807,2,0,C|416:312|480:312,2,150
320,192,47707,5,0
320,192,47782,1,0
320,112,48007,1,0
320,112,48082,1,0
240,112,48307,1,0
240,112,48382,1,0
280,152,48607,1,0
240,192,48907,1,0
240,192,48982,1,0
280,152,49207,1,4
48,72,50707,5,0
48,224,51082,1,0
48,344,51382,1,0
136,344,51607,1,0
160,72,52282,5,0
160,160,52507,1,0
192,160,52582,1,0
280,160,52807,1,0
312,160,52882,1,0
400,160,53107,1,0
416,136,53182,1,0
456,56,53407,1,0
424,56,53482,1,0
336,56,53707,1,0
216,56,54007,1,0
96,64,54307,2,0,C|64:96,9,37.5
176,64,55207,5,0
152,96,55432,1,0
152,96,55507,1,0
136,136,55732,1,0
136,136,55807,1,0
96,144,56032,1,0
40,144,56332,1,4
48,296,56707,5,2
80,296,56782,1,2
144,232,57007,1,2
176,232,57082,1,2
232,160,57307,1,2
264,160,57382,1,2
320,96,57607,1,0
424,32,57907,2,2,C|424:80|408:112|416:144|456:136|496:136|496:168|496:208|464:208|432:232|432:256,1,337.5
240,304,59107,5,4
192,264,59257,1,4
232,184,59482,1,4
192,104,59707,1,4
232,24,59932,1,4
80,32,60307,5,0
80,184,60682,1,0
80,304,60982,1,0
168,304,61207,1,0
440,304,61882,5,0
440,216,62107,1,0
408,216,62182,1,0
440,136,62407,1,0
408,136,62482,1,0
440,48,62707,1,0
408,48,62782,1,0
328,96,63007,1,0
296,96,63082,1,0
288,184,63307,1,0
288,304,63607,1,0
168,336,63907,2,0,C|96:320,9,37.5
128,240,64807,5,4
128,120,65107,1,0
160,120,65182,1,0
128,32,65407,1,0
160,32,65482,1,0
248,32,65707,1,0
248,120,66007,1,0
360,32,66307,1,0
328,32,66382,1,0
360,112,66607,1,0
360,144,66682,1,0
360,232,66907,1,0
360,264,66982,1,0
248,264,67207,1,0
8,272,67807,6,2,C|56:216,1,37.5
88,176,68107,2,2,C|112:144,1,37.5
160,72,68407,1,10
392,72,69007,1,0
400,224,69382,1,0
312,224,69607,5,0
192,224,69907,5,0
192,224,69982,1,0
104,224,70207,5,0
104,224,70282,1,0
16,224,70507,5,0
16,224,70582,1,0
64,152,70807,5,0
216,152,71182,5,0
336,152,71482,1,0
456,152,71782,1,0
360,224,72082,2,0,C|328:248,4,37.5
368,312,72607,5,0
368,312,72682,1,0
280,312,72907,5,0
280,312,72982,1,0
192,312,73207,5,0
392,184,73807,5,0
392,184,73882,1,0
392,64,74182,1,0
184,64,74707,5,0
184,216,75082,1,0
64,216,75382,1,0
64,272,75607,1,0
224,352,75982,5,0
376,352,76282,1,0
296,256,76582,1,0
216,168,76882,5,0
128,168,77107,5,0
96,168,77182,1,0
40,232,77407,5,0
72,232,77482,1,0
40,320,77707,5,0
72,320,77782,1,0
160,320,78007,5,0
160,288,78082,1,0
240,320,78307,5,0
240,288,78382,1,0
320,320,78607,5,0
320,288,78682,1,0
400,320,78907,5,0
400,288,78982,1,0
480,320,79207,5,0
480,288,79282,1,0
480,200,79507,5,0
448,200,79582,1,0
376,152,79807,6,0,C|272:32,1,150
248,40,80182,2,0,C|128:40,1,112.5
136,72,80482,6,0,C|136:112,4,37.5
136,160,81007,2,0,C|352:312,1,262.5
256,192,84007,5,0
288,192,84082,1,0
256,272,84307,5,0
288,272,84382,1,0
376,272,84607,1,0
376,152,84907,5,0
408,152,84982,1,0
376,64,85207,1,0
408,64,85282,1,0
496,64,85507,5,0
496,96,85582,1,0
496,184,85807,1,0
496,304,86107,5,0
464,304,86182,1,0
376,304,86407,1,0
344,304,86482,1,0
256,304,86707,5,0
232,288,86782,1,0
160,224,87007,1,0
160,104,87307,5,0
192,104,87382,1,0
280,104,87607,1,0
256,192,88282,12,0,90007
48,72,90682,5,0
48,160,90907,1,0
80,160,90982,1,0
48,240,91207,1,0
80,240,91282,1,0
48,328,91507,1,0
80,328,91582,1,0
168,328,91807,1,0
168,296,91882,1,0
168,208,92107,1,0
168,88,92407,1,0
288,88,92707,2,0,C|336:104,9,37.5
288,184,93607,5,0
288,304,93907,1,0
320,304,93982,1,0
408,304,94207,1,0
408,272,94282,1,0
408,184,94507,1,0
408,64,94807,1,0
288,64,95107,1,0
256,64,95182,1,0
168,64,95407,1,0
136,64,95482,1,0
48,64,95707,1,0
48,96,95782,1,0
48,184,96007,1,0
168,184,96307,2,0,C|200:208,9,37.5
392,280,97507,5,0
440,240,97657,1,0
440,152,97882,1,0
416,64,98107,1,0
368,24,98257,1,0
256,192,98707,5,0
352,72,99082,1,0
472,72,99382,1,0
472,160,99607,1,0
256,192,100282,5,0
256,280,100507,1,0
256,280,100582,1,0
168,280,100807,1,0
168,280,100882,1,0
80,280,101107,1,0
80,280,101182,1,0
80,192,101407,1,0
80,192,101482,1,0
144,128,101707,1,0
232,48,102007,1,0
352,48,102307,2,0,C|400:48,9,37.5
352,128,103207,5,0
352,248,103507,1,0
320,248,103582,1,0
232,248,103807,1,0
200,248,103882,1,0
112,248,104107,1,0
112,128,104407,1,0
112,8,104707,5,0
144,8,104782,1,0
232,8,105007,1,0
264,8,105082,1,0
352,8,105307,1,0
384,8,105382,1,0
472,8,105607,1,0
472,248,106207,5,0
472,280,106282,1,0
384,248,106507,1,0
384,280,106582,1,0
296,264,106807,1,0
64,192,107407,5,6
256,48,108007,5,0
376,48,108307,1,0
408,48,108382,1,0
496,48,108607,1,0
496,80,108682,1,0
496,168,108907,1,0
496,200,108982,1,0
432,256,109207,5,0
304,336,109582,1,0
216,248,109882,1,0
304,168,110182,1,0
216,88,110482,2,0,C|184:48,4,37.5
128,96,111007,5,0
112,72,111082,1,0
24,72,111307,1,0
8,96,111382,1,0
72,160,111607,1,0
256,192,112207,5,0
288,192,112282,1,0
408,192,112582,1,0
296,16,113107,5,0
144,16,113482,1,0
24,16,113782,1,0
80,80,114007,1,0
296,16,114382,5,0
144,16,114682,1,0
24,16,114982,1,0
24,136,115282,1,0
80,200,115507,5,0
104,216,115582,1,0
176,272,115807,1,0
200,288,115882,1,0
288,288,116107,1,0
320,288,116182,1,0
408,288,116407,1,0
432,264,116482,1,0
432,176,116707,1,0
432,144,116782,1,0
384,72,117007,1,0
360,48,117082,1,0
272,48,117307,1,0
240,48,117382,1,0
240,136,117607,1,0
256,192,117682,5,0
168,192,117907,1,0
168,160,117982,1,0
88,192,118207,1,0
168,192,118507,5,0
168,160,118582,1,0
256,192,118807,1,0
256,128,118882,6,0,C|304:128|344:128|368:128|400:128|416:128,1,150
408,216,119407,6,0,C|410:384,2,150
64,48,122407,5,4
88,72,122482,1,0
80,160,122707,1,4
104,184,122782,1,0
104,272,123007,1,4
184,352,123307,5,4
208,328,123382,1,0
296,328,123607,1,4
320,304,123682,1,0
408,304,123907,1,4
424,280,123982,1,0
424,192,124207,1,4
424,72,124507,5,2
400,56,124582,1,2
312,72,124807,1,2
288,56,124882,1,2
200,72,125107,1,2
168,56,125182,1,2
80,56,125407,1,0
80,176,125707,5,4
112,176,125782,1,4
256,192,126007,5,6
