osu file format v8

[General]
AudioFilename: Good Egg Galaxy Song.mp3
AudioLeadIn: 0
PreviewTime: 57090
Countdown: 0
SampleSet: Soft
StackLeniency: 0.7
Mode: 0
LetterboxInBreaks: 0

[Editor]
DistanceSpacing: 1.2
BeatDivisor: 4
GridSize: 8

[Metadata]
Title:Egg Planet
Artist:Koji Kondo & Mahito Yokota
Creator:roxkyuubiforever
Version:Insane
Source:Super Mario Galaxy
Tags:Luigi Toad Rosalina Peach Bowser Jr Bros Star Planet Wii 2007 Game Italian Plumber Platinum Version Orchestra

[Difficulty]
HPDrainRate:7
CircleSize:4
OverallDifficulty:8
ApproachRate:8
SliderMultiplier:1.6
SliderTickRate:1

[Events]
//Background and Video events
0,0,"super-mario-galaxy.jpg"
//Break Periods
2,32367,43884
//Storyboard Layer 0 (Background)
//Storyboard Layer 1 (Fail)
//Storyboard Layer 2 (Pass)
//Storyboard Layer 3 (Foreground)
//Storyboard Sound Samples
//Background Colour Transformations
3,100,0,0,0

[TimingPoints]
4108,389.61038961039,4,2,0,20,1,0
25926,-200,4,2,0,20,0,0
28271,389.61038961039,4,2,0,20,1,0
52362,-100,4,2,0,30,0,0
55446,-100,4,2,0,40,0,0
56712,-100,4,1,0,40,0,0
57102,-100,4,1,0,40,0,1
69472,-100,4,1,0,40,0,0
69569,-100,4,1,0,40,0,1
82037,-100,4,1,0,40,0,0

[Colours]
Combo1 : 151,151,253
Combo2 : 255,32,143
Combo3 : 255,150,0
Combo4 : 252,101,101

[HitObjects]
256,48,4108,1,4
256,48,4497,6,0,B|168:40|104:104,1,160
32,128,5082,2,0,B|88:192|72:280,1,160
152,256,5666,2,0,B|184:336|280:352,1,160
296,264,6250,6,0,B|376:304|448:248,1,160,0|0
408,136,6835,2,0,B|480:80,1,80,2|0
328,56,7224,2,0,B|256:112,1,80,2|0
160,80,7614,6,0,B|192:160|160:240,1,160
80,240,8198,2,0,B|88:336|176:368,1,160
240,336,8783,2,0,B|264:248|360:232,1,160
416,288,9367,6,0,B|480:224|448:136,1,160
336,152,9952,2,0,B|344:64,1,80,2|0
216,104,10341,2,0,B|168:24,1,80,2|0
104,152,10731,6,0,B|112:248|32:296,1,160
120,320,11315,2,0,B|176:384|280:360,1,160
248,288,11900,2,0,B|296:216|400:240,1,160
368,160,12484,6,0,B|352:72|248:48,1,160
72,136,13069,2,0,B|160:136,1,80,2|0
168,216,13458,6,0,B|304:224|344:368,2,240,4|0|0
80,88,14822,1,0
216,32,15017,2,0,B|304:40|344:128,1,160,2|0
472,184,15601,2,0,B|384:192|344:280,1,160,2|0
224,304,16185,2,0,B|184:376,1,80,2|0
104,248,16575,2,0,B|32:200,1,80,2|0
32,120,16965,6,0,B|64:40|160:24,1,160,0|0
176,104,17549,2,0,B|256:128|328:72,1,160
336,152,18133,2,0,B|424:184|432:288,1,160
352,280,18718,6,0,B|192:352,1,160
80,288,19302,2,0,B|128:288|152:248,1,80,2|0
168,120,19692,2,0,B|120:128|104:168,1,80,2|0
264,176,20082,6,0,B|304:96|400:104,1,160
392,184,20666,2,0,B|448:248|424:336,1,160
352,296,21250,2,0,B|288:368|192:320,1,160
160,256,21835,6,0,B|304:160,1,160
216,56,22419,2,0,B|192:88|144:88,1,80,2|0
48,216,22809,2,0,B|72:176|120:176,1,80,2|0
216,176,23198,6,0,B|208:264|296:312,1,160
352,256,23783,2,0,B|384:176|480:160,1,160
432,88,24367,2,0,B|368:24|280:64,1,160
216,16,24952,6,0,B|128:40|112:136,1,160
16,248,25536,2,0,B|56:328,1,80,2|0
136,304,25926,6,0,B|240:392|336:240|440:304,1,320,4|0
256,192,28271,12,4,32167
256,32,44634,6,0,B|168:40|128:128,1,160,4|2
56,104,45219,2,0,B|40:192|104:264,1,160
176,240,45803,2,0,B|240:312,1,80,2|0
304,320,46193,5,2
296,240,46387,1,0
368,272,46582,1,0
376,352,46777,1,2
440,304,46972,1,2
432,224,47167,1,0
504,256,47361,1,2
496,176,47556,1,0
424,144,47751,6,0,B|400:56|304:40,1,160,4|2
280,112,48335,2,0,B|120:136,1,160
112,216,48920,2,0,B|208:200,1,80,2|0
232,272,49309,5,2
288,216,49504,1,0
312,296,49699,1,0
256,352,49894,1,2
176,336,50089,1,2
160,256,50283,1,0
104,312,50478,1,2
80,232,50673,1,0
256,192,50868,12,4,52426
496,192,53400,5,0
256,192,53985,12,4,55543
16,192,56517,5,0
256,352,57102,6,0,B|352:328|360:224,1,160,4|0
448,272,57686,2,0,B|472:184|416:120,1,160
344,64,58271,1,0
328,160,58465,1,0
256,96,58660,6,0,B|208:168|264:256,1,160,4|0
160,248,59245,2,0,B|144:336|32:352,1,160
8,264,59829,1,0
88,208,60024,1,0
32,128,60219,6,0,B|96:64|184:96,1,160,4|0
224,8,60803,2,0,B|312:24|328:120,1,160
424,136,61387,1,0
352,208,61582,1,0
440,240,61777,6,0,B|352:384|152:336,1,320,4|0
256,192,62945,1,0
352,46,63336,6,0,B|160:0|64:152,1,320,4|0
256,192,64504,1,0
440,240,64894,6,0,B|352:384|152:336,1,320,4|0
64,328,65868,1,0
112,248,66063,1,0
16,232,66258,1,0
72,152,66452,6,0,B|72:64|184:32,1,160,4|0
248,88,67037,2,0,B|328:56,1,80,0|8
376,136,67426,1,0
376,136,67524,1,0
376,136,67621,1,8
304,200,67816,1,0
352,280,68011,6,0,B|296:344|200:320,1,160,4|0
112,320,68595,2,0,B|104:232,1,80,0|8
40,176,68985,1,0
40,176,69082,1,0
40,176,69180,1,8
104,104,69374,1,0
184,152,69569,6,0,B|216:72|312:72,1,160,4|0
480,64,70154,2,0,B|448:144|352:144,1,160
408,224,70738,1,0
312,232,70933,1,0
336,328,71128,6,0,B|256:288|176:336,1,160,4|0
32,224,71712,2,0,B|112:264|192:216,1,160,0|0
208,128,72296,1,0
304,128,72491,1,0
328,40,72686,6,0,B|416:64|424:160,1,160,4|0
184,344,73271,2,0,B|96:320|88:224,1,160
32,152,73855,1,0
120,112,74050,1,0
176,192,74245,6,0,B|264:48|464:80,1,320,4|0
360,248,75413,1,0
152,168,75803,6,0,B|240:24|440:56,1,320,4|0
384,296,76972,1,0
128,144,77361,6,0,B|216:0|416:32,1,320,4|0
472,96,78335,1,0
384,128,78530,1,0
448,200,78725,1,0
352,216,78920,1,4
256,192,79017,12,4,82037
