osu file format v14

[General]
AudioFilename: Nawatobi.mp3
AudioLeadIn: 0
PreviewTime: 93351
Countdown: 0
SampleSet: Soft
StackLeniency: 0.7
Mode: 1
LetterboxInBreaks: 0
WidescreenStoryboard: 0

[Editor]
DistanceSpacing: 0.8
BeatDivisor: 4
GridSize: 32
TimelineZoom: 0.3

[Metadata]
Title:Nawatobi
TitleUnicode:なわとび
Artist:Koizumi Hanayo (CV.Kubo Yurika)
ArtistUnicode:小泉花陽(CV.久保ユリカ)
Creator:Chocola_2287
Version:Muzukashii
Source:ラブライブ!School idol project
Tags:Love Live TV anime blu-ray Hata Aki rino Fujita Yoshihisa Skylish
BeatmapID:1356256
BeatmapSetID:557319

[Difficulty]
HPDrainRate:6
CircleSize:5
OverallDifficulty:4
ApproachRate:5
SliderMultiplier:1.4
SliderTickRate:1

[Events]
//Background and Video events
0,0,"beach_sunrise-wallpaper-1280x720.jpg",0,0
//Break Periods
//Storyboard Layer 0 (Background)
//Storyboard Layer 1 (Fail)
//Storyboard Layer 2 (Pass)
//Storyboard Layer 3 (Foreground)
//Storyboard Sound Samples

[TimingPoints]
8088,789.473684210526,4,2,0,66,1,0
27035,-100,4,2,0,44,0,0
52298,-100,4,2,0,66,0,0
93351,-100,4,2,0,77,0,1
131245,-100,4,2,0,50,0,0

[HitObjects]
192,192,8088,5,0,0:0:0:0:
128,160,8877,1,0,0:0:0:0:
160,192,9666,1,8,0:0:0:0:
192,192,11245,1,0,0:0:0:0:
160,192,12035,1,8,0:0:0:0:
160,192,12824,1,0,0:0:0:0:
192,192,14403,1,0,0:0:0:0:
160,192,15193,1,0,0:0:0:0:
160,192,15982,1,8,0:0:0:0:
192,160,17561,1,0,0:0:0:0:
160,192,18351,1,0,0:0:0:0:
160,192,19140,1,8,0:0:0:0:
160,192,19930,1,8,0:0:0:0:
192,160,20719,1,0,0:0:0:0:
128,160,21509,1,0,0:0:0:0:
160,192,22298,1,8,0:0:0:0:
192,192,23087,1,8,0:0:0:0:
160,192,27035,1,0,0:0:0:0:
192,160,27824,1,0,0:0:0:0:
224,192,28614,1,8,0:0:0:0:
192,160,29403,1,8,0:0:0:0:
224,192,30193,1,0,0:0:0:0:
192,192,30982,1,0,0:0:0:0:
224,192,31772,1,8,0:0:0:0:
192,160,32561,1,8,0:0:0:0:
192,160,32956,1,0,0:0:0:0:
224,192,33351,1,0,0:0:0:0:
192,160,34140,1,0,0:0:0:0:
224,192,34930,1,8,0:0:0:0:
192,160,35719,1,8,0:0:0:0:
224,192,36509,1,0,0:0:0:0:
128,160,37298,1,8,0:0:0:0:
224,192,37693,1,0,0:0:0:0:
224,192,39666,1,0,0:0:0:0:
192,224,40456,1,0,0:0:0:0:
224,192,41245,1,8,0:0:0:0:
192,224,42035,1,8,0:0:0:0:
224,192,42824,1,0,0:0:0:0:
192,224,43614,1,8,0:0:0:0:
192,224,44009,1,8,0:0:0:0:
192,192,44798,1,0,0:0:0:0:
192,192,45193,1,8,0:0:0:0:
224,192,45982,1,0,0:0:0:0:
192,160,46772,1,0,0:0:0:0:
224,192,47561,1,8,0:0:0:0:
160,192,48351,1,8,0:0:0:0:
224,192,49140,1,0,0:0:0:0:
224,192,49930,1,0,0:0:0:0:
224,192,50719,5,8,0:0:0:0:
224,192,52298,5,0,0:0:0:0:
192,192,53087,1,8,0:0:0:0:
224,192,53877,1,0,0:0:0:0:
192,192,54272,1,0,0:0:0:0:
192,192,54666,1,8,0:0:0:0:
224,192,55456,1,0,0:0:0:0:
224,192,56245,1,8,0:0:0:0:
160,160,56640,1,0,0:0:0:0:
192,192,57430,1,0,0:0:0:0:
160,192,57824,1,8,0:0:0:0:
224,192,58614,1,0,0:0:0:0:
192,192,59403,1,8,0:0:0:0:
192,192,60193,1,0,0:0:0:0:
192,192,60587,1,0,0:0:0:0:
192,192,60982,1,8,0:0:0:0:
224,192,61772,1,0,0:0:0:0:
192,192,62561,1,8,0:0:0:0:
224,192,62956,1,0,0:0:0:0:
192,192,64930,1,0,0:0:0:0:
192,160,65719,1,8,0:0:0:0:
192,160,66509,1,0,0:0:0:0:
192,160,66903,1,0,0:0:0:0:
160,192,67298,1,8,0:0:0:0:
192,192,68087,1,0,0:0:0:0:
160,192,68877,1,8,0:0:0:0:
160,192,69272,1,0,0:0:0:0:
256,192,70061,1,0,0:0:0:0:
224,192,70456,1,8,0:0:0:0:
192,192,71245,1,0,0:0:0:0:
160,192,72035,1,8,0:0:0:0:
192,192,72824,1,0,0:0:0:0:
160,128,73219,1,0,0:0:0:0:
160,128,73614,1,8,0:0:0:0:
128,192,74403,1,0,0:0:0:0:
128,192,75193,1,8,0:0:0:0:
128,192,75587,1,0,0:0:0:0:
224,192,77561,5,0,0:0:0:0:
224,192,78351,1,0,0:0:0:0:
224,192,78745,1,0,0:0:0:0:
224,192,79140,1,8,0:0:0:0:
224,192,79930,1,8,0:0:0:0:
224,192,80719,1,0,0:0:0:0:
224,192,81509,1,8,0:0:0:0:
224,192,81903,1,0,0:0:0:0:
224,192,82693,1,0,0:0:0:0:
224,192,83087,1,8,0:0:0:0:
224,192,83877,1,0,0:0:0:0:
224,192,84666,1,8,0:0:0:0:
224,192,85061,1,0,0:0:0:0:
224,192,85851,1,8,0:0:0:0:
224,192,86245,1,8,0:0:0:0:
160,160,87035,1,0,0:0:0:0:
192,160,87824,1,0,0:0:0:0:
192,160,88219,1,0,0:0:0:0:
160,160,88614,1,8,0:0:0:0:
160,160,89403,1,8,0:0:0:0:
160,160,89798,1,8,0:0:0:0:
96,192,90193,2,0,P|160:128|192:224,1,210
256,192,91772,12,0,92561,0:0:0:0:
160,224,93351,5,4,0:0:0:0:
160,224,94140,1,8,0:0:0:0:
160,160,94930,1,0,0:0:0:0:
160,160,95127,1,0,0:0:0:0:
160,160,95324,1,0,0:0:0:0:
160,160,95719,1,8,0:0:0:0:
160,224,96509,1,0,0:0:0:0:
160,160,97298,1,8,0:0:0:0:
160,160,98087,1,8,0:0:0:0:
160,160,98285,1,8,0:0:0:0:
160,160,98482,1,8,0:0:0:0:
160,160,98877,1,8,0:0:0:0:
160,160,99666,1,0,0:0:0:0:
160,192,100456,1,8,0:0:0:0:
192,128,101245,1,0,0:0:0:0:
192,128,101443,1,0,0:0:0:0:
192,128,101640,1,0,0:0:0:0:
160,160,102035,1,8,0:0:0:0:
160,160,102824,1,0,0:0:0:0:
192,128,103614,1,8,0:0:0:0:
192,128,104403,1,0,0:0:0:0:
160,160,105982,1,4,0:0:0:0:
160,160,106772,1,8,0:0:0:0:
192,128,107561,1,0,0:0:0:0:
192,128,107759,1,0,0:0:0:0:
192,128,107956,1,0,0:0:0:0:
160,128,108351,1,8,0:0:0:0:
160,224,109140,1,0,0:0:0:0:
160,224,109930,1,8,0:0:0:0:
160,160,110719,1,8,0:0:0:0:
128,192,110916,1,8,0:0:0:0:
128,192,111114,1,8,0:0:0:0:
160,160,111509,1,8,0:0:0:0:
160,160,112298,1,0,0:0:0:0:
224,160,113087,1,8,0:0:0:0:
128,192,113877,1,0,0:0:0:0:
128,192,114074,1,0,0:0:0:0:
128,192,114272,1,0,0:0:0:0:
160,160,114666,1,8,0:0:0:0:
160,160,115456,1,0,0:0:0:0:
128,192,116245,1,8,0:0:0:0:
128,192,117035,1,0,0:0:0:0:
128,192,117232,1,0,0:0:0:0:
128,192,117430,1,0,0:0:0:0:
160,160,117824,1,8,0:0:0:0:
160,160,118219,1,8,0:0:0:0:
160,224,118614,1,0,0:0:0:0:
160,192,119009,1,0,0:0:0:0:
160,192,119206,1,0,0:0:0:0:
160,192,119403,1,0,0:0:0:0:
160,192,120193,1,8,0:0:0:0:
160,192,120587,1,8,0:0:0:0:
160,192,120785,1,8,0:0:0:0:
160,192,120982,1,8,0:0:0:0:
160,192,121772,1,0,0:0:0:0:
160,192,122166,1,0,0:0:0:0:
160,192,122364,1,0,0:0:0:0:
160,192,122561,1,0,0:0:0:0:
160,192,122956,1,0,0:0:0:0:
160,192,123351,1,8,0:0:0:0:
160,192,123745,1,8,0:0:0:0:
160,192,123943,1,8,0:0:0:0:
160,192,124140,1,8,0:0:0:0:
160,224,124930,1,0,0:0:0:0:
160,192,125719,1,8,0:0:0:0:
160,192,126114,1,0,0:0:0:0:
160,192,126903,1,0,0:0:0:0:
160,192,127298,1,8,0:0:0:0:
160,192,127693,1,8,0:0:0:0:
160,224,128087,1,0,0:0:0:0:
160,192,128877,1,8,0:0:0:0:
160,192,129272,1,0,0:0:0:0:
160,192,129666,1,0,0:0:0:0:
160,192,130061,1,8,0:0:0:0:
160,192,130259,1,8,0:0:0:0:
160,192,130456,1,8,0:0:0:0:
256,192,131245,12,0,134403,0:0:0:0:
