osu file format v14

[General]
AudioFilename: Nawatobi.mp3
AudioLeadIn: 0
PreviewTime: 93351
Countdown: 0
SampleSet: Soft
StackLeniency: 0.7
Mode: 1
LetterboxInBreaks: 0
WidescreenStoryboard: 0

[Editor]
DistanceSpacing: 0.8
BeatDivisor: 1
GridSize: 32
TimelineZoom: 0.5

[Metadata]
Title:Nawatobi
TitleUnicode:なわとび
Artist:Koizumi Hanayo (CV.Kubo Yurika)
ArtistUnicode:小泉花陽(CV.久保ユリカ)
Creator:Chocola_2287
Version:Kantan
Source:ラブライブ!School idol project
Tags:Love Live TV anime blu-ray Hata Aki rino Fujita Yoshihisa Skylish
BeatmapID:1179282
BeatmapSetID:557319

[Difficulty]
HPDrainRate:9
CircleSize:5
OverallDifficulty:2
ApproachRate:5
SliderMultiplier:1.4
SliderTickRate:1

[Events]
//Background and Video events
0,0,"beach_sunrise-wallpaper-1280x720.jpg",0,0
//Break Periods
//Storyboard Layer 0 (Background)
//Storyboard Layer 1 (Fail)
//Storyboard Layer 2 (Pass)
//Storyboard Layer 3 (Foreground)
//Storyboard Sound Samples

[TimingPoints]
8088,789.473684210526,4,2,0,66,1,0
27035,-100,4,2,0,44,0,0
52298,-100,4,2,0,66,0,0
93351,-100,4,2,0,77,0,1
131245,-100,4,2,0,50,0,0

[HitObjects]
192,192,8088,5,0,0:0:0:0:
192,192,11245,1,0,0:0:0:0:
192,192,14403,1,0,0:0:0:0:
192,160,17561,1,0,0:0:0:0:
160,160,19140,1,8,0:0:0:0:
192,160,20719,1,0,0:0:0:0:
160,160,22298,1,8,0:0:0:0:
192,192,23087,1,8,0:0:0:0:
160,192,27035,1,0,0:0:0:0:
160,160,28614,1,0,0:0:0:0:
160,192,30193,1,0,0:0:0:0:
160,192,33351,1,8,0:0:0:0:
160,160,34930,1,8,0:0:0:0:
160,192,36509,1,8,0:0:0:0:
160,192,39666,1,0,0:0:0:0:
160,224,41245,1,0,0:0:0:0:
160,192,42824,1,0,0:0:0:0:
160,192,45982,1,8,0:0:0:0:
160,224,47561,1,8,0:0:0:0:
160,192,49140,1,8,0:0:0:0:
224,192,52298,1,0,0:0:0:0:
224,192,53877,1,8,0:0:0:0:
224,192,55456,1,0,0:0:0:0:
224,192,56245,1,0,0:0:0:0:
224,192,57035,1,0,0:0:0:0:
224,192,58614,1,0,0:0:0:0:
224,192,60193,1,8,0:0:0:0:
224,192,61772,1,0,0:0:0:0:
224,192,64930,1,0,0:0:0:0:
224,192,66509,1,8,0:0:0:0:
224,192,68087,1,0,0:0:0:0:
224,192,68877,1,0,0:0:0:0:
224,192,69666,1,8,0:0:0:0:
224,192,71245,1,0,0:0:0:0:
224,192,72824,1,8,0:0:0:0:
96,160,74403,1,0,0:0:0:0:
192,192,77561,5,0,0:0:0:0:
192,192,79140,1,8,0:0:0:0:
192,192,80719,1,0,0:0:0:0:
192,192,81903,1,0,0:0:0:0:
192,192,83877,1,0,0:0:0:0:
192,192,85061,1,8,0:0:0:0:
96,160,86245,1,8,0:0:0:0:
192,192,87035,1,0,0:0:0:0:
192,192,88614,1,8,0:0:0:0:
96,320,90193,2,0,P|64:160|96:96,1,210
256,192,91772,12,0,92561,0:0:0:0:
160,224,93351,5,4,0:0:0:0:
160,224,94140,1,0,0:0:0:0:
160,224,94930,1,0,0:0:0:0:
160,224,96509,1,0,0:0:0:0:
160,224,97298,1,0,0:0:0:0:
160,224,98087,1,0,0:0:0:0:
160,224,99666,1,8,0:0:0:0:
160,224,100456,1,8,0:0:0:0:
160,224,101245,1,8,0:0:0:0:
160,224,102824,1,8,0:0:0:0:
160,224,103614,1,8,0:0:0:0:
160,224,104403,1,8,0:0:0:0:
160,224,105982,1,4,0:0:0:0:
160,224,106772,1,0,0:0:0:0:
160,224,107561,1,8,0:0:0:0:
160,224,109140,1,0,0:0:0:0:
160,224,109930,1,0,0:0:0:0:
160,224,110719,1,8,0:0:0:0:
160,224,112298,1,8,0:0:0:0:
160,224,115456,1,8,0:0:0:0:
160,224,116245,1,8,0:0:0:0:
160,224,117035,1,0,0:0:0:0:
160,224,118614,1,0,0:0:0:0:
160,224,120193,1,8,0:0:0:0:
128,192,120982,1,8,0:0:0:0:
160,224,121772,1,0,0:0:0:0:
160,224,123351,1,8,0:0:0:0:
160,224,124930,1,0,0:0:0:0:
160,224,126114,1,8,0:0:0:0:
128,224,127298,1,8,0:0:0:0:
160,224,128087,1,0,0:0:0:0:
160,224,129666,1,0,0:0:0:0:
160,224,130456,1,0,0:0:0:0:
256,192,131245,12,0,134403,0:0:0:0:
