osu file format v13

[General]
AudioFilename: llll.mp3
AudioLeadIn: 2000
PreviewTime: 39847
Countdown: 0
SampleSet: Soft
StackLeniency: 0.7
Mode: 0
LetterboxInBreaks: 0
WidescreenStoryboard: 0

[Editor]
Bookmarks: 21855,45007
DistanceSpacing: 1.2
BeatDivisor: 16
GridSize: 4
TimelineZoom: 1.7

[Metadata]
Title:BEAUTIFUL WORLD
TitleUnicode:BEAUTIFUL WORLD
Artist:Koike Joanna
ArtistUnicode:小池ジョアンナ
Creator:appleeaterx
Version:Insane
Source:それでも世界は美しい
Tags:soredemo sekai wa utsukushii Still world is Beautiful opening op tv size kibbleru
BeatmapID:435749
BeatmapSetID:181551

[Difficulty]
HPDrainRate:6
CircleSize:4
OverallDifficulty:7
ApproachRate:9
SliderMultiplier:2
SliderTickRate:1

[Events]
//Background and Video events
0,0,"drifloon.jpg",0,0
//Break Periods
//Storyboard Layer 0 (Background)
//Storyboard Layer 1 (Fail)
//Storyboard Layer 2 (Pass)
//Storyboard Layer 3 (Foreground)
//Storyboard Sound Samples
//Background Colour Transformations
3,100,163,162,255

[TimingPoints]
514,333.333333333333,4,2,1,30,1,0
514,-153.846153846154,4,2,1,30,0,0
3180,-153.846153846154,4,3,0,50,0,0
5013,-153.846153846154,4,3,0,40,0,0
5513,-153.846153846154,4,2,1,30,0,0
5847,-100,4,2,1,60,0,0
13847,-100,4,3,0,60,0,0
16513,-100,4,2,1,60,0,0
27180,-142.857142857143,4,2,1,60,0,0
33847,-142.857142857143,4,2,1,25,0,0
34180,-142.857142857143,4,2,1,30,0,0
34513,-142.857142857143,4,2,1,35,0,0
34847,-142.857142857143,4,2,1,40,0,0
35180,-142.857142857143,4,2,1,45,0,0
39013,-153.846153846154,4,2,1,50,0,0
40513,-100,4,2,1,70,0,1
50347,-100,4,3,0,55,0,1
51180,-111.111111111111,4,2,1,70,0,1
56513,-142.857142857143,4,2,1,70,0,1
59180,-142.857142857143,4,3,0,50,0,1
61180,-142.857142857143,4,3,0,40,0,1
61847,-111.111111111111,4,2,1,70,0,1
68180,-100,4,2,1,70,0,1
68513,-100,4,2,1,50,0,0

[Colours]
Combo1 : 153,166,210
Combo2 : 228,228,228
Combo3 : 231,176,143
Combo4 : 142,223,163

[HitObjects]
144,304,514,6,0,L|64:256,1,64.9999970245363,2|0,0:0|0:0,0:0:0:0:
232,241,847,2,0,L|288:208,1,64.9999970245363
144,176,1180,2,0,L|64:128,1,64.9999970245363,2|0,0:0|0:0,0:0:0:0:
232,113,1513,2,0,L|288:80,1,64.9999970245363
448,56,1847,6,0,L|368:40,1,64.9999970245363,2|0,0:0|0:0,0:0:0:0:
300,160,2180,2,0,L|374:131,1,64.9999970245363
452,248,2513,2,0,L|372:232,1,64.9999970245363,2|0,0:0|0:0,0:0:0:0:
304,352,2847,2,0,L|378:323,1,64.9999970245363
352,192,3180,5,8,0:0:0:0:
416,96,3347,1,8,0:0:0:0:
256,192,3680,5,8,0:0:0:0:
256,80,3847,1,8,0:0:0:0:
160,192,4180,5,8,0:0:0:0:
96,96,4347,1,8,0:0:0:0:
352,192,4680,5,8,0:0:0:0:
160,192,4847,1,8,0:0:0:0:
164,312,5013,5,0,0:0:0:0:
193,321,5097,1,0,0:0:0:0:
224,327,5180,1,0,0:0:0:0:
255,329,5263,1,0,0:0:0:0:
286,327,5347,1,0,0:0:0:0:
317,321,5430,1,0,0:0:0:0:
348,312,5513,2,0,P|392:292|424:268,1,64.9999970245363,2|0,0:0|0:0,0:0:0:0:
456,188,5847,5,6,0:0:0:0:
476,84,6013,1,0,0:0:0:0:
392,12,6180,1,8,0:0:0:0:
304,80,6347,1,0,0:0:0:0:
304,80,6430,1,0,0:0:0:0:
304,80,6513,2,0,L|224:144,1,100
264,264,6847,1,8,0:0:0:0:
264,264,7013,2,0,L|344:200,1,100
480,288,7347,5,0,0:3:0:0:
472,144,7513,1,8,0:2:0:0:
342,201,7680,1,0,0:0:0:0:
480,288,7847,2,0,P|384:272|384:384,1,200,2|10,0:0|0:0,0:0:0:0:
256,296,8347,1,0,0:0:0:0:
144,348,8513,5,2,0:0:0:0:
168,240,8680,1,0,0:0:0:0:
56,276,8847,1,8,0:0:0:0:
168,240,9013,1,0,0:0:0:0:
80,168,9180,1,0,0:0:0:0:
188,132,9347,1,0,0:0:0:0:
188,132,9430,1,0,0:0:0:0:
188,132,9513,2,0,L|308:100,1,100,8|2,0:0|0:0,0:0:0:0:
296,256,9847,5,0,0:0:0:0:
296,256,10013,2,0,L|176:288,1,100,0|10,0:0|0:0,0:0:0:0:
56,276,10347,1,0,0:0:0:0:
64,128,10513,2,0,P|160:144|160:32,1,200,2|10,0:0|0:0,0:0:0:0:
320,80,11013,1,0,0:0:0:0:
256,160,11180,5,6,0:0:0:0:
384,160,11347,1,0,0:0:0:0:
384,160,11430,1,0,0:0:0:0:
384,160,11513,1,8,0:0:0:0:
328,240,11680,5,0,0:0:0:0:
240,144,11847,1,0,0:0:0:0:
344,256,12013,1,0,0:0:0:0:
288,352,12180,1,8,0:0:0:0:
200,280,12347,2,0,P|176:200|64:208,1,200
28,100,12847,5,8,0:0:0:0:
136,80,13013,1,0,0:0:0:0:
136,80,13097,1,0,0:0:0:0:
136,80,13180,2,0,L|240:56,2,100,8|0|2,0:0|0:0|0:0,0:0:0:0:
156,188,13680,1,0,0:0:0:0:
52,200,13847,5,0,0:0:0:0:
57,237,13930,1,0,0:0:0:0:
63,274,14013,1,0,0:0:0:0:
71,310,14097,1,0,0:0:0:0:
79,347,14180,1,0,0:0:0:0:
328,232,14513,6,0,L|224:264,2,100,0|0|0,0:0|0:0|0:0,0:0:0:0:
392,152,15013,1,2,0:0:0:0:
264,80,15847,5,0,0:0:0:0:
236,65,15930,1,0,0:0:0:0:
205,59,16013,1,0,0:0:0:0:
174,63,16097,1,0,0:0:0:0:
146,75,16180,1,0,0:0:0:0:
122,96,16263,1,0,0:0:0:0:
106,122,16347,1,0,0:0:0:0:
98,152,16430,1,0,0:0:0:0:
96,184,16513,6,0,P|100:244|120:288,1,100,6|0,0:0|0:0,0:0:0:0:
204,344,16847,1,8,0:0:0:0:
300,300,17013,2,0,P|376:288|436:256,1,100
444,152,17347,1,0,0:0:0:0:
384,32,17513,1,8,0:0:0:0:
296,104,17680,2,0,P|240:176|112:128,1,200,2|0,0:0|0:0,0:0:0:0:
200,88,18180,5,10,0:0:0:0:
192,80,18513,1,10,0:0:0:0:
408,96,18847,6,0,L|288:168,1,100,0|0,0:0|0:0,0:0:0:0:
232,200,19180,1,2,0:0:0:0:
160,104,19347,1,0,0:0:0:0:
104,208,19513,5,8,0:0:0:0:
104,208,19597,1,0,0:0:0:0:
104,208,19680,1,0,0:0:0:0:
0,240,19847,1,0,0:0:0:0:
80,332,20013,2,0,P|133:318|200:292,1,100,0|8,0:0|0:0,0:0:0:0:
256,264,20347,2,0,P|320:192|432:216,1,200,2|0,0:0|0:0,0:0:0:0:
360,296,20847,5,10,0:0:0:0:
368,304,21180,1,10,0:0:0:0:
248,308,21513,5,0,0:0:0:0:
210,308,21597,1,0,0:0:0:0:
173,308,21680,1,0,0:0:0:0:
135,308,21763,1,0,0:0:0:0:
96,308,21847,6,0,B|80:276|80:276|80:172,1,100,6|0,0:0|0:0,0:0:0:0:
160,100,22180,2,0,B|176:132|176:132|176:236,1,100,8|0,0:0|0:0,0:0:0:0:
292,192,22513,2,0,P|368:168|432:260,1,200,2|8,0:0|0:0,0:0:0:0:
352,248,23013,2,0,B|352:328|352:328|288:288|232:336,1,200,2|0,0:0|0:0,0:0:0:0:
91,264,23513,5,8,0:0:0:0:
250,233,23680,1,0,0:0:0:0:
140,352,23847,1,0,0:0:0:0:
159,191,24013,1,0,0:0:0:0:
238,332,24180,1,8,0:0:0:0:
91,264,24347,1,0,0:0:0:0:
91,264,24430,1,0,0:0:0:0:
92,264,24513,6,0,L|212:192,1,100,2|0,0:0|0:0,0:0:0:0:
168,100,24847,1,8,0:0:0:0:
264,168,25013,2,0,P|424:184|424:296,1,300,2|8,0:0|0:0,0:0:0:0:
280,312,25680,2,2,L|168:336,1,100,2|0,0:0|0:0,0:0:0:0:
296,216,26013,6,2,L|192:144,1,100,2|8,0:0|0:0,0:0:0:0:
384,272,26347,2,2,L|480:216,1,100,2|0,0:0|0:0,0:0:0:0:
470,221,26680,1,2,0:0:0:0:
368,164,26847,5,8,0:0:0:0:
379,128,26930,1,0,0:0:0:0:
374,91,27013,1,0,0:0:0:0:
355,59,27097,1,0,0:0:0:0:
325,38,27180,5,6,0:0:0:0:
284,124,27513,2,0,L|204:156,1,69.9999978637696
64,216,28013,6,0,L|135:251,1,69.9999978637696
200,284,28347,1,2,0:0:0:0:
352,352,28680,6,0,L|440:312,1,69.9999978637696
456,240,29013,1,0,0:0:0:0:
456,240,29097,1,0,0:0:0:0:
456,240,29180,1,2,0:0:0:0:
400,112,29513,6,0,L|320:96,1,69.9999978637696
240,80,29847,1,8,0:0:0:0:
352,224,30180,1,0,0:0:0:0:
264,264,30347,2,0,L|128:320,2,139.999995727539,10|8|8,0:0|0:0|0:0,0:0:0:0:
272,272,31347,5,8,0:0:0:0:
280,280,31680,1,8,0:0:0:0:
288,288,32013,5,0,0:0:0:0:
336,360,32180,1,0,0:0:0:0:
424,328,32347,1,0,0:0:0:0:
372,256,32513,1,6,0:0:0:0:
336,104,32847,5,0,0:0:0:0:
240,72,33013,2,0,B|248:128|240:152|240:152|296:184,2,139.999995727539,2|2|2,0:0|0:0|0:0,0:0:0:0:
136,116,33847,5,8,0:0:0:0:
96,28,34013,1,8,0:0:0:0:
136,116,34180,1,8,0:0:0:0:
40,116,34347,1,8,0:0:0:0:
136,116,34513,1,8,0:0:0:0:
96,204,34680,1,8,0:0:0:0:
48,288,34847,1,8,0:0:0:0:
144,304,35013,1,8,0:0:0:0:
144,304,35097,1,0,0:0:0:0:
144,304,35180,6,0,B|220:276|288:336,1,139.999995727539,10|8,0:0|0:0,0:0:0:0:
308,224,35680,2,0,B|258:168|286:92,1,139.999995727539,10|8,0:0|0:0,0:0:0:0:
256,192,36347,12,2,37513,0:0:0:0:
52,312,37847,6,0,L|108:284,3,34.9999989318848,0|0|0|0,0:0|0:0|0:0|0:0,0:0:0:0:
132,228,38180,2,0,L|188:256,3,34.9999989318848,0|0|0|0,0:0|0:0|0:0|0:0,0:0:0:0:
200,320,38513,2,0,L|256:292,3,34.9999989318848,0|0|0|0,0:0|0:0|0:0|0:0,0:0:0:0:
280,236,38847,2,0,L|336:264,1,34.9999989318848,0|0,0:0|0:0,0:0:0:0:
372,300,39013,2,0,P|423:265|494:275,1,129.999994049073,6|8,0:0|0:0,0:0:0:0:
444,343,39513,1,0,0:0:0:0:
448,96,39847,5,0,0:0:0:0:
352,160,40013,1,0,0:0:0:0:
328,56,40180,1,0,0:0:0:0:
291,65,40263,1,0,0:0:0:0:
254,71,40347,1,0,0:0:0:0:
217,73,40430,1,0,0:0:0:0:
179,72,40513,6,0,P|192:144|184:184,1,100,6|0,0:0|0:0,0:0:0:0:
128,276,40847,1,8,0:0:0:0:
128,276,40930,1,0,0:0:0:0:
128,276,41013,2,0,P|200:284|256:300,1,100
304,380,41347,2,0,P|351:365|400:340,1,100,0|8,0:0|0:0,0:0:0:0:
480,296,41680,1,0,0:0:0:0:
456,196,41847,6,0,L|420:92,1,100,2|0,0:0|0:0,0:0:0:0:
348,188,42180,2,0,L|300:284,1,100,8|0,0:0|0:0,0:0:0:0:
192,212,42513,2,0,P|176:164|148:120,1,100
64,88,42847,1,8,0:0:0:0:
48,216,43013,1,0,0:0:0:0:
152,288,43180,6,0,P|224:288|272:184,1,200,2|8,0:0|0:0,0:0:0:0:
232,80,43680,1,0,0:0:0:0:
324,24,43847,2,0,P|364:69|363:137,1,100
452,162,44180,2,0,P|418:196|369:209,1,100,8|0,0:0|0:0,0:0:0:0:
319,295,44513,6,0,P|278:249|272:184,1,100,2|0,0:0|0:0,0:0:0:0:
192,168,44847,2,0,P|228:134|274:115,1,100,8|0,0:0|0:0,0:0:0:0:
384,92,45180,1,0,0:0:0:0:
316,204,45347,1,0,0:0:0:0:
384,92,45513,1,8,0:0:0:0:
256,60,45680,1,0,0:0:0:0:
256,60,45763,1,0,0:0:0:0:
256,60,45847,6,0,P|144:76|112:156,1,200,6|8,0:0|0:0,0:0:0:0:
152,248,46347,1,0,0:0:0:0:
152,248,46513,2,0,L|264:224,1,100
352,244,46847,1,8,0:0:0:0:
368,144,47013,2,0,L|272:64,1,100
212,24,47347,5,0,0:0:0:0:
148,96,47513,1,8,0:0:0:0:
228,152,47680,1,0,0:0:0:0:
291,79,47847,2,0,L|392:56,1,100,2|0,0:0|0:0,0:0:0:0:
464,108,48180,1,8,0:0:0:0:
400,176,48347,1,0,0:0:0:0:
400,176,48430,1,0,0:0:0:0:
400,176,48513,6,0,L|299:199,1,100,2|0,0:0|0:0,0:0:0:0:
128,224,48847,1,8,0:0:0:0:
128,224,49013,2,0,P|220:254|232:360,1,200,2|0,0:0|0:0,0:0:0:0:
150,318,49513,1,8,0:0:0:0:
380,276,49847,6,0,L|400:176,1,100
360,76,50180,1,0,0:0:0:0:
268,140,50347,1,2,0:0:0:0:
239,123,50430,1,0,0:0:0:0:
206,114,50513,1,0,0:0:0:0:
173,114,50597,1,0,0:0:0:0:
141,122,50680,1,0,0:0:0:0:
111,137,50763,1,0,0:0:0:0:
87,159,50847,1,0,0:0:0:0:
68,187,50930,1,0,0:0:0:0:
57,218,51013,1,0,0:0:0:0:
55,252,51097,1,0,0:0:0:0:
64,280,51180,6,0,B|168:280|168:280|168:280,1,89.9999972534181,12|0,0:0|0:0,0:0:0:0:
224,312,51513,2,0,L|264:232,1,89.9999972534181,8|0,0:0|0:0,0:0:0:0:
360,240,51847,2,0,L|304:152,1,89.9999972534181,10|0,0:0|0:0,0:0:0:0:
368,96,52180,2,0,L|272:56,1,89.9999972534181,8|0,0:0|0:0,0:0:0:0:
176,176,52513,5,10,0:0:0:0:
80,128,52680,1,0,0:0:0:0:
136,32,52847,1,8,0:0:0:0:
232,80,53013,1,0,0:0:0:0:
296,168,53180,2,0,L|384:136,1,89.9999972534181,8|0,0:0|0:0,0:0:0:0:
480,104,53513,1,8,0:0:0:0:
436,208,53680,1,0,0:0:0:0:
428,244,53763,1,0,0:0:0:0:
420,280,53847,6,0,B|316:280|316:280|316:280,1,89.9999972534181,12|0,0:0|0:0,0:0:0:0:
216,280,54180,2,0,L|135:239,1,89.9999972534181,8|0,0:0|0:0,0:0:0:0:
251,197,54513,2,0,L|222:111,1,89.9999972534181,10|0,0:0|0:0,0:0:0:0:
335,143,54847,2,0,L|375:63,1,89.9999972534181,8|0,0:0|0:0,0:0:0:0:
432,148,55180,5,2,0:0:0:0:
448,268,55347,1,0,0:0:0:0:
336,212,55513,1,8,0:0:0:0:
320,100,55680,2,0,B|264:84|200:108|160:164,1,179.999994506836,2|0,0:0|0:0,0:0:0:0:
162,161,56180,1,8,0:0:0:0:
112,272,56347,1,0,0:0:0:0:
112,272,56430,1,0,0:0:0:0:
112,272,56513,6,0,L|256:248,1,139.999995727539,6|0,0:0|0:0,0:0:0:0:
368,208,57013,2,0,B|360:264|368:288|368:288|312:320,2,139.999995727539,2|10|2,0:0|0:0|0:0,0:0:0:0:
428,124,57847,6,0,L|360:92,1,69.9999978637696,2|0,0:0|0:0,0:0:0:0:
256,44,58180,1,0,0:0:0:0:
304,184,58347,2,0,P|257:227|208:184,1,139.999995727539,2|0,0:0|0:0,0:0:0:0:
147,94,58847,2,0,L|84:124,1,69.9999978637696,10|8,0:0|0:0,0:0:0:0:
160,192,59180,5,8,0:0:0:0:
96,288,59347,1,8,0:0:0:0:
256,192,59680,5,8,0:0:0:0:
256,304,59847,1,8,0:0:0:0:
352,192,60180,5,8,0:0:0:0:
416,288,60347,1,8,0:0:0:0:
160,192,60680,5,8,0:0:0:0:
352,192,60847,1,8,0:0:0:0:
256,304,61180,5,2,0:0:0:0:
352,192,61347,1,0,0:0:0:0:
264,81,61513,1,0,0:0:0:0:
227,76,61597,1,0,0:0:0:0:
189,77,61680,1,0,0:0:0:0:
153,87,61763,1,0,0:0:0:0:
120,105,61847,6,0,B|112:160|96:208|96:208|144:200|192:232,1,179.999994506836,6|8,0:0|0:0,0:0:0:0:
240,148,62347,1,0,0:0:0:0:
316,212,62513,1,0,0:0:0:0:
256,292,62680,2,0,L|360:372,2,89.9999972534181,0|8|0,0:0|0:0|0:0,0:0:0:0:
144,208,63180,6,0,L|112:104,1,89.9999972534181,2|0,0:0|0:0,0:0:0:0:
196,44,63513,2,0,L|224:144,1,89.9999972534181,8|0,0:0|0:0,0:0:0:0:
248,232,63847,5,0,0:0:0:0:
400,200,64013,1,0,0:0:0:0:
296,304,64180,1,8,0:0:0:0:
312,152,64347,1,0,0:0:0:0:
396,288,64513,6,0,B|420:328|416:379|416:379|368:363|316:376,1,179.999994506836,2|8,0:0|0:0,0:0:0:0:
216,288,65013,1,0,0:0:0:0:
216,288,65097,1,0,0:0:0:0:
216,288,65180,2,0,L|88:320,1,89.9999972534181,2|0,0:0|0:0,0:0:0:0:
48,220,65513,2,0,L|176:188,1,89.9999972534181,10|0,0:0|0:0,0:0:0:0:
144,208,65847,5,4,0:0:0:0:
152,216,66180,1,0,0:0:0:0:
160,224,66513,1,2,0:0:0:0:
168,232,66847,1,0,0:0:0:0:
176,240,67180,6,0,L|276:228,1,89.9999972534181,6|0,0:0|0:0,0:0:0:0:
316,324,67513,1,8,0:0:0:0:
392,248,67680,1,0,0:0:0:0:
348,148,67847,2,0,L|244:92,1,89.9999972534181
160,48,68180,5,8,0:0:0:0:
173,137,68347,1,0,0:0:0:0:
88,108,68513,1,2,0:0:0:0:
33,179,68680,1,0,0:0:0:0:
85,253,68847,1,8,0:0:0:0:
171,227,69013,1,0,0:0:0:0:
245,177,69180,5,2,0:0:0:0:
252,88,69347,1,0,0:0:0:0:
339,66,69513,1,8,0:0:0:0:
387,142,69680,1,8,0:0:0:0:
387,142,69763,1,8,0:0:0:0:
387,142,69847,5,8,0:0:0:0:
340,260,70013,1,8,0:0:0:0:
108,320,70347,5,8,0:0:0:0:
164,96,70680,1,8,0:0:0:0:
340,260,71013,1,8,0:0:0:0:
120,208,71347,5,8,0:0:0:0:
268,168,71513,1,10,0:0:0:0:
