osu file format v13

[General]
AudioFilename: llll.mp3
AudioLeadIn: 2000
PreviewTime: 39847
Countdown: 0
SampleSet: None
StackLeniency: 0.7
Mode: 0
LetterboxInBreaks: 0
WidescreenStoryboard: 0

[Editor]
Bookmarks: 45007
DistanceSpacing: 1.1
BeatDivisor: 4
GridSize: 4
TimelineZoom: 1.7

[Metadata]
Title:BEAUTIFUL WORLD
TitleUnicode:BEAUTIFUL WORLD
Artist:Koike Joanna
ArtistUnicode:小池ジョアンナ
Creator:appleeaterx
Version:Hard
Source:それでも世界は美しい
Tags:soredemo sekai wa utsukushii Still world is Beautiful opening op tv size kibbleru
BeatmapID:440826
BeatmapSetID:181551

[Difficulty]
HPDrainRate:6
CircleSize:4
OverallDifficulty:6
ApproachRate:8
SliderMultiplier:1.6
SliderTickRate:1

[Events]
//Background and Video events
0,0,"drifloon.jpg",0,0
//Break Periods
//Storyboard Layer 0 (Background)
//Storyboard Layer 1 (Fail)
//Storyboard Layer 2 (Pass)
//Storyboard Layer 3 (Foreground)
//Storyboard Sound Samples
//Background Colour Transformations
3,100,163,162,255

[TimingPoints]
514,333.333333333333,4,2,1,30,1,0
514,-133.333333333333,4,2,1,30,0,0
3180,-125,4,3,0,50,0,0
5013,-100,4,3,0,40,0,0
5513,-100,4,2,1,30,0,0
5847,-100,4,2,1,60,0,0
13847,-100,4,3,0,60,0,0
16513,-100,4,2,1,60,0,0
27180,-133.333333333333,4,2,1,60,0,0
32180,-100,4,2,1,60,0,0
33847,-100,4,2,1,25,0,0
34180,-100,4,2,1,30,0,0
34513,-100,4,2,1,35,0,0
34847,-100,4,2,1,40,0,0
35180,-100,4,2,1,45,0,0
39013,-100,4,2,1,50,0,0
40513,-90.9090909090909,4,2,1,70,0,1
50347,-90.9090909090909,4,3,0,55,0,1
51180,-100,4,2,1,70,0,1
56513,-111.111111111111,4,2,1,70,0,1
59180,-100,4,3,0,50,0,1
61180,-100,4,3,0,40,0,1
61847,-100,4,2,1,70,0,1
68513,-100,4,2,1,50,0,0

[Colours]
Combo1 : 153,166,210
Combo2 : 228,228,228
Combo3 : 231,176,143
Combo4 : 142,223,163

[HitObjects]
164,93,514,6,0,L|221:154,1,60.0000022888184,2|0,0:0|0:0,0:0:0:0:
246,64,847,2,0,L|295:26,1,60.0000022888184,0|0,0:0|0:0,0:0:0:0:
325,105,1180,2,0,L|366:149,1,60.0000022888184,2|0,0:0|0:0,0:0:0:0:
288,184,1513,2,0,L|238:221,1,60.0000022888184,0|0,0:0|0:0,0:0:0:0:
145,159,1847,6,0,L|136:100,1,60.0000022888184,2|0,0:0|0:0,0:0:0:0:
226,161,2180,2,0,L|240:220,1,60.0000022888184,0|0,0:0|0:0,0:0:0:0:
305,135,2513,2,0,L|296:76,1,60.0000022888184,2|0,0:0|0:0,0:0:0:0:
386,137,2847,2,0,L|400:196,1,60.0000022888184,0|0,0:0|0:0,0:0:0:0:
376,64,3180,6,8,P|332:41|295:36,1,64,8|8,0:0|0:0,0:0:0:0:
180,60,3680,2,8,P|131:104|122:129,1,64,8|8,0:0|0:0,0:0:0:0:
120,244,4180,2,8,P|136:291|157:319,1,64,8|8,0:0|0:0,0:0:0:0:
276,356,4680,2,8,P|322:355|362:345,1,64,8|8,0:0|0:0,0:0:0:0:
468,230,5180,6,0,L|522:229,4,40,0|0|0|0|2,0:0|0:0|0:0|0:0|0:0,0:0:0:0:
376,80,5847,6,0,P|312:64|224:128,1,160,6|8,0:0|0:0,0:0:0:0:
88,156,6513,2,0,P|82:112|88:72,2,80,0|0|8,0:0|0:0|0:0,0:0:0:0:
72,244,7013,2,0,P|112:300|196:280,1,160,0|0,0:0|0:3,0:0:0:0:
264,336,7513,1,8,0:2:0:0:
324,272,7680,1,0,0:0:0:0:
392,328,7847,2,0,P|436:292|408:200,1,160,2|10,0:0|0:0,0:0:0:0:
440,32,8513,6,0,P|376:52|300:-12,1,160,2|8,0:0|0:0,0:0:0:0:
156,108,9180,2,0,L|128:184,1,80,0|0,0:0|0:0,0:0:0:0:
128,272,9513,1,8,0:0:0:0:
212,304,9680,2,0,L|288:276,1,80,2|0,0:0|0:0,0:0:0:0:
380,260,10013,2,0,L|300:180,1,80,0|10,0:0|0:0,0:0:0:0:
252,148,10347,1,0,0:0:0:0:
260,60,10513,2,0,P|329:90|385:40,1,160,2|10,0:0|0:0,0:0:0:0:
460,168,11180,6,0,L|440:336,1,160,6|8,0:0|0:0,0:0:0:0:
360,296,11680,1,0,0:0:0:0:
276,312,11847,2,0,P|228:332|164:328,1,80,0|0,0:0|0:0,0:0:0:0:
216,248,12180,2,0,P|176:242|140:225,1,80,8|0,0:0|0:0,0:0:0:0:
56,188,12513,1,0,0:0:0:0:
128,136,12680,2,0,L|164:64,1,80,0|8,0:0|0:0,0:0:0:0:
232,120,13013,2,0,L|308:88,1,80,0|8,0:0|0:0,0:0:0:0:
468,160,13513,2,0,P|472:228|396:272,1,160
376,284,13930,5,0,0:0:0:0:
348,292,14013,1,0,0:0:0:0:
320,288,14097,1,0,0:0:0:0:
296,276,14180,1,0,0:0:0:0:
124,240,14513,2,0,P|44:192|156:176,1,240,0|2,0:0|0:0,0:0:0:0:
340,64,15847,6,0,L|396:80,3,40,0|0|0|0,0:0|0:0|0:0|0:0,0:0:0:0:
396,116,16180,2,0,L|384:172,3,40,0|0|0|0,0:0|0:0|0:0|0:0,0:0:0:0:
408,196,16513,6,0,P|440:252|368:336,1,160,6|8,0:0|0:0,0:0:0:0:
324,276,17013,1,0,0:0:0:0:
260,336,17180,2,0,P|196:320|116:384,1,160,0|8,0:0|0:0,0:0:0:0:
64,304,17680,1,2,0:0:0:0:
88,216,17847,2,0,P|164:229|225:182,1,160,0|10,0:0|0:0,0:0:0:0:
225,180,18513,1,10,0:0:0:0:
140,52,18847,5,0,0:0:0:0:
216,8,19013,1,0,0:0:0:0:
272,68,19180,2,0,P|320:100|416:76,1,160,2|8,0:0|0:0,0:0:0:0:
448,160,19680,2,0,P|392:188|384:296,2,160,0|0|2,0:0|0:0|0:0,0:0:0:0:
416,76,20513,2,0,L|316:28,1,80,0|0,0:0|0:0,0:0:0:0:
256,80,20847,2,0,P|297:112|293:212,2,160,10|10|0,0:0|0:0|0:0,0:0:0:0:
144,144,21847,6,0,L|232:164,1,80,6|0,0:0|0:0,0:0:0:0:
336,232,22180,2,0,L|256:268,1,80,8|0,0:0|0:0,0:0:0:0:
168,320,22513,2,0,P|104:288|66:211,1,160,2|8,0:0|0:0,0:0:0:0:
180,207,23013,2,0,P|214:136|147:69,1,160,2|0,0:0|0:0,0:0:0:0:
264,32,23513,5,8,0:0:0:0:
344,96,23680,2,0,P|440:104|432:232,1,240,0|8,0:0|0:0,0:0:0:0:
352,248,24347,1,0,0:0:0:0:
352,248,24430,1,0,0:0:0:0:
352,248,24513,2,0,P|288:264|208:312,1,160,2|8,0:0|0:0,0:0:0:0:
256,192,25013,12,0,26513,0:0:0:0:
168,120,26847,5,8,0:0:0:0:
128,188,27013,1,0,0:0:0:0:
196,232,27180,6,0,P|256:248|336:221,1,120.000004577637,6|0,0:0|0:0,0:0:0:0:
372,152,27680,2,0,P|312:134|248:152,2,120.000004577637,0|0|2,0:0|0:0|0:0,0:0:0:0:
404,264,28680,5,0,0:0:0:0:
480,284,28847,1,0,0:0:0:0:
460,360,29013,1,0,0:0:0:0:
384,344,29180,1,2,0:0:0:0:
280,260,29513,2,0,L|224:236,1,60.0000022888184,0|0,0:0|0:0,0:0:0:0:
216,312,29847,6,0,L|96:312,1,120.000004577637,8|0,0:0|0:0,0:0:0:0:
96,212,30347,2,0,P|160:188|192:140,1,120.000004577637,10|8,0:0|0:0,0:0:0:0:
316,52,31013,2,0,P|352:98|409:116,1,120.000004577637,8|8,0:0|0:0,0:0:0:0:
364,240,31680,2,0,P|306:226|250:247,1,120.000004577637,8|0,0:0|0:0,0:0:0:0:
168,276,32180,1,0,0:0:0:0:
232,340,32347,1,0,0:0:0:0:
251,246,32513,5,6,0:0:0:0:
176,100,32847,1,0,0:0:0:0:
176,100,33013,2,0,P|264:108|328:80,2,160,2|2|2,0:0|0:0|0:0,0:0:0:0:
68,120,33847,6,0,P|57:164|52:208,1,80,8|8,0:0|0:0,0:0:0:0:
140,180,34180,2,0,P|157:222|177:261,1,80,8|8,0:0|0:0,0:0:0:0:
236,192,34513,2,0,P|274:217|313:237,1,80,8|8,0:0|0:0,0:0:0:0:
328,148,34847,2,0,P|373:146|417:140,1,80,8|8,0:0|0:0,0:0:0:0:
356,68,35180,6,0,P|272:60|204:132,1,160,10|8,0:0|0:0,0:0:0:0:
168,180,35680,2,0,P|192:251|267:253,2,160,10|8|0,0:0|0:0|0:0,0:0:0:0:
256,192,36513,12,2,37513,0:0:0:0:
124,296,37847,6,0,P|188:300|212:296,1,80,0|0,0:0|0:0,0:0:0:0:
284,336,38180,1,0,0:0:0:0:
356,284,38347,2,0,P|364:224|356:188,1,80,0|0,0:0|0:0,0:0:0:0:
284,160,38680,1,0,0:0:0:0:
200,128,38847,2,0,L|216:88,2,40,0|0|6,0:0|0:0|0:0,0:0:0:0:
200,128,39847,5,0,0:0:0:0:
164,60,40013,1,0,0:0:0:0:
89,74,40180,1,0,0:0:0:0:
78,149,40347,1,0,0:0:0:0:
147,182,40513,6,0,P|168:256|120:340,1,176.000005371094,6|8,0:0|0:0,0:0:0:0:
69,250,41013,2,0,P|148:272|252:240,1,176.000005371094,0|0,0:0|0:0,0:0:0:0:
308,180,41513,1,8,0:0:0:0:
326,283,41680,1,0,0:0:0:0:
400,224,41847,1,2,0:0:0:0:
424,76,42180,6,0,P|372:84|324:76,1,88.000002685547,8|0,0:0|0:0,0:0:0:0:
232,32,42513,2,0,P|244:92|240:144,1,88.000002685547,0|0,0:0|0:0,0:0:0:0:
148,152,42847,2,0,P|116:232|172:308,2,176.000005371094,8|2|8,0:0|0:0|0:0,0:0:0:0:
232,104,43680,1,0,0:0:0:0:
320,148,43847,2,0,P|364:168|404:204,1,88.000002685547,0|0,0:0|0:0,0:0:0:0:
360,288,44180,1,8,0:0:0:0:
180,304,44513,1,2,0:0:0:0:
164,112,44847,1,8,0:0:0:0:
344,168,45180,6,0,L|356:264,1,88.000002685547,0|0,0:0|0:0,0:0:0:0:
288,324,45513,1,8,0:0:0:0:
180,304,45680,1,0,0:0:0:0:
180,304,45847,2,0,P|144:236|168:144,1,176.000005371094,6|8,0:0|0:0,0:0:0:0:
180,56,46347,2,0,P|280:96|348:84,1,176.000005371094,0|0,0:0|0:0,0:0:0:0:
424,32,46847,2,0,P|436:80|432:120,1,88.000002685547,8|0,0:0|0:0,0:0:0:0:
364,172,47180,5,0,0:0:0:0:
164,216,47513,1,8,0:0:0:0:
256,256,47680,1,0,0:0:0:0:
264,152,47847,2,0,P|364:140|404:72,1,176.000005371094,2|8,0:0|0:0,0:0:0:0:
300,48,48347,1,0,0:0:0:0:
300,48,48513,6,0,P|336:132|396:224,1,176.000005371094,2|8,0:0|0:0,0:0:0:0:
328,316,49013,2,0,P|292:232|232:140,1,176.000005371094,2|0,0:0|0:0,0:0:0:0:
184,92,49513,1,8,0:0:0:0:
112,272,49847,6,0,L|76:356,2,88.000002685547,0|0|0,0:0|0:0|0:0,0:0:0:0:
204,252,50347,2,0,P|276:216|368:244,1,176.000005371094,2|0,0:0|0:0,0:0:0:0:
440,188,50847,1,0,0:0:0:0:
380,120,51013,2,0,P|320:124|272:96,1,88.000002685547,0|12,0:0|0:0,0:0:0:0:
140,96,51513,5,8,0:0:0:0:
140,240,51847,1,10,0:0:0:0:
288,240,52180,1,8,0:0:0:0:
400,136,52513,5,10,0:0:0:0:
469,197,52680,1,0,0:0:0:0:
380,228,52847,1,8,0:0:0:0:
440,288,53013,2,0,P|388:312|264:308,1,160,0|0,0:0|0:0,0:0:0:0:
228,240,53513,2,0,P|240:168|224:76,1,160,8|12,0:0|0:0,0:0:0:0:
76,88,54180,5,8,0:0:0:0:
168,188,54513,1,10,0:0:0:0:
80,304,54847,1,8,0:0:0:0:
240,320,55180,2,0,P|300:328|328:320,1,80,2|0,0:0|0:0,0:0:0:0:
404,340,55513,1,8,0:0:0:0:
468,280,55680,2,0,P|396:208|388:124,1,160,2|0,0:0|0:0,0:0:0:0:
308,92,56180,1,8,0:0:0:0:
288,184,56347,1,0,0:0:0:0:
288,184,56430,1,0,0:0:0:0:
288,184,56513,6,0,P|208:192|152:152,1,143.999995605469,6|0,0:0|0:0,0:0:0:0:
104,80,57013,2,0,P|184:72|240:112,1,143.999995605469,2|10,0:0|0:0,0:0:0:0:
372,164,57680,2,0,L|452:188,1,71.9999978027344,2|2,0:0|0:0,0:0:0:0:
288,184,58180,2,0,L|244:240,1,71.9999978027344,0|2,0:0|0:0,0:0:0:0:
316,108,58680,2,0,L|272:52,1,71.9999978027344,0|10,0:0|0:0,0:0:0:0:
108,124,59180,6,8,L|108:28,1,80,8|8,0:0|0:0,0:0:0:0:
232,73,59680,2,8,P|290:68|344:78,1,80,8|8,0:0|0:0,0:0:0:0:
276,205,60180,2,8,L|276:301,1,80,8|8,0:0|0:0,0:0:0:0:
152,245,60680,2,8,P|93:249|40:239,1,80,8|8,0:0|0:0,0:0:0:0:
108,136,61180,6,0,L|124:52,1,80,2|0,0:0|0:0,0:0:0:0:
200,112,61513,2,0,L|268:68,1,80,0|0,0:0|0:0,0:0:0:0:
332,128,61847,6,0,P|396:176|488:160,1,160,6|8,0:0|0:0,0:0:0:0:
420,88,62347,2,0,P|400:136|400:244,1,160,0|0,0:0|0:0,0:0:0:0:
380,328,62847,1,8,0:0:0:0:
292,336,63013,1,0,0:0:0:0:
308,252,63180,2,0,P|252:212|156:236,2,160,2|8|0,0:0|0:0|0:0,0:0:0:0:
392,232,64013,1,0,0:0:0:0:
456,172,64180,1,8,0:0:0:0:
440,84,64347,1,0,0:0:0:0:
372,32,64513,6,0,P|316:52|204:60,1,160,2|8,0:0|0:0,0:0:0:0:
132,80,65013,2,0,P|140:192|132:240,1,160,0|0,0:0|0:0,0:0:0:0:
196,300,65513,1,10,0:0:0:0:
264,356,65680,1,0,0:0:0:0:
300,276,65847,6,0,B|364:276|364:276|396:288|396:288|460:288,1,160,4|0,0:0|0:0,0:0:0:0:
404,120,66513,1,2,0:0:0:0:
232,148,66847,1,0,0:0:0:0:
268,312,67180,5,6,0:0:0:0:
256,192,67347,12,2,69180,0:0:0:0:
216,272,69847,6,0,P|256:280|296:272,1,80,8|8,0:0|0:0,0:0:0:0:
444,176,70347,2,0,P|416:108|344:60,1,160,8|8,0:0|0:0,0:0:0:0:
168,60,71013,2,0,P|101:103|70:175,1,160,8|8,0:0|0:0,0:0:0:0:
70,175,71513,5,10,0:0:0:0:
