osu file format v13

[General]
AudioFilename: llll.mp3
AudioLeadIn: 2000
PreviewTime: 39847
Countdown: 0
SampleSet: None
StackLeniency: 0.7
Mode: 0
LetterboxInBreaks: 0
WidescreenStoryboard: 0

[Editor]
Bookmarks: 45007
DistanceSpacing: 1.1
BeatDivisor: 4
GridSize: 4
TimelineZoom: 1.9

[Metadata]
Title:BEAUTIFUL WORLD
TitleUnicode:BEAUTIFUL WORLD
Artist:Koike Joanna
ArtistUnicode:小池ジョアンナ
Creator:appleeaterx
Version:Easy
Source:それでも世界は美しい
Tags:soredemo sekai wa utsukushii Still world is Beautiful opening op tv size kibbleru
BeatmapID:437619
BeatmapSetID:181551

[Difficulty]
HPDrainRate:2
CircleSize:2.5
OverallDifficulty:2
ApproachRate:3
SliderMultiplier:0.799999999999999
SliderTickRate:1

[Events]
//Background and Video events
0,0,"drifloon.jpg",0,0
//Break Periods
//Storyboard Layer 0 (Background)
//Storyboard Layer 1 (Fail)
//Storyboard Layer 2 (Pass)
//Storyboard Layer 3 (Foreground)
//Storyboard Sound Samples
//Background Colour Transformations
3,100,163,162,255

[TimingPoints]
514,333.333333333333,4,2,1,30,1,0
3180,-100,4,3,0,50,0,0
5013,-100,4,3,0,40,0,0
5513,-100,4,2,1,30,0,0
5847,-100,4,2,1,60,0,0
13847,-100,4,3,0,60,0,0
16513,-100,4,2,1,60,0,0
33847,-100,4,2,1,25,0,0
34180,-100,4,2,1,30,0,0
34513,-100,4,2,1,35,0,0
34847,-100,4,2,1,40,0,0
35180,-100,4,2,1,45,0,0
39013,-100,4,2,1,50,0,0
40513,-100,4,2,1,70,0,1
50347,-100,4,3,0,55,0,1
51180,-100,4,2,1,70,0,1
59180,-100,4,3,0,50,0,1
61180,-100,4,3,0,40,0,1
61847,-100,4,2,1,70,0,1
68513,-100,4,2,1,50,0,0

[Colours]
Combo1 : 153,166,210
Combo2 : 228,228,228
Combo3 : 231,176,143
Combo4 : 142,223,163

[HitObjects]
129,100,514,6,0,B|208:148|256:44|256:44|304:148|376:100,1,320,2|2,0:0|0:0,0:0:0:0:
460,256,2513,1,2,0:0:0:0:
308,344,3180,1,8,0:0:0:0:
180,320,3680,2,0,P|140:268|112:212,1,120,8|8,0:0|0:0,0:0:0:0:
180,104,4680,1,8,0:0:0:0:
292,176,5180,2,0,B|340:176|372:168|372:168|404:176|452:176,1,160,0|6,0:0|0:0,0:0:0:0:
368,332,6513,6,0,P|288:339|209:331,1,160,0|0,0:0|0:0,0:0:0:0:
140,280,7513,1,8,0:2:0:0:
100,200,7847,2,0,B|132:136|84:104|124:40,1,160,2|2,0:0|0:0,0:0:0:0:
296,40,9180,6,0,B|360:40|360:40|412:60|436:124,1,160,0|0,0:0|0:0,0:0:0:0:
444,192,10180,1,10,0:0:0:0:
424,276,10513,2,0,B|409:321|357:341|357:341|293:341,1,160,2|6,0:0|0:0,0:0:0:0:
120,308,11847,6,0,B|80:268|24:284|24:284|0:196|0:196,1,160,0|0,0:0|0:0,0:0:0:0:
68,164,12847,1,8,0:0:0:0:
140,116,13180,2,0,P|220:92|300:116,1,160,8|0,0:0|0:0,0:0:0:0:
452,188,14513,6,0,P|468:248|452:316,1,120,0|2,0:0|0:0,0:0:0:0:
60,300,16513,6,0,B|4:236|4:236|60:172,1,160,6|0,0:0|0:0,0:0:0:0:
120,124,17513,1,8,0:0:0:0:
200,84,17847,2,0,P|256:132|312:84,1,160,0|10,0:0|0:0,0:0:0:0:
392,124,18847,1,0,0:0:0:0:
460,180,19180,6,0,B|509:236|509:236|453:300,1,160,6|0,0:0|0:0,0:0:0:0:
284,352,20513,1,0,0:0:0:0:
232,184,21180,1,10,0:0:0:0:
124,320,21847,6,0,P|76:264|64:172,1,160,6|2,0:0|0:0,0:0:0:0:
128,120,22847,1,8,0:0:0:0:
200,72,23180,2,0,P|256:24|312:72,1,160,0|0,0:0|0:0,0:0:0:0:
440,192,24513,6,0,B|404:248|404:248|408:276|408:276|376:336,2,160,2|0|0,0:0|0:0|0:0,0:0:0:0:
308,76,26513,1,0,0:0:0:0:
168,184,27180,6,0,P|96:160|8:192,1,160,6|0,0:0|0:0,0:0:0:0:
96,340,28513,2,0,P|166:360|250:337,1,160,0|2,0:0|0:0,0:0:0:0:
324,292,29513,1,0,0:0:0:0:
396,240,29847,6,0,L|384:108,1,120,8|10,0:0|0:0,0:0:0:0:
248,8,31013,2,0,L|260:176,1,160,8|8,0:0|0:0,0:0:0:0:
168,368,32513,6,0,B|88:336|40:352|40:352|12:232|72:168,1,320,6|8,0:0|0:0,0:0:0:0:
212,68,34513,1,8,0:0:0:0:
380,116,35180,6,0,P|420:164|444:228,1,120,10|10,0:0|0:0,0:0:0:0:
396,292,36013,2,0,P|348:312|300:316,1,79.9999999999999,8|0,0:0|0:0,0:0:0:0:
216,232,36847,2,0,L|184:140,2,79.9999999999999,0|0|2,0:0|0:0|0:0,0:0:0:0:
256,192,37847,12,6,39013,0:0:0:0:
256,224,40513,5,6,0:0:0:0:
116,120,41180,2,0,P|200:56|264:44,1,160,0|2,0:0|0:0,0:0:0:0:
256,136,42180,1,8,0:0:0:0:
256,224,42513,2,0,P|311:286|396:308,2,160,0|2|0,0:0|0:0|0:0,0:0:0:0:
408,136,44513,1,2,0:0:0:0:
504,284,45180,2,0,P|460:288|424:304,1,79.9999999999999,0|8,0:0|0:0,0:0:0:0:
344,332,45847,6,0,P|272:348|216:284,1,160,6|0,0:0|0:0,0:0:0:0:
256,212,46847,1,8,0:0:0:0:
292,132,47180,2,0,P|240:75|165:90,1,160,0|2,0:0|0:0,0:0:0:0:
92,140,48180,1,8,0:0:0:0:
40,208,48513,6,0,B|64:264|32:368|32:368|132:316|188:332,1,320,2|0,0:0|0:0,0:0:0:0:
316,216,50513,1,0,0:0:0:0:
460,116,51180,6,0,L|436:20,2,79.9999999999999,12|8|10,0:0|0:0|0:0,0:0:0:0:
396,176,52180,1,8,0:0:0:0:
316,216,52513,2,0,B|268:280|268:280|220:216,1,160,10|8,0:0|0:0,0:0:0:0:
140,176,53513,1,8,0:0:0:0:
76,116,53847,6,0,L|100:20,2,79.9999999999999,12|8|10,0:0|0:0|0:0,0:0:0:0:
40,196,54847,1,8,0:0:0:0:
72,280,55180,2,0,B|184:168|248:360|376:264,1,320,2|6,0:0|0:0,0:0:0:0:
496,148,57180,5,0,0:0:0:0:
320,156,57847,1,2,0:0:0:0:
356,328,58513,1,0,0:0:0:0:
188,272,59180,6,0,P|152:200|151:105,1,160,8|8,0:0|0:0,0:0:0:0:
320,156,60513,2,0,P|356:228|352:340,2,160,0|2|6,0:0|0:0|0:0,0:0:0:0:
260,92,62180,5,8,0:0:0:0:
184,52,62513,2,0,P|120:52|68:132,1,160,0|2,0:0|0:0,0:0:0:0:
160,276,63847,6,0,P|224:276|276:196,1,160,0|2,0:0|0:0,0:0:0:0:
320,128,64847,1,8,0:0:0:0:
368,56,65180,2,0,P|448:24|512:56,2,160,2|4|2,0:0|0:0|0:0,0:0:0:0:
256,192,67180,6,0,P|176:224|112:192,1,160,6|0,0:0|0:0,0:0:0:0:
188,36,68513,1,2,0:0:0:0:
364,32,69180,1,2,0:0:0:0:
432,192,69847,6,0,P|442:252|432:312,1,120,8|8,0:0|0:0,0:0:0:0:
348,340,70680,1,8,0:0:0:0:
264,308,71013,2,0,P|254:249|264:190,1,120,8|10,0:0|0:0,0:0:0:0:
