osu file format v5

[General]
AudioFilename: Hassuru.mp3
AudioLeadIn: 0
PreviewTime: 7872
Countdown: 2
SampleSet: Soft
StackLeniency: 0.7
Mode: 0
LetterboxInBreaks: 1

[Metadata]
Title:Hassuru
Artist:Koichi Yamadera
Creator:Zorori
Version:Standard
Source:Kaiketsu Zorori
Tags:zorori anime furry

[Difficulty]
HPDrainRate:3
CircleSize:5
OverallDifficulty:3
SliderMultiplier:1
SliderTickRate:2

[Events]
//Background and Video events
0,0,"hassuru-bg.jpg"
1,0,"Hassuru.avi"
//Break Periods
2,23787,25004
2,40929,42147
2,75215,77861
//Storyboard Layer 0 (Background)
//Storyboard Layer 1 (Failing)
//Storyboard Layer 2 (Passing)
//Storyboard Layer 3 (Foreground)
//Storyboard Sound Samples
//Background Colour Transformations
3,100,163,162,255

[TimingPoints]
730,357.142857142857,4,2,0,100,1

[HitObjects]
96,96,7872,1,2
96,176,8408,1,2
128,256,8944,1,2
192,256,9301,2,4,B|448:256|448:112,1,300
448,96,10729,5,2
416,160,11087,1,2
384,224,11444,1,2
304,272,11979,2,4,B|48:272|48:80,1,350
224,128,13587,5,8
256,192,13944,1,8
288,256,14301,1,8
288,128,15015,1,8
256,192,15372,1,8
224,256,15729,1,8
96,256,16444,6,0,B|96:96,2,150
160,272,17872,1,4
240,288,18408,1,0
256,80,19301,5,0
192,80,19658,1,0
128,80,20015,1,0
256,144,20729,1,0
320,144,21087,1,0
384,144,21444,1,0
384,272,22158,5,0
320,272,22515,1,0
256,272,22872,1,0
192,272,23229,1,0
128,272,23587,1,4
416,96,26444,5,2
416,176,26980,1,2
384,256,27516,1,2
320,256,27873,2,4,B|64:256|64:112,1,300
64,96,29301,5,2
96,160,29659,1,2
128,224,30016,1,2
208,272,30551,2,4,B|464:272|464:80,1,350
256,48,32158,5,0
192,48,32515,1,0
128,64,32872,1,0
80,112,33229,1,0
48,176,33587,2,2,B|48:320|144:336,1,200
256,336,35015,5,0
320,336,35372,1,0
384,320,35729,1,0
432,272,36086,1,0
464,208,36444,2,2,B|464:64|368:48,1,200
256,80,37872,6,0,B|256:192,3,100
256,240,39301,1,2
208,192,39658,1,2
160,144,40015,1,2
208,96,40372,1,2
256,48,40729,1,4
32,192,43587,5,0
96,192,43944,1,0
160,224,44301,1,0
208,176,44658,1,0
272,192,45015,1,0
336,192,45372,1,0
400,160,45729,2,0,B|480:224,1,100
480,288,46444,6,0,B|368:288,1,100
352,224,47158,2,0,B|240:224,1,100
224,256,47694,2,0,B|64:256|64:48,1,250
256,192,49301,12,0,51444
480,192,52158,5,0
416,192,52515,1,0
352,224,52872,1,0
304,176,53229,1,0
240,192,53586,1,0
176,192,53943,1,0
112,160,54300,2,0,B|32:224,1,100
32,288,55015,6,0,B|144:288,1,100
160,224,55729,2,0,B|272:224,1,100
288,256,56265,2,0,B|448:256|448:48,1,250
128,336,57872,5,0
128,272,58229,1,0
80,224,58587,1,0
80,160,58944,1,0
128,112,59301,1,0
128,48,59658,1,0
192,48,60015,2,4,L|352:48|192:240|384:240,1,600
480,192,64301,5,0
416,192,64658,1,0
352,224,65015,1,0
304,176,65372,1,0
240,192,65729,1,0
176,192,66086,1,0
112,160,66443,2,0,B|32:224,1,100
32,288,67158,6,0,B|144:288,1,100
160,224,67872,2,0,B|272:224,1,100
288,256,68408,2,0,B|448:256|448:48,1,250
384,336,70015,5,0
384,272,70372,1,0
432,224,70730,1,0
432,160,71087,1,0
384,112,71444,1,0
384,48,71801,1,0
320,48,72158,2,4,L|160:48|320:240|128:240,1,600
96,128,79301,6,0,L|96:240,3,100
208,176,81087,1,0
272,176,81444,1,0
336,176,81801,1,0
400,128,82158,2,0,L|400:240,3,100
288,176,83944,1,0
224,176,84301,1,0
160,176,84658,1,0
96,176,85015,5,0
128,232,85372,1,0
160,176,85729,1,0
192,232,86087,1,0
224,176,86444,1,0
256,232,86801,1,0
288,176,87158,1,0
160,176,87872,5,0
192,120,88229,1,0
224,176,88587,1,0
256,120,88944,1,0
288,176,89301,1,0
320,120,89658,1,0
352,176,90015,2,4,B|352:288|240:288|240:272,1,150
