osu file format v5

[General]
AudioFilename: Hassuru.mp3
AudioLeadIn: 0
PreviewTime: 7872
Countdown: 2
SampleSet: Soft
StackLeniency: 0.7
Mode: 0
LetterboxInBreaks: 1

[Metadata]
Title:Hassuru
Artist:Koichi Yamadera
Creator:Zorori
Version:Heavy
Source:Kaiketsu Zorori
Tags:zorori anime furry

[Difficulty]
HPDrainRate:3
CircleSize:6
OverallDifficulty:5
SliderMultiplier:1.5
SliderTickRate:2

[Events]
//Background and Video events
0,0,"hassuru-bg.jpg"
1,0,"Hassuru.avi"
//Break Periods
2,23787,25004
2,40929,42147
2,75215,77861
//Storyboard Layer 0 (Background)
//Storyboard Layer 1 (Failing)
//Storyboard Layer 2 (Passing)
//Storyboard Layer 3 (Foreground)
//Storyboard Sound Samples
//Background Colour Transformations
3,100,163,162,255

[TimingPoints]
730,357.142857142857,4,2,0,100,1

[HitObjects]
72,80,7872,1,0
112,88,8051,1,0
144,112,8229,1,0
160,152,8408,1,0
88,176,8765,1,0
112,208,8944,1,0
144,224,9122,1,0
184,216,9301,2,2,B|336:136|264:16|464:16|456:272,1,450
392,296,10729,5,0
312,272,11087,1,0
272,200,11444,1,0
208,152,11801,1,0
168,144,11979,2,2,B|8:144|8:272|96:336|184:336|376:336|392:336,1,525
424,264,13587,5,0
440,224,13765,1,0
440,184,13944,1,0
424,144,14122,1,0
400,112,14301,1,0
368,88,14479,1,0
328,80,14658,1,0
320,160,15015,1,0
280,152,15194,1,0
240,136,15372,1,0
208,112,15551,1,0
168,96,15729,1,0
128,88,15908,1,0
88,88,16087,1,0
40,152,16444,6,0,B|40:304|216:304,1,225
256,296,17337,1,0
296,288,17515,1,0
336,272,17694,1,0
368,248,17872,1,4
272,168,18408,1,4
120,48,19301,5,0
96,120,19658,1,0
96,160,19837,1,0
128,176,20015,1,0
160,152,20194,1,0
192,168,20372,1,0
192,208,20551,1,0
208,288,20908,1,0
240,312,21087,1,0
320,320,21444,2,0,B|400:312,1,75
432,296,21801,1,0
456,216,22158,5,0
456,136,22515,1,0
384,176,22872,1,0
384,96,23229,1,0
312,136,23587,1,4
440,80,26444,5,0
400,88,26623,1,0
368,112,26801,1,0
352,152,26980,1,0
424,176,27337,1,0
400,208,27516,1,0
368,224,27694,1,0
328,216,27873,2,2,B|176:136|248:16|48:16|56:272,1,450
120,296,29301,5,0
200,272,29659,1,0
240,200,30016,1,0
304,152,30373,1,0
344,144,30551,2,2,B|504:144|504:272|416:336|328:336|136:336|120:336,1,525
88,272,32158,5,0
104,232,32337,1,0
136,208,32515,1,0
176,192,32694,1,0
120,136,33051,1,0
152,120,33229,1,0
176,88,33408,1,0
184,48,33587,2,2,B|440:56|480:336,1,450
424,272,35015,5,0
408,232,35194,1,0
376,208,35372,1,0
336,192,35551,1,0
392,136,35908,1,0
360,120,36086,1,0
336,88,36265,1,0
328,48,36444,2,2,B|72:56|32:336,1,450
104,304,37872,5,0
120,264,38051,1,0
136,224,38229,1,0
152,264,38408,1,0
168,304,38587,1,0
184,264,38765,1,0
200,224,38944,1,0
216,264,39122,1,0
256,248,39301,1,2
320,208,39658,1,2
376,152,40015,1,2
320,96,40372,1,2
256,48,40729,1,4
256,192,43587,5,0
256,192,43944,1,0
160,264,44301,2,2,B|120:184|176:80,1,150
256,192,45015,1,0
256,192,45372,1,0
352,120,45729,2,2,B|392:200|336:304,1,150
424,288,46444,6,0,B|240:288,1,150
320,224,47158,2,0,B|152:224,1,150
152,256,47694,2,2,B|0:256|0:112|0:16|328:32,1,525
256,192,49301,12,0,51444
256,192,52158,5,0
256,192,52515,1,0
352,264,52872,2,2,B|392:184|336:80,1,150
256,192,53586,1,0
256,192,53943,1,0
160,120,54301,2,2,B|120:200|176:304,1,150
88,288,55015,6,0,B|272:288,1,150
192,224,55729,2,0,B|360:224,1,150
360,256,56265,2,2,B|512:256|512:112|512:16|184:32,1,525
120,32,57872,5,0
80,32,58051,1,0
48,56,58229,1,0
48,96,58408,1,0
88,96,58587,1,0
88,136,58765,1,0
112,168,58944,1,0
152,168,59122,1,0
152,128,59301,1,0
192,128,59479,1,0
216,96,59658,1,0
216,56,59837,1,0
256,56,60015,2,2,L|408:56|256:224|416:224,1,525
408,139,61444,2,2,L|256:139,1,150
256,192,64301,5,0
256,192,64658,1,0
160,264,65015,2,2,B|120:184|176:80,1,150
256,192,65729,1,0
256,192,66086,1,0
352,120,66444,2,2,B|392:200|336:304,1,150
424,288,67158,6,0,B|240:288,1,150
320,224,67872,2,0,B|152:224,1,150
152,256,68408,2,2,B|0:256|0:112|0:16|328:32,1,525
392,32,70015,5,0
432,32,70194,1,0
464,56,70372,1,0
464,96,70551,1,0
424,96,70730,1,0
424,136,70908,1,0
400,168,71087,1,0
360,168,71265,1,0
360,128,71444,1,0
320,128,71622,1,0
296,96,71801,1,0
296,56,71980,1,0
256,56,72158,2,2,L|104:56|256:224|96:224,1,525
104,139,73587,2,2,L|256:139,1,150
56,192,79301,6,2,B|128:248|200:184,1,150
232,192,79837,1,0
272,192,80015,2,2,B|344:136|416:200,1,150
448,192,80551,1,0
400,256,80908,1,0
368,224,81087,1,0
360,184,81265,1,0
368,144,81444,1,0
448,128,81801,1,0
472,160,81979,1,0
456,192,82158,6,2,B|384:248|312:184,1,150
280,192,82694,1,0
240,192,82872,2,2,B|168:136|96:200,1,150
64,192,83408,1,0
112,256,83765,1,0
144,224,83944,1,0
152,184,84122,1,0
144,144,84301,1,0
64,128,84658,1,0
40,160,84836,1,0
56,192,85015,5,0
80,224,85194,1,0
112,240,85372,1,0
152,248,85551,1,0
192,240,85729,1,0
224,224,85908,1,0
248,192,86087,1,0
168,192,86444,1,0
192,160,86623,1,0
224,144,86801,1,0
264,136,86980,1,0
304,144,87158,1,0
336,160,87337,1,0
360,192,87516,1,0
280,192,87872,5,0
304,224,88051,1,0
336,240,88229,1,0
376,248,88408,1,0
416,240,88586,1,0
448,224,88765,1,0
472,192,88944,1,0
392,192,89301,1,0
368,160,89480,1,0
336,144,89658,1,0
296,136,89837,1,0
256,144,90015,2,4,B|104:224|256:304,1,225
