osu file format v14

[General]
AudioFilename: geddan.mp3
AudioLeadIn: 0
PreviewTime: 71861
Countdown: 0
SampleSet: Normal
StackLeniency: 0.2
Mode: 0
LetterboxInBreaks: 0
WidescreenStoryboard: 0

[Editor]
Bookmarks: 119353
DistanceSpacing: 1
BeatDivisor: 4
GridSize: 4
TimelineZoom: 1.9

[Metadata]
Title:Promise
TitleUnicode:Promise
Artist:Kohmi Hirose
ArtistUnicode:広瀬香美
Creator:koreapenguin
Version:Get Down
Source:
Tags:Underflow
BeatmapID:525278
BeatmapSetID:225049

[Difficulty]
HPDrainRate:7
CircleSize:4
OverallDifficulty:9
ApproachRate:10
SliderMultiplier:1.7
SliderTickRate:1

[Events]
//Background and Video events
0,0,"awdawd23 (2).png",0,0
//Break Periods
2,31488,39548
//Storyboard Layer 0 (Background)
//Storyboard Layer 1 (Fail)
//Storyboard Layer 2 (Pass)
//Storyboard Layer 3 (Foreground)
//Storyboard Sound Samples

[TimingPoints]
10966,241.935483870968,4,1,0,70,1,0
25482,-66.6666666666667,4,1,0,70,0,0
26449,-100,4,1,0,70,0,0
31288,-100,4,2,0,5,0,0
39998,-200,4,1,0,70,0,0
40482,-83.3333333333333,4,1,0,70,0,0
40966,-133.333333333333,4,1,0,70,0,0
70966,-200,4,1,0,70,0,0
71449,-83.3333333333333,4,1,0,70,0,0
72417,-66.6666666666667,4,1,0,70,0,0
72901,-83.3333333333333,4,1,0,70,0,1
87901,-66.6666666666667,4,1,0,70,0,1
88143,-125,4,1,0,70,0,0
88385,-74.0740740740741,4,1,0,70,0,1
103627,-83.3333333333333,4,1,0,70,0,0
103869,-66.6666666666667,4,1,0,70,0,1
119353,-100,4,1,0,70,0,0
125159,-100,4,2,0,5,0,0

[HitObjects]
480,60,10966,6,0,P|400:36|320:92,1,170
272,212,11328,1,0,0:0:0:0:
416,220,11449,2,0,L|408:120,1,85
248,248,11691,2,0,L|255:333,1,85
316,168,11933,1,0,0:0:0:0:
117,222,12054,1,0,0:0:0:0:
254,333,12175,1,0,0:0:0:0:
211,107,12296,1,0,0:0:0:0:
16,192,12417,2,0,L|101:199,1,85
184,60,12659,6,0,B|142:35|142:35|22:47,2,170,0|0|0,0:0|0:0|0:0,0:0:0:0:
117,222,13264,1,0,0:0:0:0:
22,47,13385,1,0,0:0:0:0:
211,107,13506,1,0,0:0:0:0:
16,192,13627,1,0,0:0:0:0:
234,63,13748,1,0,0:0:0:0:
234,63,13808,1,0,0:0:0:0:
234,63,13869,5,0,0:0:0:0:
211,213,13990,1,0,0:0:0:0:
380,86,14111,5,0,0:0:0:0:
403,236,14232,1,0,0:0:0:0:
191,176,14353,5,0,0:0:0:0:
168,326,14474,1,0,0:0:0:0:
436,205,14595,5,0,0:0:0:0:
459,355,14716,1,0,0:0:0:0:
344,136,14836,6,0,P|418:96|500:111,1,170,0|0,0:0|0:0,0:0:0:0:
304,256,15199,1,0,0:0:0:0:
191,176,15320,2,0,L|194:78,1,85
436,205,15562,2,0,L|439:290,1,85
157,200,15804,6,0,L|160:116,1,85
234,289,16046,1,0,0:0:0:0:
69,313,16167,1,0,0:0:0:0:
21,72,16288,1,0,0:0:0:0:
186,96,16409,1,0,0:0:0:0:
252,308,16530,1,0,0:0:0:0:
87,332,16651,1,0,0:0:0:0:
324,216,16772,6,0,P|368:292|344:380,1,170
196,208,17135,1,0,0:0:0:0:
444,108,17256,1,0,0:0:0:0:
252,308,17377,1,0,0:0:0:0:
268,104,17498,1,0,0:0:0:0:
352,368,17619,1,0,0:0:0:0:
490,212,17740,6,0,B|427:223|427:223|387:205|387:205|324:216,1,170
184,356,18103,1,0,0:0:0:0:
28,232,18224,2,0,B|12:196|12:196|36:44,1,170
256,8,18586,1,0,0:0:0:0:
480,67,18707,6,0,B|500:196|500:196|484:232,1,170
388,304,19070,1,0,0:0:0:0:
268,296,19191,1,0,0:0:0:0:
240,48,19312,1,0,0:0:0:0:
360,40,19433,1,0,0:0:0:0:
144,196,19554,1,0,0:0:0:0:
24,96,19675,6,0,P|20:54|32:14,1,85
156,184,19917,2,0,P|169:225|164:267,1,85
24,96,20159,1,0,0:0:0:0:
240,48,20280,1,0,0:0:0:0:
176,276,20401,2,0,L|72:272,1,85
224,64,20643,6,0,B|277:62|277:62|317:90|317:90|385:86,1,170
508,8,21006,1,0,0:0:0:0:
400,72,21127,2,0,L|407:157,1,85
488,316,21369,1,0,0:0:0:0:
392,176,21490,1,0,0:0:0:0:
228,216,21611,6,0,P|200:295|227:374,1,170
452,288,21974,1,0,0:0:0:0:
304,296,22095,1,0,0:0:0:0:
480,380,22216,1,0,0:0:0:0:
512,176,22336,2,0,L|428:188,1,85
360,304,22578,5,0,0:0:0:0:
336,168,22699,1,0,0:0:0:0:
276,291,22820,1,0,0:0:0:0:
397,230,22941,1,0,0:0:0:0:
262,206,23062,1,0,0:0:0:0:
370,323,23183,1,0,0:0:0:0:
341,147,23304,1,0,0:0:0:0:
260,305,23425,1,0,0:0:0:0:
421,225,23546,5,0,0:0:0:0:
243,195,23667,1,0,0:0:0:0:
385,346,23788,1,0,0:0:0:0:
346,118,23909,1,0,0:0:0:0:
242,324,24030,1,0,0:0:0:0:
449,221,24151,1,0,0:0:0:0:
221,183,24272,1,0,0:0:0:0:
39,274,24393,1,0,0:0:0:0:
240,160,24514,6,0,P|248:92|192:0,1,170
104,240,24877,1,0,0:0:0:0:
204,364,24998,2,0,L|308:356,1,85
352,144,25240,2,0,L|248:136,1,85
436,272,25482,6,0,P|503:168|471:48,1,255.000009727478
256,8,25845,1,0,0:0:0:0:
42,48,25966,2,0,P|10:168|76:272,1,255.000009727478
256,364,26328,1,0,0:0:0:0:
256,8,26449,5,0,0:0:0:0:
256,192,26510,12,0,31288,0:0:0:0:
80,40,39998,6,0,L|68:208,1,148.75
72,280,40482,6,0,P|188:328|108:240,1,305.999990661621,0|0,0:0|0:0,0:0:0:0:
72,280,40966,5,0,0:0:0:0:
80,40,41207,1,0,0:0:0:0:
104,248,41449,1,0,0:0:0:0:
88,56,41691,6,0,B|136:28|184:56|184:56|188:84|164:116|164:116|216:88|216:32,1,255.000009727478
215,48,42417,2,0,L|288:44,1,63.7500024318696
304,228,42659,2,0,L|231:224,1,63.7500024318696
392,132,42901,1,0,0:0:0:0:
392,132,43143,2,0,P|428:184|424:256,1,127.500004863739
428,247,43627,1,0,0:0:0:0:
280,116,43748,1,0,0:0:0:0:
480,64,43869,5,0,0:0:0:0:
480,64,44111,2,0,B|460:88|460:88|352:92,1,127.500004863739
364,92,44595,1,0,0:0:0:0:
236,12,44716,1,0,0:0:0:0:
108,88,44836,2,0,P|96:152|128:220,1,127.500004863739
119,209,45320,1,0,0:0:0:0:
119,209,45562,2,0,L|188:200,1,63.7500024318696
368,340,45804,6,0,L|232:324,1,127.500004863739
242,326,46288,1,0,0:0:0:0:
242,326,46530,1,0,0:0:0:0:
416,192,46651,1,0,0:0:0:0:
448,380,46772,2,0,L|360:368,1,63.7500024318696
404,176,47014,2,0,L|492:164,1,63.7500024318696
312,244,47256,2,0,P|288:172|312:112,1,127.500004863739
448,52,47619,1,0,0:0:0:0:
472,288,47740,6,0,L|392:284,1,63.7500024318696
174,133,47982,1,0,0:0:0:0:
302,125,48103,1,0,0:0:0:0:
214,346,48224,1,0,0:0:0:0:
60,336,48345,1,0,0:0:0:0:
48,48,48466,1,0,0:0:0:0:
233,37,48587,1,0,0:0:0:0:
380,148,48707,2,0,P|380:211|346:265,1,127.500004863739
346,265,49191,1,0,0:0:0:0:
346,265,49433,1,0,0:0:0:0:
312,52,49554,6,0,P|390:32|494:108,1,191.250007295609
482,85,50159,1,0,0:0:0:0:
482,85,50401,1,0,0:0:0:0:
482,85,50643,2,0,L|486:149,1,63.7500024318696
346,265,50885,2,0,L|350:201,1,63.7500024318696
403,354,51127,2,0,P|343:371|284:351,1,127.500004863739
239,230,51490,1,0,0:0:0:0:
293,115,51611,2,0,P|354:99|413:119,1,127.500004863739
413,119,52095,1,0,0:0:0:0:
413,119,52336,1,0,0:0:0:0:
239,230,52457,1,0,0:0:0:0:
229,26,52578,5,0,0:0:0:0:
229,26,52820,1,0,0:0:0:0:
229,26,53062,1,0,0:0:0:0:
229,26,53304,1,0,0:0:0:0:
349,200,53425,1,0,0:0:0:0:
140,224,53546,6,0,P|113:168|123:106,1,127.500004863739
123,106,54030,1,0,0:0:0:0:
123,106,54272,2,0,L|47:103,1,63.7500024318696
34,254,54514,2,0,L|163:248,1,127.500004863739
162,248,54998,1,0,0:0:0:0:
162,248,55240,1,0,0:0:0:0:
322,353,55361,1,0,0:0:0:0:
446,208,55482,6,0,L|434:82,1,127.500004863739
274,182,55845,1,0,0:0:0:0:
435,238,55966,2,0,L|507:228,1,63.7500024318696
447,50,56207,2,0,L|374:40,1,63.7500024318696
252,157,56449,2,0,L|220:162,2,31.8750012159348,0|0|0,0:0|0:0|0:0,0:0:0:0:
439,28,56691,2,0,L|366:18,1,63.7500024318696
384,277,56933,2,0,L|510:258,1,127.500004863739
288,150,57296,1,0,0:0:0:0:
121,230,57417,6,0,P|110:293|129:353,1,127.500004863739
129,353,57901,1,0,0:0:0:0:
129,353,58143,1,0,0:0:0:0:
247,177,58264,1,0,0:0:0:0:
132,32,58385,2,0,L|0:44,1,127.500004863739
5,44,58869,2,0,L|68:50,1,63.7500024318696
360,152,59111,2,0,L|233:164,1,127.500004863739
233,164,59595,5,0,0:0:0:0:
345,302,59716,1,0,0:0:0:0:
480,188,59836,2,0,P|484:126|454:70,1,127.500004863739
348,272,60199,1,0,0:0:0:0:
448,364,60320,2,0,L|512:356,1,63.7500024318696
352,240,60562,2,0,L|288:232,1,63.7500024318696
158,288,60804,2,0,P|141:228|159:167,1,127.500004863739
308,64,61167,1,0,0:0:0:0:
443,180,61288,6,0,P|459:241|441:302,1,127.500004863739
441,302,61772,1,0,0:0:0:0:
441,302,62014,1,0,0:0:0:0:
265,154,62135,1,0,0:0:0:0:
460,32,62256,2,0,B|477:63|477:63|468:172,1,127.500004863739
352,240,62619,1,0,0:0:0:0:
144,161,62740,2,0,P|203:141|265:154,1,127.500004863739
188,308,63103,1,0,0:0:0:0:
28,269,63224,6,0,P|-11:183|2:90,2,191.250007295609,0|0|0,0:0|0:0|0:0,0:0:0:0:
188,308,64070,1,0,0:0:0:0:
208,152,64191,2,0,L|136:160,1,63.7500024318696
288,240,64433,1,0,0:0:0:0:
400,264,64554,1,0,0:0:0:0:
289,23,64675,2,0,L|217:31,1,63.7500024318696
369,111,64917,1,0,0:0:0:0:
481,135,65038,1,0,0:0:0:0:
225,31,65159,6,0,P|201:91|217:171,1,127.500004863739
288,240,65522,1,0,0:0:0:0:
208,328,65643,2,0,L|128:332,1,63.7500024318696
280,224,65885,2,0,L|360:228,1,63.7500024318696
216,344,66127,1,0,0:0:0:0:
92,208,66248,1,0,0:0:0:0:
304,104,66369,1,0,0:0:0:0:
180,236,66490,1,0,0:0:0:0:
32,48,66611,2,0,P|92:32|153:50,1,127.500004863739
256,192,66974,1,0,0:0:0:0:
153,334,67095,6,0,P|92:352|32:336,1,127.500004863739
240,176,67457,1,0,0:0:0:0:
380,280,67578,2,0,L|376:368,1,63.7500024318696
480,140,67820,2,0,L|484:228,1,63.7500024318696
348,32,68062,2,0,L|340:180,2,127.500004863739,0|0|0,0:0|0:0|0:0,0:0:0:0:
164,64,68667,1,0,0:0:0:0:
208,228,68788,2,0,L|292:228,1,63.7500024318696
440,160,69030,6,0,P|460:220|436:296,1,127.500004863739
256,368,69393,1,0,0:0:0:0:
66,282,69514,2,0,P|52:220|72:160,1,127.500004863739
256,24,69877,1,0,0:0:0:0:
440,160,69998,2,0,L|364:168,1,63.7500024318696
72,160,70240,2,0,L|148:168,1,63.7500024318696
403,343,70482,2,0,L|327:335,1,63.7500024318696
109,343,70724,2,0,L|185:335,1,63.7500024318696
256,113,70966,6,0,L|256:249,1,127.5
343,126,71449,6,0,P|256:24|168:126,1,305.999990661621
404,344,71933,5,0,0:0:0:0:
108,344,72054,1,0,0:0:0:0:
256,112,72175,1,0,0:0:0:0:
256,113,72417,6,0,B|296:172|256:232|256:232|216:292|256:352,1,255.000009727478
344,292,72780,1,0,0:0:0:0:
168,172,72901,6,0,B|86:156|26:224|26:224|48:244|84:252,1,203.999993774414
256,352,73264,1,0,0:0:0:0:
428,217,73385,2,0,P|437:166|426:117,1,101.999996887207
256,12,73627,1,0,0:0:0:0:
336,168,73748,1,0,0:0:0:0:
488,16,73869,2,0,L|376:32,1,101.999996887207
212,272,74111,1,0,0:0:0:0:
344,292,74232,1,0,0:0:0:0:
72,192,74353,2,0,B|39:207|39:207|-4:296|60:362,1,203.999993774414
344,292,74716,1,0,0:0:0:0:
232,100,74836,6,0,L|124:96,1,101.999996887207
76,344,75078,2,0,L|184:340,1,101.999996887207
336,168,75320,1,0,0:0:0:0:
48,20,75441,1,0,0:0:0:0:
60,312,75562,2,0,L|168:308,1,101.999996887207
232,100,75804,1,0,0:0:0:0:
160,200,75925,1,0,0:0:0:0:
332,312,76046,1,0,0:0:0:0:
292,48,76167,1,0,0:0:0:0:
68,332,76288,1,0,0:0:0:0:
396,380,76409,1,0,0:0:0:0:
444,52,76530,1,0,0:0:0:0:
116,4,76651,1,0,0:0:0:0:
256,196,76772,6,0,B|296:224|296:224|384:232|464:204,1,203.999993774414
232,44,77135,1,0,0:0:0:0:
32,144,77256,2,0,P|20:196|39:260,1,101.999996887207
256,196,77498,1,0,0:0:0:0:
48,120,77619,1,0,0:0:0:0:
36,360,77740,2,0,L|148:352,1,101.999996887207
100,28,77982,1,0,0:0:0:0:
32,240,78103,1,0,0:0:0:0:
256,196,78224,2,0,P|268:151|251:95,1,101.999996887207
8,256,78466,2,0,P|-6:305|6:354,1,101.999996887207
352,247,78707,6,0,B|336:212|336:212|256:172|179:225,1,203.999993774414
336,380,79070,1,0,0:0:0:0:
500,304,79191,2,0,P|512:256|500:184,1,101.999996887207
324,32,79433,2,0,P|320:83|332:132,1,101.999996887207
508,208,79675,1,0,0:0:0:0:
344,12,79796,1,0,0:0:0:0:
140,316,79917,1,0,0:0:0:0:
336,240,80038,1,0,0:0:0:0:
40,52,80159,1,0,0:0:0:0:
300,356,80280,1,0,0:0:0:0:
376,20,80401,1,0,0:0:0:0:
12,300,80522,1,0,0:0:0:0:
468,336,80643,6,0,P|501:242|468:144,1,203.999993774414
256,24,81006,1,0,0:0:0:0:
188,240,81127,1,0,0:0:0:0:
356,264,81248,1,0,0:0:0:0:
276,40,81369,1,0,0:0:0:0:
108,64,81490,1,0,0:0:0:0:
219,144,81611,2,0,B|247:180|247:180|359:180|359:180|387:144,1,203.999993774414,0|0,0:0|0:0,0:0:0:0:
388,144,81853,2,0,B|360:108|360:108|248:108|248:108|220:144,1,203.999993774414,0|0,0:0|0:0,0:0:0:0:
340,328,82216,1,0,0:0:0:0:
512,40,82336,2,0,P|465:24|415:34,1,101.999996887207
488,336,82578,6,0,B|504:300|504:300|488:124,1,203.999993774414,0|0,0:0|0:0,0:0:0:0:
216,240,82941,1,0,0:0:0:0:
392,264,83062,1,0,0:0:0:0:
436,40,83183,1,0,0:0:0:0:
216,216,83304,1,0,0:0:0:0:
492,360,83425,1,0,0:0:0:0:
304,24,83546,2,0,B|280:4|280:4|268:56|268:56|208:20|128:56,1,203.999993774414
153,47,83788,2,0,B|104:24|104:24|52:108|120:192,1,203.999993774414
260,308,84151,1,0,0:0:0:0:
440,104,84272,2,0,L|308:112,1,101.999996887207
192,240,84514,5,0,0:0:0:0:
304,256,84635,1,0,0:0:0:0:
320,144,84756,1,0,0:0:0:0:
208,128,84877,1,0,0:0:0:0:
196,280,84998,5,0,0:0:0:0:
344,252,85119,1,0,0:0:0:0:
316,104,85240,1,0,0:0:0:0:
168,132,85361,1,0,0:0:0:0:
200,320,85482,5,0,0:0:0:0:
384,248,85603,1,0,0:0:0:0:
312,64,85724,1,0,0:0:0:0:
128,136,85845,1,0,0:0:0:0:
204,364,85966,5,0,0:0:0:0:
428,244,86086,1,0,0:0:0:0:
308,20,86207,1,0,0:0:0:0:
84,140,86328,1,0,0:0:0:0:
256,192,86449,1,0,0:0:0:0:
256,192,86691,5,0,0:0:0:0:
204,364,86812,1,0,0:0:0:0:
83,141,86933,2,0,P|131:125|181:133,1,101.999996887207
428,244,87175,2,0,P|380:260|330:252,1,101.999996887207
492,32,87417,1,0,0:0:0:0:
500,376,87538,1,0,0:0:0:0:
136,212,87659,1,0,0:0:0:0:
372,164,87780,1,0,0:0:0:0:
28,292,87901,2,0,P|6:232|18:164,1,127.500004863739
224,16,88143,1,0,0:0:0:0:
136,212,88264,1,0,0:0:0:0:
24,80,88385,6,0,P|80:4|115:92,1,229.500000875473
28,292,88748,1,0,0:0:0:0:
256,356,88869,2,0,P|272:292|260:240,1,114.750000437737
12,260,89111,1,0,0:0:0:0:
176,296,89232,1,0,0:0:0:0:
256,40,89353,2,0,B|228:28|228:28|138:49,1,114.750000437737
262,244,89595,2,0,B|290:256|290:256|381:236,1,114.750000437737
65,289,89836,2,0,B|93:277|93:277|176:296,1,114.750000437737
464,288,90078,2,0,P|476:232|456:172,1,114.750000437737
256,40,90320,6,0,B|224:68|224:68|200:164|263:245,1,229.500000875473
416,88,90683,1,0,0:0:0:0:
68,28,90804,2,0,B|52:108|52:108|60:152,1,114.750000437737
444,356,91046,2,0,B|460:276|460:276|452:232,1,114.750000437737
156,192,91288,1,0,0:0:0:0:
356,276,91409,1,0,0:0:0:0:
256,40,91530,1,0,0:0:0:0:
268,368,91651,1,0,0:0:0:0:
416,88,91772,1,0,0:0:0:0:
24,128,91893,1,0,0:0:0:0:
444,356,92014,1,0,0:0:0:0:
492,12,92135,1,0,0:0:0:0:
148,80,92256,6,0,B|120:136|60:176|60:176|100:232|72:288,1,229.500000875473
256,356,92619,1,0,0:0:0:0:
184,200,92740,2,0,B|124:200|104:160|60:148|60:148|48:112|0:68,1,229.500000875473
196,16,93103,1,0,0:0:0:0:
96,256,93224,2,0,L|120:372,1,114.750000437737
224,216,93466,2,0,P|240:144|264:96,1,114.750000437737
344,16,93707,1,0,0:0:0:0:
368,256,93828,1,0,0:0:0:0:
160,88,93949,1,0,0:0:0:0:
264,328,94070,1,0,0:0:0:0:
332,92,94191,6,0,P|372:36|452:144,1,229.500000875473
480,304,94554,1,0,0:0:0:0:
352,176,94675,2,0,L|316:48,1,114.750000437737
265,234,94917,2,0,L|248:348,1,114.750000437737
192,152,95159,2,0,B|160:116|156:49|156:49|128:40|99:23|99:23|78:37|46:41,1,229.500000875473
64,296,95522,1,0,0:0:0:0:
196,172,95643,2,0,P|220:104|248:48,1,114.750000437737
380,16,95885,1,0,0:0:0:0:
72,152,96006,1,0,0:0:0:0:
204,296,96127,6,0,B|264:308|312:356|312:356|328:348|328:348|384:356|424:312,1,229.500000875473
428,312,96611,1,0,0:0:0:0:
332,192,96732,1,0,0:0:0:0:
140,356,96853,1,0,0:0:0:0:
112,76,96974,1,0,0:0:0:0:
317,166,97095,2,0,B|333:222|321:278|321:278|341:286|341:286|373:322|437:310,1,229.500000875473
428,312,97336,2,0,P|308:332|184:380,1,229.500000875473
67,135,97820,2,0,B|100:88|100:88|120:24,1,114.750000437737
172,180,98062,6,0,B|168:236|140:300|140:300|160:352|232:368,1,229.500000875473
240,372,98546,1,0,0:0:0:0:
208,96,98667,1,0,0:0:0:0:
56,304,98788,1,0,0:0:0:0:
356,236,98909,1,0,0:0:0:0:
144,188,99030,2,0,P|60:112|128:48,1,229.500000875473
124,48,99272,2,0,L|352:72,1,229.500000875473
256,256,99756,2,0,P|272:328|296:388,1,114.750000437737
296,144,99998,5,0,0:0:0:0:
184,348,100119,1,0,0:0:0:0:
88,112,100240,1,0,0:0:0:0:
384,80,100361,1,0,0:0:0:0:
368,304,100482,1,0,0:0:0:0:
76,264,100603,1,0,0:0:0:0:
184,32,100724,1,0,0:0:0:0:
424,160,100845,1,0,0:0:0:0:
300,364,100966,1,0,0:0:0:0:
176,112,101086,1,0,0:0:0:0:
448,24,101207,1,0,0:0:0:0:
456,288,101328,1,0,0:0:0:0:
184,348,101449,1,0,0:0:0:0:
88,112,101570,1,0,0:0:0:0:
384,80,101691,1,0,0:0:0:0:
368,304,101812,1,0,0:0:0:0:
96,344,101933,5,0,0:0:0:0:
96,344,102417,2,0,P|72:280|40:224,1,114.750000437737
172,40,102659,2,0,L|156:168,1,114.750000437737
236,320,102901,1,0,0:0:0:0:
8,160,103022,1,0,0:0:0:0:
288,56,103143,2,0,P|348:48|412:20,1,114.750000437737
496,24,103385,1,0,0:0:0:0:
424,248,103506,1,0,0:0:0:0:
172,40,103627,1,0,0:0:0:0:
240,304,103748,1,0,0:0:0:0:
288,56,103869,6,0,B|364:40|404:104|404:104|400:136|400:136|412:180|412:180|392:248,1,255.000009727478
256,340,104232,1,0,0:0:0:0:
326,176,104353,2,0,B|386:132|450:132|450:132|458:104|458:104|490:84|498:16,1,255.000009727478
424,248,104716,1,0,0:0:0:0:
212,100,104836,2,0,P|144:80|84:36,1,127.500004863739
84,204,105078,2,0,L|68:344,1,127.500004863739
232,248,105320,2,0,L|216:116,1,127.500004863739
392,24,105562,2,0,L|380:164,1,127.500004863739
288,320,105804,6,0,B|228:352|168:320|168:320|152:296|152:296|120:244|84:220,1,255.000009727478
32,76,106167,1,0,0:0:0:0:
84,204,106288,2,0,L|68:352,1,127.500004863739
212,100,106530,2,0,P|304:72|348:44,1,127.500004863739
452,8,106772,1,0,0:0:0:0:
376,244,106893,1,0,0:0:0:0:
244,12,107014,1,0,0:0:0:0:
300,300,107135,1,0,0:0:0:0:
132,52,107256,1,0,0:0:0:0:
224,248,107377,1,0,0:0:0:0:
28,172,107498,1,0,0:0:0:0:
392,104,107619,1,0,0:0:0:0:
300,300,107740,6,0,B|248:348|176:332|176:332|156:344|156:344|120:300|56:288,1,255.000009727478
28,172,108103,1,0,0:0:0:0:
232,152,108224,2,0,B|308:152|344:80|344:80|400:120|456:116,1,255.000009727478
376,244,108586,1,0,0:0:0:0:
256,64,108707,2,0,P|188:36|140:4,1,127.500004863739
16,152,108949,2,0,L|148:132,1,127.500004863739
472,128,109191,1,0,0:0:0:0:
308,332,109312,1,0,0:0:0:0:
256,64,109433,1,0,0:0:0:0:
176,340,109554,1,0,0:0:0:0:
28,172,109675,6,0,B|68:112|68:56|68:56|108:48|140:20|140:20|176:36|224:28,1,255.000009727478
408,76,110038,1,0,0:0:0:0:
336,232,110159,2,0,L|320:372,1,127.500004863739
240,164,110401,2,0,L|228:24,1,127.500004863739
180,292,110643,2,0,B|120:332|80:324|80:324|52:336|52:336|40:276|0:232,1,255.000009727478
124,120,111006,1,0,0:0:0:0:
292,264,111127,2,0,L|448:312,1,127.500004863739
504,192,111369,1,0,0:0:0:0:
180,292,111490,1,0,0:0:0:0:
284,148,111611,6,0,B|352:120|376:68|376:68|408:72|408:72|444:32|504:40,1,255.000009727478
512,48,112095,1,0,0:0:0:0:
284,52,112216,1,0,0:0:0:0:
488,180,112336,1,0,0:0:0:0:
284,32,112457,1,0,0:0:0:0:
412,248,112578,2,0,B|360:308|292:312|292:312|272:344|272:344|236:344|176:316,1,255.000009727478
197,325,112820,2,0,B|164:252|100:232|100:232|88:208|88:208|44:228|-8:208,1,255.000009727478
236,104,113304,2,0,P|296:76|356:32,1,127.500004863739
260,208,113546,6,0,B|244:288|208:328|208:328|152:360|84:360,1,255.000009727478
72,356,114030,1,0,0:0:0:0:
340,336,114151,1,0,0:0:0:0:
132,232,114271,1,0,0:0:0:0:
320,80,114392,1,0,0:0:0:0:
320,260,114514,2,0,B|348:332|400:368|400:368|428:352|428:352|468:376|508:328,1,255.000009727478
503,332,114756,2,0,B|476:256|504:188|504:188|472:144|472:80,1,255.000009727478
216,272,115240,2,0,P|160:308|104:348,1,127.500004863739
192,100,115482,5,0,0:0:0:0:
256,348,115603,1,0,0:0:0:0:
460,192,115724,1,0,0:0:0:0:
136,212,115845,1,0,0:0:0:0:
368,304,115966,1,0,0:0:0:0:
320,80,116087,1,0,0:0:0:0:
136,328,116208,1,0,0:0:0:0:
388,320,116329,1,0,0:0:0:0:
180,88,116450,1,0,0:0:0:0:
256,360,116570,1,0,0:0:0:0:
400,116,116691,1,0,0:0:0:0:
104,132,116812,1,0,0:0:0:0:
404,336,116933,1,0,0:0:0:0:
312,60,117054,1,0,0:0:0:0:
120,232,117175,1,0,0:0:0:0:
444,200,117296,1,0,0:0:0:0:
236,20,117417,5,0,0:0:0:0:
236,20,117901,2,0,P|196:104|168:144,1,127.500004863739
296,304,118143,2,0,L|280:160,1,127.500004863739
132,32,118385,1,0,0:0:0:0:
200,252,118506,1,0,0:0:0:0:
368,116,118627,2,0,P|440:88|484:40,1,127.500004863739
324,20,118869,1,0,0:0:0:0:
388,208,118990,1,0,0:0:0:0:
488,24,119111,1,0,0:0:0:0:
464,284,119232,1,0,0:0:0:0:
196,148,119353,5,0,0:0:0:0:
256,192,119413,12,0,125159,0:0:0:0:
