osu file format v14

[General]
AudioFilename: Card Captor Sakura ED 1 HD - Groovy!.mp3
AudioLeadIn: 0
PreviewTime: 44333
Countdown: 0
SampleSet: Normal
StackLeniency: 0.7
Mode: 1
LetterboxInBreaks: 0
WidescreenStoryboard: 1

[Editor]
DistanceSpacing: 0.8
BeatDivisor: 4
GridSize: 8
TimelineZoom: 1.5

[Metadata]
Title:Groovy! (Tv Size)
TitleUnicode:Groovy! (Tv Size)
Artist:Kohmi Hirose
ArtistUnicode:Kohmi Hirose
Creator:JessiChan
Version:Muzukashii
Source:Card Captor Sakura
Tags:ending first season kero
BeatmapID:1111710
BeatmapSetID:523677

[Difficulty]
HPDrainRate:6
CircleSize:4
OverallDifficulty:4
ApproachRate:10
SliderMultiplier:1.4
SliderTickRate:1

[Events]
//Background and Video events
0,0,"Kero.jpg",0,0
//Break Periods
//Storyboard Layer 0 (Background)
//Storyboard Layer 1 (Fail)
//Storyboard Layer 2 (Pass)
//Storyboard Layer 3 (Foreground)
//Storyboard Sound Samples

[TimingPoints]
919,487.80487804878,4,1,0,70,1,0
45797,-100,4,1,0,70,0,1
64333,-100,4,1,0,70,0,0

[HitObjects]
256,192,919,5,12,0:0:0:0:
256,192,1162,1,0,0:0:0:0:
256,192,1406,1,8,0:0:0:0:
256,192,1650,1,0,0:0:0:0:
256,192,1894,1,8,0:0:0:0:
256,192,2382,1,0,0:0:0:0:
256,192,2626,1,8,0:0:0:0:
256,192,3114,1,0,0:0:0:0:
256,192,3358,1,8,0:0:0:0:
256,192,3601,1,0,0:0:0:0:
256,192,3845,1,8,0:0:0:0:
256,192,4089,1,8,0:0:0:0:
256,192,4821,1,8,0:0:0:0:
256,192,5065,1,0,0:0:0:0:
256,192,5309,1,8,0:0:0:0:
256,192,5553,1,0,0:0:0:0:
256,192,5797,1,8,0:0:0:0:
256,192,6040,1,0,0:0:0:0:
256,192,6284,1,8,0:0:0:0:
256,192,6528,1,8,0:0:0:0:
256,192,7748,1,12,0:0:0:0:
256,192,8236,1,12,0:0:0:0:
256,192,8723,1,4,0:0:0:0:
256,192,9211,1,8,0:0:0:0:
256,192,9455,1,0,0:0:0:0:
256,192,9699,1,0,0:0:0:0:
256,192,10187,1,8,0:0:0:0:
256,192,10675,1,0,0:0:0:0:
256,192,11162,1,8,0:0:0:0:
256,192,11406,1,0,0:0:0:0:
256,192,11894,1,8,0:0:0:0:
256,192,12138,1,8,0:0:0:0:
256,192,12382,1,0,0:0:0:0:
256,192,12626,1,0,0:0:0:0:
256,192,13114,1,8,0:0:0:0:
256,192,13358,1,0,0:0:0:0:
256,192,13601,1,0,0:0:0:0:
256,192,14089,1,8,0:0:0:0:
256,192,14211,1,8,0:0:0:0:
256,192,14333,1,8,0:0:0:0:
256,192,14577,1,0,0:0:0:0:
256,192,15065,1,8,0:0:0:0:
256,192,15309,1,0,0:0:0:0:
256,192,15797,1,8,0:0:0:0:
256,192,16040,1,0,0:0:0:0:
256,192,16162,1,0,0:0:0:0:
256,192,16284,1,0,0:0:0:0:
256,192,16772,1,8,0:0:0:0:
256,192,17016,1,0,0:0:0:0:
256,192,17748,1,8,0:0:0:0:
256,192,17992,1,0,0:0:0:0:
256,192,18114,1,0,0:0:0:0:
256,192,18236,1,0,0:0:0:0:
256,192,18723,1,8,0:0:0:0:
256,192,18967,1,0,0:0:0:0:
256,192,19943,1,0,0:0:0:0:
256,192,20187,1,8,0:0:0:0:
256,192,20309,1,8,0:0:0:0:
256,192,20431,1,8,0:0:0:0:
256,192,20675,1,8,0:0:0:0:
256,192,20918,1,0,0:0:0:0:
256,192,21650,1,0,0:0:0:0:
256,192,21894,1,8,0:0:0:0:
256,192,22382,1,8,0:0:0:0:
256,192,22626,1,0,0:0:0:0:
256,192,22870,1,0,0:0:0:0:
256,192,23114,1,8,0:0:0:0:
256,192,23601,1,0,0:0:0:0:
256,192,23845,1,8,0:0:0:0:
256,192,23967,1,8,0:0:0:0:
256,192,24211,1,8,0:0:0:0:
256,192,24333,1,0,0:0:0:0:
256,192,24821,1,8,0:0:0:0:
256,192,25065,1,0,0:0:0:0:
256,192,25309,1,0,0:0:0:0:
256,192,25553,1,0,0:0:0:0:
256,192,25797,1,8,0:0:0:0:
256,192,26040,1,0,0:0:0:0:
256,192,26528,1,0,0:0:0:0:
256,192,26772,1,8,0:0:0:0:
256,192,27016,1,0,0:0:0:0:
256,192,27260,1,0,0:0:0:0:
256,192,27504,1,8,0:0:0:0:
256,192,27748,1,8,0:0:0:0:
256,192,27992,1,0,0:0:0:0:
256,192,28479,1,0,0:0:0:0:
256,192,28723,1,8,0:0:0:0:
256,192,28967,1,0,0:0:0:0:
256,192,29211,1,0,0:0:0:0:
256,192,29699,1,8,0:0:0:0:
256,192,29821,1,8,0:0:0:0:
256,192,29943,1,8,0:0:0:0:
256,192,30187,1,0,0:0:0:0:
256,192,31406,1,0,0:0:0:0:
256,192,31528,1,0,0:0:0:0:
256,192,31650,1,0,0:0:0:0:
256,192,31894,1,8,0:0:0:0:
256,192,32382,1,8,0:0:0:0:
256,192,32626,1,0,0:0:0:0:
256,192,33358,1,0,0:0:0:0:
256,192,33479,1,0,0:0:0:0:
256,192,33601,1,0,0:0:0:0:
256,192,33845,1,8,0:0:0:0:
256,192,34333,1,8,0:0:0:0:
256,192,34577,1,0,0:0:0:0:
256,192,35065,1,0,0:0:0:0:
256,192,35309,1,0,0:0:0:0:
256,192,35553,1,8,0:0:0:0:
256,192,35797,1,0,0:0:0:0:
256,192,36040,1,12,0:0:0:0:
256,192,37016,1,8,0:0:0:0:
256,192,37992,1,0,0:0:0:0:
256,192,38479,1,8,0:0:0:0:
256,192,38967,1,0,0:0:0:0:
256,192,39211,1,8,0:0:0:0:
256,192,39699,1,8,0:0:0:0:
256,192,39943,1,0,0:0:0:0:
256,192,40918,1,8,0:0:0:0:
248,192,41244,1,12,0:0:0:0:
248,192,41569,1,12,0:0:0:0:
248,192,41894,1,4,0:0:0:0:
248,192,42870,1,8,0:0:0:0:
248,192,43114,1,0,0:0:0:0:
248,192,43358,1,0,0:0:0:0:
248,192,43601,1,4,0:0:0:0:
248,192,44821,1,12,0:0:0:0:
248,192,45309,1,12,0:0:0:0:
248,192,45797,1,4,0:0:0:0:
248,192,46284,1,8,0:0:0:0:
248,192,46406,1,8,0:0:0:0:
248,192,46528,1,8,0:0:0:0:
248,192,46772,1,0,0:0:0:0:
248,192,47016,1,0,0:0:0:0:
248,192,47504,1,8,0:0:0:0:
248,192,47992,1,0,0:0:0:0:
248,192,48114,1,0,0:0:0:0:
248,192,48236,1,0,0:0:0:0:
248,192,48479,1,8,0:0:0:0:
248,192,48723,1,0,0:0:0:0:
248,192,48967,1,0,0:0:0:0:
248,192,49211,1,8,0:0:0:0:
248,192,49699,1,0,0:0:0:0:
248,192,49943,1,0,0:0:0:0:
248,192,50187,1,8,0:0:0:0:
248,192,50431,1,0,0:0:0:0:
248,192,50675,1,8,0:0:0:0:
248,192,51162,1,8,0:0:0:0:
248,192,51406,1,4,0:0:0:0:
248,192,51894,1,8,0:0:0:0:
248,192,52138,1,0,0:0:0:0:
248,192,52382,1,8,0:0:0:0:
248,192,52870,1,0,0:0:0:0:
248,192,52992,1,0,0:0:0:0:
248,192,53114,1,0,0:0:0:0:
248,192,53358,1,8,0:0:0:0:
248,192,53601,1,4,0:0:0:0:
248,192,54089,1,8,0:0:0:0:
248,192,54333,1,0,0:0:0:0:
248,192,54577,1,8,0:0:0:0:
248,192,54699,1,8,0:0:0:0:
248,192,54821,1,8,0:0:0:0:
248,192,55309,1,0,0:0:0:0:
248,192,55797,1,0,0:0:0:0:
248,192,55918,1,0,0:0:0:0:
248,192,56040,1,0,0:0:0:0:
248,192,56284,1,8,0:0:0:0:
248,192,56528,1,0,0:0:0:0:
248,192,56772,1,0,0:0:0:0:
248,192,57016,1,8,0:0:0:0:
248,192,57504,1,0,0:0:0:0:
248,192,57748,1,0,0:0:0:0:
248,192,57992,1,8,0:0:0:0:
248,192,58236,1,0,0:0:0:0:
248,192,58479,1,8,0:0:0:0:
248,192,58723,1,8,0:0:0:0:
248,192,58967,1,0,0:0:0:0:
248,192,59211,1,12,0:0:0:0:
248,192,59699,1,8,0:0:0:0:
248,192,59943,1,0,0:0:0:0:
248,192,60187,1,8,0:0:0:0:
248,192,60918,1,8,0:0:0:0:
248,192,61162,1,0,0:0:0:0:
248,192,61406,1,0,0:0:0:0:
248,192,61650,1,0,0:0:0:0:
248,192,61894,1,0,0:0:0:0:
248,192,62138,1,0,0:0:0:0:
248,192,62382,1,0,0:0:0:0:
248,192,62626,1,0,0:0:0:0:
248,192,62870,1,0,0:0:0:0:
248,192,63114,1,0,0:0:0:0:
248,192,63358,1,0,0:0:0:0:
248,192,63601,1,0,0:0:0:0:
248,192,63845,1,0,0:0:0:0:
248,192,64089,1,0,0:0:0:0:
248,192,64333,1,12,0:0:0:0:
