osu file format v14

[General]
AudioFilename: Card Captor Sakura ED 1 HD - Groovy!.mp3
AudioLeadIn: 0
PreviewTime: 44333
Countdown: 0
SampleSet: Normal
StackLeniency: 0.7
Mode: 1
LetterboxInBreaks: 0
WidescreenStoryboard: 1

[Editor]
DistanceSpacing: 0.8
BeatDivisor: 4
GridSize: 8
TimelineZoom: 1

[Metadata]
Title:Groovy! (Tv Size)
TitleUnicode:Groovy! (Tv Size)
Artist:Kohmi Hirose
ArtistUnicode:Kohmi Hirose
Creator:JessiChan
Version:Kantan
Source:Card Captor Sakura
Tags:ending first season kero
BeatmapID:1111709
BeatmapSetID:523677

[Difficulty]
HPDrainRate:8
CircleSize:4
OverallDifficulty:2
ApproachRate:10
SliderMultiplier:1.4
SliderTickRate:1

[Events]
//Background and Video events
0,0,"Kero.jpg",0,0
//Break Periods
//Storyboard Layer 0 (Background)
//Storyboard Layer 1 (Fail)
//Storyboard Layer 2 (Pass)
//Storyboard Layer 3 (Foreground)
//Storyboard Sound Samples

[TimingPoints]
919,487.80487804878,4,1,0,70,1,0
45797,-100,4,1,0,70,0,1
64333,-100,4,1,0,70,0,0

[HitObjects]
256,184,919,5,0,0:0:0:0:
256,184,1406,1,12,0:0:0:0:
256,184,1894,1,0,0:0:0:0:
256,184,2870,1,0,0:0:0:0:
256,184,3845,1,8,0:0:0:0:
256,184,4821,1,8,0:0:0:0:
256,184,5309,1,0,0:0:0:0:
256,184,5797,1,0,0:0:0:0:
256,184,6528,1,12,0:0:0:0:
256,184,7748,1,12,0:0:0:0:
256,184,8723,1,4,0:0:0:0:
256,184,9699,1,8,0:0:0:0:
256,184,10187,1,0,0:0:0:0:
256,184,10675,1,0,0:0:0:0:
256,184,11650,1,8,0:0:0:0:
256,184,12138,1,0,0:0:0:0:
256,184,12626,1,8,0:0:0:0:
256,184,13601,1,0,0:0:0:0:
256,184,14577,1,8,0:0:0:0:
256,184,16040,1,0,0:0:0:0:
256,184,16528,1,0,0:0:0:0:
256,184,17992,1,8,0:0:0:0:
256,184,18479,1,8,0:0:0:0:
256,184,19943,1,0,0:0:0:0:
256,184,20431,1,0,0:0:0:0:
256,184,21650,1,8,0:0:0:0:
256,184,22382,1,0,0:0:0:0:
256,184,23114,1,0,0:0:0:0:
256,184,23845,1,8,0:0:0:0:
256,184,24333,1,4,0:0:0:0:
256,184,25309,1,8,0:0:0:0:
256,184,25797,1,0,0:0:0:0:
256,184,26284,1,0,0:0:0:0:
256,184,27260,1,8,0:0:0:0:
256,184,27748,1,0,0:0:0:0:
256,184,28236,1,8,0:0:0:0:
256,184,29211,1,0,0:0:0:0:
256,184,30187,1,8,0:0:0:0:
256,184,31650,1,0,0:0:0:0:
256,184,32138,1,0,0:0:0:0:
256,184,33601,1,8,0:0:0:0:
256,184,34089,1,8,0:0:0:0:
256,184,35065,1,0,0:0:0:0:
256,184,36040,1,4,0:0:0:0:
256,184,37992,1,0,0:0:0:0:
256,184,39943,1,0,0:0:0:0:
256,184,40918,1,8,0:0:0:0:
256,184,41894,1,0,0:0:0:0:
256,184,43601,1,4,0:0:0:0:
256,184,44821,1,12,0:0:0:0:
256,184,45797,1,4,0:0:0:0:
256,184,46772,1,8,0:0:0:0:
256,184,47260,1,0,0:0:0:0:
256,184,47748,1,0,0:0:0:0:
256,184,48723,1,8,0:0:0:0:
256,184,49699,1,0,0:0:0:0:
256,184,50187,1,8,0:0:0:0:
256,184,50675,1,0,0:0:0:0:
256,184,51406,1,12,0:0:0:0:
256,184,52382,1,8,0:0:0:0:
256,184,53601,1,0,0:0:0:0:
256,184,54089,1,0,0:0:0:0:
256,184,54577,1,8,0:0:0:0:
256,184,55553,1,0,0:0:0:0:
256,184,56528,1,8,0:0:0:0:
256,184,57504,1,0,0:0:0:0:
256,184,57992,1,8,0:0:0:0:
256,184,58479,1,0,0:0:0:0:
256,184,59211,1,12,0:0:0:0:
256,184,60187,1,8,0:0:0:0:
256,184,60918,1,8,0:0:0:0:
256,184,61406,1,0,0:0:0:0:
256,184,62382,1,0,0:0:0:0:
256,184,63358,1,0,0:0:0:0:
256,184,64333,1,12,0:0:0:0:
