osu file format v9

[General]
AudioFilename: Kohei Tanaka - Luffy Versus Ratchet Round 1 (Benzyh Remix)(720p_H.264-AAC).mp3
AudioLeadIn: 0
PreviewTime: -1
Countdown: 1
SampleSet: Normal
StackLeniency: 0.7
Mode: 0
LetterboxInBreaks: 1

[Editor]
DistanceSpacing: 0.8
BeatDivisor: 4
GridSize: 32

[Metadata]
Title:Luffy Versus Ratchet Round 1 (Benyh Remix)
Artist:Kohei Tanaka
Creator:triforcebih
Version:Easy
Source:
Tags:one piece gear second luffy ratchet movie 7

[Difficulty]
HPDrainRate:5
CircleSize:5
OverallDifficulty:5
ApproachRate:5
SliderMultiplier:1.4
SliderTickRate:1

[Events]
//Background and Video events
Video,0,"Kohei Tanaka - Luffy Versus Ratchet Round 1 (Benzyh Remix)(720p_H.264-AAC).avi"
//Break Periods
2,26749,27531
//Storyboard Layer 0 (Background)
//Storyboard Layer 1 (Fail)
//Storyboard Layer 2 (Pass)
//Storyboard Layer 3 (Foreground)
//Storyboard Sound Samples
//Background Colour Transformations
3,100,0,0,0

[TimingPoints]
0,545.454545454545,4,1,0,100,1,0
11357,545.454545454545,4,1,0,100,1,1
14550,545.454545454545,4,1,0,100,1,0
46175,-100,4,1,0,100,0,1
50549,-100,4,1,0,100,0,0

[HitObjects]
32,32,400,5,0
96,32,1200,5,0
160,32,2000,5,0
224,32,2600,5,0
288,32,3300,5,0
352,32,4200,5,0
416,32,4800,5,0
480,32,5600,5,0
480,96,6400,5,0
416,96,7000,5,0
352,96,7800,5,0
288,96,8590,5,0
256,32,9090,6,0,B|-32:352,1,420,2|0
32,64,11272,2,0,B|416:64|352:256,1,420
256,320,13447,2,0,B|96:320,3,140
128,288,15640,2,0,B|288:288,7,140
128,224,20004,2,0,B|288:224,1,140
256,160,21095,2,0,B|96:160,1,140
128,96,22186,2,0,B|288:96,1,140
128,160,23277,2,0,B|224:160,4,70
192,224,24913,2,0,B|32:224,1,140
64,288,26004,2,0,B|224:288,1,140
256,192,28731,12,0,29822
256,192,30368,5,0
160,160,31459,1,0
352,128,32549,1,0
224,96,33640,1,0
160,160,34731,1,0
288,224,35822,1,0
352,128,36913,1,0
192,160,38004,1,0
320,224,39095,1,0
320,128,40186,1,0
192,192,41277,1,0
320,256,42368,1,0
384,160,43459,1,0
224,128,44549,1,0
288,224,45640,1,0
288,288,46186,2,2,B|128:288,1,140
128,224,47277,2,2,B|288:224,1,140
256,160,48368,2,2,B|96:160,1,140
256,224,49459,2,2,B|160:224,4,70
192,192,51095,2,0,B|64:128|160:96,1,140
192,64,52186,2,0,B|320:160|224:160,1,140
192,192,53277,2,0,B|448:320|416:192,1,280
64,160,54913,2,2,B|352:160,1,280
128,192,56549,1,0
256,192,56822,1,0
320,192,57095,1,0
320,256,57640,2,0,B|224:256,2,70
224,192,58731,1,0
480,192,59277,2,2,B|288:64|352:288,1,280
224,192,60913,1,0
224,256,61459,1,0
224,320,62004,1,0
288,320,62549,1,0
160,320,63095,1,0
256,192,63640,12,0,65277
128,320,65822,5,0
192,320,66095,1,0
320,320,66640,1,0
384,320,66913,1,0
448,320,67459,5,0
448,256,67731,1,4
