osu file format v5

[General]
AudioFilename: KOH+ - KISS shite.mp3
AudioLeadIn: 0
PreviewTime: -1
Countdown: 1
SampleSet: Normal
StackLeniency: 0.7
Mode: 0
LetterboxInBreaks: 1

[Metadata]
Title:KISS shite
Artist:Koh
Creator:p445csy2008
Version:Hard
Source:
Tags:

[Difficulty]
HPDrainRate:10
CircleSize:5
OverallDifficulty:5
SliderMultiplier:0.999999999999999
SliderTickRate:1

[Events]
//Background and Video events
//Break Periods
2,75166,79555
2,141569,153020
2,178455,182625
//Storyboard Layer 0 (Background)
//Storyboard Layer 1 (Failing)
//Storyboard Layer 2 (Passing)
//Storyboard Layer 3 (Foreground)
//Storyboard Sound Samples
//Background Colour Transformations
3,100,163,162,255

[TimingPoints]
10,350.877192982456,4,1,0,100,1

[HitObjects]
96,32,25843,2,0,B|416:192|64:320|480:256,1,512.5
192,160,28431,1,0
288,224,28869,1,0
384,160,29439,1,2
192,288,29790,1,2
192,96,31325,1,0
256,192,31720,1,0
352,160,32246,1,0
256,160,32597,1,0
256,160,32773,1,0
128,160,33080,2,0,B|256:320|416:64|96:64|160:64,1,350
320,96,35053,5,2
256,192,35360,1,2
320,192,36983,1,2
416,192,37729,1,2
416,288,38474,1,2
288,288,39176,1,2
160,288,39834,1,2
160,256,40536,1,2
160,224,40755,1,2
160,192,40931,1,2
256,256,42641,1,2
352,256,43167,1,2
352,160,43518,1,2
256,160,43957,1,2
192,192,44659,1,2
128,192,45536,6,2,B|288:320|480:160,1,375
256,160,48474,1,2
352,160,48869,1,2
352,160,49176,1,2
352,256,49702,1,2
352,256,50185,1,2
128,192,51106,1,0
320,192,51676,1,0
128,160,52509,5,0
352,192,52860,1,0
352,192,53036,1,0
192,288,54045,1,0
192,288,54264,1,0
224,160,54439,1,0
320,192,55360,1,0
224,192,56062,1,0
160,224,56764,1,0
224,224,57334,5,2
320,160,58211,1,2
256,160,59045,1,2
192,224,59615,1,2
320,224,60317,1,0
160,128,61018,5,2
320,160,61545,1,2
320,160,61676,1,2
256,224,62071,1,2
192,192,62422,1,2
128,224,62860,2,2,B|416:320|320:64|96:160|256:352|416:288,1,475
192,160,65404,1,0
224,192,65580,1,0
256,224,65667,1,0
320,160,66588,1,2
352,224,68080,5,2
288,256,68650,1,2
224,224,69527,1,2
224,256,70229,1,2
160,256,70887,1,2
192,320,71545,1,2
128,96,72290,5,2
224,160,72992,1,2
352,128,73343,1,2
352,128,73518,1,2
320,192,73825,1,6
160,224,74220,2,6,B|256:256|224:224,1,87.4999999999999
256,128,80755,5,2
192,224,81457,1,2
320,224,81983,1,2
320,160,82729,1,2
192,192,83036,1,2
224,256,83562,1,2
288,256,84264,1,2
352,256,84834,1,2
352,224,85492,1,2
352,192,85843,1,2
288,192,86325,1,2
288,256,86939,1,2
320,160,88474,5,0
320,160,88650,1,0
256,224,89176,1,0
288,256,89702,1,0
320,224,90229,1,0
288,192,90667,1,0
256,224,91194,1,0
288,256,92027,1,0
320,224,92422,1,0
352,160,92992,1,0
320,128,93255,1,0
160,256,94834,1,0
256,256,95360,1,0
256,192,96238,1,0
256,192,97597,12,0,100447
160,128,100843,2,0,B|352:352|384:64|32:64|448:64,1,475
416,128,103299,1,0
416,224,104088,1,0
352,256,104439,1,0
96,192,106194,5,0
256,192,106720,1,0
256,128,107334,1,0
384,160,108036,1,0
320,224,108913,1,0
160,224,109659,1,0
160,224,109834,1,0
192,128,110229,1,0
288,192,112071,5,0
160,192,112466,1,0
256,128,114264,2,0,B|288:192|96:320|448:288|448:64,2,425
160,96,118869,1,0
320,128,119395,1,0
320,128,119571,1,0
480,128,120317,1,2
480,192,121720,1,2
480,256,122246,1,2
480,256,122422,1,2
416,256,123036,1,2
384,224,123694,1,2
352,192,123913,1,2
224,128,124571,5,0
224,192,125097,1,0
224,192,125273,1,0
288,192,125974,1,0
288,128,126369,1,0
288,128,126545,1,0
352,128,127378,1,0
352,192,127860,1,0
352,192,128036,1,0
416,192,128825,1,0
416,128,129264,1,0
416,128,129439,1,0
224,96,130141,1,0
224,192,130536,1,0
224,256,130843,1,0
128,256,131676,1,0
320,256,132378,1,0
320,160,132992,1,2
416,160,133738,1,2
416,224,134439,1,2
352,224,134966,1,2
352,224,135097,1,2
128,192,135799,5,0
128,192,135974,1,0
256,192,136325,1,0
256,192,136457,1,0
192,224,136808,2,0,B|416:64,1,262.5
192,128,138650,5,2
192,128,138825,1,2
352,128,139176,1,2
352,160,139352,1,2
288,224,139702,1,2
288,224,139922,1,2
352,224,140229,1,2
352,224,140404,1,2
