osu file format v9

[General]
AudioFilename: Cry for me,Cry for you.mp3
AudioLeadIn: 2500
PreviewTime: 30
Countdown: 0
SampleSet: Normal
StackLeniency: 0.2
Mode: 0
LetterboxInBreaks: 1

[Editor]
Bookmarks: 51302,62595,92393,110848
DistanceSpacing: 1
BeatDivisor: 4
GridSize: 8

[Metadata]
Title:Cry For Me, Cry For You (Opening Version)
Artist:Kodera Kanako
Creator:arsrun
Version:Normal
Source:The Legend of Heroes: Sora no Kiseki the 3rd
Tags:Falcom Sound Team J.D.K. AH

[Difficulty]
HPDrainRate:4
CircleSize:4
OverallDifficulty:6
ApproachRate:6
SliderMultiplier:1
SliderTickRate:1

[Events]
//Background and Video events
0,0,"wp02_l.jpg"
Video,0,"video.flv"
//Break Periods
2,12663,15959
//Storyboard Layer 0 (Background)
//Storyboard Layer 1 (Fail)
//Storyboard Layer 2 (Pass)
//Storyboard Layer 3 (Foreground)
//Storyboard Sound Samples
//Background Colour Transformations
3,100,163,162,255

[TimingPoints]
100,727.272727272727,4,1,0,49,1,0
1554,-50,4,2,0,50,0,0
16827,-100,4,1,0,40,0,0
22827,-50,4,1,0,40,0,0
28099,-50,4,2,0,40,0,0
62575,-50,4,1,0,40,0,0
87029,-100,4,2,0,50,0,0
90211,-100,4,2,0,50,0,0

[HitObjects]
144,176,1736,2,0,B|200:176|200:176,1,50
248,176,2099,2,0,B|312:176|312:176,1,50
288,272,2645,5,2
240,272,2827,1,2
192,272,3009,1,2
384,184,3918,5,0
312,256,4281,1,0
240,184,4645,2,0,B|168:184,3,50
240,96,5554,1,0
304,40,5918,5,0
400,40,6281,1,0
504,40,6645,1,0
456,128,7009,1,0
360,128,7372,1,0
152,272,8281,2,0,B|80:272,3,50
152,184,9190,5,0
232,248,9554,1,0
328,248,9918,1,0
400,184,10281,1,0
256,192,10645,12,0,12463
112,88,17009,6,4,B|112:48,4,25
112,128,17918,1,0
112,168,18099,1,0
112,208,18281,2,0,B|112:264|112:264,1,50
112,328,18827,2,0,B|184:328,1,50
240,328,19554,1,0
368,312,19918,6,0,B|392:280|416:248|360:192|360:192,1,125,0|4
304,160,21190,1,4
256,160,21554,1,0
256,112,21918,1,4
256,64,22281,1,0
208,64,22645,1,4
88,64,23554,5,0
88,112,23736,1,0
88,160,23918,1,0
88,208,24099,2,0,B|192:208,1,100,0|4
392,224,25009,6,0,B|392:192|392:160|392:112|392:112|392:112,1,100,0|4
296,120,25736,1,4
296,216,26099,1,0
400,216,26463,2,0,B|400:336,1,100,4|0
352,320,27009,1,0
304,320,27190,2,4,B|152:320,1,150,4|4
104,320,27918,1,4
120,248,28281,6,4,B|152:248|184:248|184:248,1,50
224,248,28645,1,8
112,136,29372,5,6
160,136,29554,1,6
208,136,29736,1,6
256,136,29918,1,6
464,272,30827,5,2
384,328,31190,1,0
280,336,31554,2,2,B|208:336,1,50
232,288,31918,1,2
184,288,32099,1,0
136,288,32281,1,2
136,240,32463,2,0,B|16:240,1,100
32,240,33009,1,0
32,192,33190,1,0
160,184,33736,5,0
160,136,33918,1,0
312,136,34463,6,0,B|312:232,2,50
224,80,35190,1,4
272,80,35372,1,4
320,80,35554,1,12
368,80,35736,1,12
261,200,36645,6,0,B|168:128|168:128,1,100
184,240,37372,1,0
96,296,37736,2,0,B|304:296,1,200
384,224,39009,5,4
384,128,39372,1,4
288,120,39736,1,2
240,120,39918,1,2
144,128,40281,2,0,B|152:200|208:224|208:224,1,100
344,240,41009,6,0,B|392:192|392:192,2,50
304,272,41554,2,0,B|256:328|200:256|200:256,1,100
456,288,42463,5,0
456,192,42827,1,2
456,96,43190,2,2,B|456:320,1,200
408,328,44099,1,0
384,232,44463,1,2
176,88,45372,5,2
176,136,45554,1,0
176,192,45736,1,0
80,192,46100,2,0,B|80:88|80:88,1,100
259,125,47009,5,2
296,160,47190,1,0
336,192,47372,1,0
456,280,47918,1,0
360,280,48281,1,0
256,280,48645,2,0,B|208:280,4,50,0|0|0|0|0
224,184,49736,1,0
184,88,50100,1,0
184,40,50281,1,0
464,344,51554,5,0
416,344,51736,1,0
368,344,51918,2,0,B|304:344|304:344,1,50
320,296,52281,1,0
272,296,52463,2,0,B|208:296|208:296,1,50
168,296,52827,2,2,B|66:224,1,100
88,136,53554,1,0
160,208,53918,1,2
232,128,54281,5,0
280,128,54463,1,0
328,128,54645,1,0
376,128,54827,1,0
424,128,55009,2,0,B|424:240|424:240,1,100
328,200,55736,2,0,B|264:200,1,50
224,200,56100,1,0
224,248,56281,1,0
224,296,56463,2,2,B|224:359,2,50
152,256,57190,5,2
120,216,57372,1,2
88,176,57554,2,2,B|12:76,1,100
120,64,58281,1,0
272,64,58827,2,0,B|352:152|272:248|272:248|264:248,3,200
353,141,61918,5,0
280,208,62281,1,0
280,208,62463,1,4
192,248,62827,6,0,B|190:175,1,50
192,152,63190,1,0
256,72,63554,2,0,B|376:72,1,100
392,104,64100,1,0
392,152,64281,1,0
368,192,64463,1,0
328,224,64645,1,0
296,264,64827,2,0,B|368:264|368:352|432:352,1,150
464,272,65736,5,0
400,192,66100,1,0
304,192,66463,2,0,B|239:193,3,50
320,264,67372,1,0
280,296,67554,1,0
232,304,67736,1,0
136,336,68100,5,0
64,264,68463,2,0,B|32:224|32:224|64:176|64:176|64:176,1,100
136,120,69190,2,0,B|64:88|144:40|144:40,1,100
136,48,69736,1,0
240,80,70281,5,0
240,128,70463,1,0
240,176,70645,1,0
352,80,71190,2,0,B|448:184|360:280|360:280,2,200
128,128,73554,5,0
376,128,73918,1,0
256,320,74281,1,0
320,248,74645,5,0
320,248,75190,2,0,B|96:248,1,200
80,248,76099,2,0,B|80:184|80:184,3,50
80,136,76827,1,0
80,136,77009,1,4
32,192,77372,5,0
32,96,77736,1,0
96,64,78099,2,0,B|168:64,3,50
184,160,79009,5,4
232,160,79190,1,4
280,160,79372,1,4
384,160,79736,1,0
384,256,80099,1,4
280,256,80463,1,4
280,360,80827,1,4
128,312,81736,5,0
128,216,82099,1,0
128,168,82281,2,0,B|128:104|128:104,1,50
128,64,82645,1,4
232,64,83009,1,0
232,160,83372,2,0,B|352:160|352:160,1,100
296,224,85918,6,0,B|144:224,1,150
64,280,86827,1,0
80,320,87190,1,10
112,280,87554,1,10
144,320,87918,1,10
176,280,88281,1,10
208,320,88645,1,10
240,280,89009,1,10
264,280,89190,1,10
288,280,89372,1,2
