osu file format v11

[General]
AudioFilename: OP - YouTube.mp3
AudioLeadIn: 0
PreviewTime: 57076
Countdown: 0
SampleSet: Normal
StackLeniency: 0.7
Mode: 0
LetterboxInBreaks: 0

[Editor]
DistanceSpacing: 0.9
BeatDivisor: 4
GridSize: 8

[Metadata]
Title:Mikansei Stride (TV Size)
TitleUnicode:未完成ストライド
Artist:Kodama Saori
ArtistUnicode:Kodama Saori
Creator:tirigami
Version:Normal
Source:Hyouka
Tags:
BeatmapID:199256
BeatmapSetID:68984

[Difficulty]
HPDrainRate:3
CircleSize:4
OverallDifficulty:4
ApproachRate:5
SliderMultiplier:1.4
SliderTickRate:1

[Events]
//Background and Video events
0,0,"hyouka[1].jpg"
//Break Periods
//Storyboard Layer 0 (Background)
//Storyboard Layer 1 (Fail)
//Storyboard Layer 2 (Pass)
//Storyboard Layer 3 (Foreground)
//Storyboard Sound Samples
//Background Colour Transformations
3,100,163,162,255

[TimingPoints]
1186,410.958904109589,4,1,0,60,1,0
57090,-100,4,1,0,80,0,1
83391,-100,4,1,0,80,0,0

[Colours]
Combo1 : 255,255,0
Combo2 : 128,255,128
Combo3 : 0,0,255
Combo4 : 255,0,255

[HitObjects]
80,136,1186,1,0,0:0:0
80,136,1392,1,0,0:0:0
80,136,1597,1,0,0:0:0
184,296,2214,1,0,0:0:0
184,296,2419,1,0,0:0:0
184,296,2625,1,0,0:0:0
328,296,4473,5,0,0:0:0
328,296,4679,1,0,0:0:0
328,296,4884,1,0,0:0:0
432,136,5501,1,0,0:0:0
432,136,5706,1,0,0:0:0
432,136,5912,1,0,0:0:0
304,136,6322,2,0,P|304:216,1,70
200,136,6939,2,0,P|200:56,2,70
72,136,7761,6,0,P|152:112|208:144,1,140
272,240,8583,2,0,P|192:264|136:232,1,140
72,136,9405,1,0,0:0:0
176,64,9816,1,0,0:0:0
304,64,10227,6,0,P|448:64,2,140
376,168,11459,1,0,0:0:0
376,296,11870,1,0,0:0:0
376,168,12281,1,0,0:0:0
280,80,12692,2,0,P|144:64|32:152,1,280
32,272,13925,1,0,0:0:0
152,312,14336,6,0,P|216:336|280:312,1,140
280,184,15158,2,0,P|344:160|408:184,1,140
432,312,15980,1,0,0:0:0
304,312,16391,1,0,0:0:0
176,312,16802,2,0,P|104:288|80:224,2,140
304,312,18035,5,0,0:0:0
376,208,18446,1,0,0:0:0
376,80,18857,1,0,0:0:0
376,80,19268,1,0,0:0:0
376,80,19679,1,0,0:0:0
248,80,20090,2,0,P|104:80,2,140
360,136,21322,6,0,P|384:200|360:264,1,140
256,192,22144,2,0,P|224:256|256:320,1,140
376,304,22966,1,0,0:0:0
448,200,23377,2,0,P|480:136|448:80,1,140
320,80,24199,1,0,0:0:0
256,192,24610,12,0,27076,0:0:0
432,288,27487,6,0,P|368:312|296:280,1,140
200,208,28309,2,0,P|272:184|328:208,1,140
224,288,29131,2,0,P|160:312|88:288,1,140
88,168,29953,1,0,0:0:0
88,168,30364,1,0,0:0:0
176,80,30775,6,0,P|320:80,3,140
416,152,32418,2,0,P|416:296,3,140
288,312,34062,5,0,0:0:0
288,312,34473,1,0,0:0:0
160,312,34884,1,0,0:0:0
160,312,35295,1,0,0:0:0
88,208,35706,2,0,P|104:112|160:216,1,280
172,208,36939,1,0,0:0:0
256,192,37350,12,0,40227,0:0:0
296,312,40638,6,2,P|408:240|448:104,1,280,2|0,0:0|0:0,0:0:0
320,104,41870,1,0,0:0:0
192,104,42281,2,2,P|80:176|40:312,1,280
40,312,43514,1,0,0:0:0
168,312,43925,6,0,P|312:312,2,140
168,312,45158,1,0,0:0:0
168,184,45569,2,0,P|168:40,2,140
296,184,46802,1,0,0:0:0
376,280,47213,6,2,P|240:320|112:280,1,280
216,208,48446,1,0,0:0:0
112,136,48857,2,2,P|240:96|376:136,1,280
376,136,50090,1,0,0:0:0
408,256,50501,6,0,P|376:312|304:320,1,140
176,320,51322,2,0,P|104:304|72:240,1,140
80,128,52144,2,0,P|111:74|183:58,1,140
256,192,52966,1,0,0:0:0
256,192,53377,1,0,0:0:0
256,192,53788,12,0,56665,0:0:0
344,88,57076,6,0,P|408:128|424:192,1,140,0|8,0:0|0:0,0:0:0
376,304,57898,1,0,0:0:0
256,336,58309,1,8,0:0:0
128,336,58720,2,0,P|56:304|48:248,3,140,0|8|0|8,0:0|0:0|0:0|0:0,0:0:0
80,128,60364,5,0,0:0:0
168,40,60775,2,0,P|240:24|304:40,1,140,8|0,0:0|0:0,0:0:0
408,112,61596,1,8,0:0:0
440,232,62007,1,0,0:0:0
440,232,62418,1,8,0:0:0
384,336,62829,1,0,0:0:0
384,336,63240,6,0,P|320:360|248:328,1,140,8|0,0:0|0:0,0:0:0
136,304,64062,1,8,0:0:0
232,216,64473,1,0,0:0:0
136,128,64884,1,8,0:0:0
240,56,65295,2,0,P|312:32|368:56,1,140,0|8,0:0|0:0,0:0:0
440,160,66117,2,0,P|376:184|312:160,1,140,0|8,0:0|0:0,0:0:0
240,56,66939,5,0,0:0:0
72,240,67761,1,0,0:0:0
312,320,68583,2,0,P|280:256|312:200,1,140,0|8,0:0|0:0,0:0:0
433,121,69405,2,0,P|464:176|432:240,1,140,0|8,0:0|0:0,0:0:0
312,320,70227,5,0,0:0:0
312,320,70638,1,8,0:0:0
184,320,71049,1,0,0:0:0
184,320,71459,1,8,0:0:0
184,192,71870,2,0,P|184:48,3,140,0|8|0|8,0:0|0:0|0:0|0:0,0:0:0
312,48,73514,6,0,P|384:80|424:128,1,140,0|8,0:0|0:0,0:0:0
424,256,74336,2,0,P|384:320|312:336,1,140,0|8,0:0|0:0,0:0:0
200,328,75158,1,0,0:0:0
136,224,75569,2,0,P|64:104,2,140,8|0|8,0:0|0:0|0:0,0:0:0
256,192,76802,5,0,0:0:0
360,120,77213,1,8,0:0:0
392,240,77624,1,0,0:0:0
288,312,78035,1,8,0:0:0
160,312,78446,2,0,P|88:296|48:240,1,140,0|8,0:0|0:0,0:0:0
64,120,79268,1,0,0:0:0
160,40,79679,1,8,0:0:0
160,40,80090,6,0,P|304:16|440:40,1,280
432,168,81322,1,8,0:0:0
432,296,81733,1,0,0:0:0
432,296,82144,2,0,P|288:320|152:296,1,280,8|8,0:0|0:0,0:0:0
256,192,83377,12,0,86665,0:0:0
256,96,87281,5,2,0:0:0
336,256,87898,1,2,0:0:0
176,256,88514,1,2,0:0:0
256,192,89131,1,2,0:0:0
256,192,89542,1,2,0:0:0
