osu file format v11

[General]
AudioFilename: OP - YouTube.mp3
AudioLeadIn: 0
PreviewTime: 57076
Countdown: 0
SampleSet: Normal
StackLeniency: 0.7
Mode: 0
LetterboxInBreaks: 0

[Editor]
DistanceSpacing: 1
BeatDivisor: 4
GridSize: 8

[Metadata]
Title:Mikansei Stride (TV Size)
TitleUnicode:未完成ストライド
Artist:Kodama Saori
ArtistUnicode:Kodama Saori
Creator:tirigami
Version:Insane
Source:Hyouka
Tags:
BeatmapID:201954
BeatmapSetID:68984

[Difficulty]
HPDrainRate:6
CircleSize:4
OverallDifficulty:7
ApproachRate:8
SliderMultiplier:1.4
SliderTickRate:1

[Events]
//Background and Video events
0,0,"hyouka[1].jpg"
//Break Periods
//Storyboard Layer 0 (Background)
//Storyboard Layer 1 (Fail)
//Storyboard Layer 2 (Pass)
//Storyboard Layer 3 (Foreground)
//Storyboard Sound Samples
//Background Colour Transformations
3,100,163,162,255

[TimingPoints]
1186,410.958904109589,4,1,0,60,1,0
57090,-100,4,1,0,80,0,1
83391,-100,4,1,0,80,0,0

[Colours]
Combo1 : 255,255,0
Combo2 : 128,255,128
Combo3 : 0,0,255
Combo4 : 255,0,255

[HitObjects]
416,80,1186,1,0,0:0:0
416,80,1391,1,0,0:0:0
416,80,1596,1,0,0:0:0
416,248,2007,1,0,0:0:0
416,248,2213,1,0,0:0:0
416,248,2418,1,0,0:0:0
416,248,2624,1,0,0:0:0
96,80,4473,5,0,0:0:0
96,80,4679,1,0,0:0:0
96,80,4884,1,0,0:0:0
96,248,5295,1,0,0:0:0
96,248,5501,1,0,0:0:0
96,248,5706,1,0,0:0:0
96,248,5912,1,0,0:0:0
264,248,6322,5,0,0:0:0
352,248,6528,1,0,0:0:0
352,80,6939,1,0,0:0:0
352,80,7042,1,0,0:0:0
352,80,7144,1,0,0:0:0
120,304,7350,1,0,0:0:0
120,304,7453,1,0,0:0:0
120,304,7555,1,0,0:0:0
224,304,7761,6,0,P|304:304,1,70
408,240,8172,2,0,P|320:240,1,70
272,136,8583,1,0,0:0:0
184,216,8788,1,0,0:0:0
144,104,8994,1,0,0:0:0
56,184,9199,1,0,0:0:0
72,304,9405,5,0,0:0:0
184,328,9610,1,0,0:0:0
184,328,9816,1,0,0:0:0
304,328,10021,2,0,P|376:352|440:320,1,140
432,328,10535,1,0,0:0:0
432,328,10638,1,0,0:0:0
440,216,10843,1,0,0:0:0
440,96,11049,6,0,P|368:96,1,70
272,168,11459,2,0,P|344:168,1,70
256,88,11870,2,0,P|184:88,1,70
96,168,12281,2,0,P|168:168,1,70
160,288,12692,5,0,0:0:0
160,288,12795,1,0,0:0:0
160,288,12898,1,0,0:0:0
280,288,13103,1,0,0:0:0
280,288,13206,1,0,0:0:0
280,288,13309,2,0,P|424:288,2,140
392,80,14542,5,0,0:0:0
304,160,14747,1,0,0:0:0
216,80,14953,1,0,0:0:0
128,160,15158,1,0,0:0:0
128,160,15364,1,0,0:0:0
128,160,15569,1,0,0:0:0
80,272,15775,6,0,P|120:328|192:344,2,140
248,104,17007,2,0,P|320:104,2,70
128,104,17624,1,0,0:0:0
128,104,17829,6,0,P|80:160|88:224,1,140
184,288,18446,1,0,0:0:0
296,328,18651,1,0,0:0:0
360,232,18857,1,0,0:0:0
416,128,19062,1,0,0:0:0
312,72,19268,2,0,P|168:72,1,140
112,304,20090,5,0,0:0:0
112,304,20192,1,0,0:0:0
112,304,20295,1,0,0:0:0
400,80,20501,1,0,0:0:0
400,80,20603,1,0,0:0:0
400,80,20706,1,0,0:0:0
400,80,20809,1,0,0:0:0
400,80,20912,6,0,P|400:152,1,70
408,272,21322,1,0,0:0:0
304,328,21528,1,0,0:0:0
408,272,21733,1,0,0:0:0
304,328,21939,1,0,0:0:0
184,328,22144,1,0,0:0:0
184,328,22350,5,0,0:0:0
104,104,22761,1,0,0:0:0
344,104,23172,1,0,0:0:0
440,320,23583,1,0,0:0:0
480,208,23788,1,0,0:0:0
440,96,23994,1,0,0:0:0
440,96,24199,1,0,0:0:0
200,96,24610,5,0,0:0:0
88,136,24816,2,0,P|112:240|192:304,1,210
189,302,25638,1,0,0:0:0
304,304,25843,2,0,P|381:241|405:137,1,210
312,64,26665,1,0,0:0:0
312,64,26768,1,0,0:0:0
312,64,26870,1,0,0:0:0
192,64,27076,1,0,0:0:0
72,64,27281,1,0,0:0:0
72,64,27384,1,0,0:0:0
72,64,27487,6,0,P|72:136,1,70
168,208,27898,2,0,P|168:136,1,70
72,208,28309,2,0,P|72:288,1,70
168,352,28720,2,0,P|168:280,1,70
280,320,29131,5,0,0:0:0
376,248,29336,1,0,0:0:0
440,144,29542,1,0,0:0:0
440,24,29747,1,0,0:0:0
320,24,29953,2,0,P|248:24,1,70
192,128,30364,2,0,P|272:128,1,70
256,248,30775,5,0,0:0:0
256,248,30980,1,0,0:0:0
136,248,31186,1,0,0:0:0
136,248,31391,1,0,0:0:0
96,136,31596,2,0,P|64:72,1,70
184,72,32007,2,0,P|216:144,1,70
328,136,32418,5,0,0:0:0
416,216,32624,1,0,0:0:0
368,328,32829,1,0,0:0:0
248,336,33035,1,0,0:0:0
152,264,33240,1,0,0:0:0
72,176,33446,1,0,0:0:0
152,264,33651,1,0,0:0:0
72,176,33857,1,0,0:0:0
168,104,34062,6,0,P|240:104,1,70
328,184,34473,1,0,0:0:0
400,280,34679,1,0,0:0:0
288,320,34884,2,0,P|224:352,2,70
400,280,35501,1,0,0:0:0
400,160,35706,5,0,0:0:0
400,160,35912,1,0,0:0:0
400,40,36117,1,0,0:0:0
400,40,36322,1,0,0:0:0
280,40,36528,2,0,P|208:40,1,70
224,160,36939,2,0,P|152:160,1,70
256,192,37350,12,0,39816,0:0:0
72,312,40227,5,0,0:0:0
72,312,40329,1,0,0:0:0
72,312,40432,1,0,0:0:0
72,192,40638,2,0,P|120:96|280:64,1,280,2|2,0:0|0:0,0:0:0
480,184,41870,1,0,0:0:0
304,344,42281,2,0,P|192:272|176:136,1,280,2|2,0:0|0:0,0:0:0
176,136,43514,1,0,0:0:0
408,104,43925,6,0,P|448:192|408:296,1,210,2|2,0:0|0:0,0:0:0
192,192,44953,1,8,0:0:0
192,192,45158,1,8,0:0:0
410,293,45569,2,0,P|448:192|408:104,1,210,2|2,0:0|0:0,0:0:0
192,192,46596,1,8,0:0:0
192,192,46802,1,8,0:0:0
256,296,47007,1,0,0:0:0
256,296,47110,1,0,0:0:0
256,296,47213,6,0,P|392:272|448:144,1,280,2|2,0:0|0:0,0:0:0
232,56,48446,1,0,0:0:0
256,296,48857,2,0,P|120:272|63:153,1,280,2|2,0:0|0:0,0:0:0
256,296,50090,1,0,0:0:0
376,296,50295,1,0,0:0:0
376,296,50398,1,0,0:0:0
376,296,50501,5,0,0:0:0
376,56,50912,2,0,P|376:128,1,70
256,128,51322,2,0,P|256:56,1,70
136,56,51733,2,0,P|136:128,1,70
136,248,52144,1,0,0:0:0
248,296,52350,1,0,0:0:0
368,296,52555,1,0,0:0:0
480,248,52761,1,0,0:0:0
480,248,52966,1,0,0:0:0
376,56,53377,1,0,0:0:0
256,192,53788,12,0,56254,0:0:0
96,112,56870,5,8,0:0:0
96,112,56973,1,8,0:0:0
96,112,57076,2,0,P|96:184,1,70,0|0,0:0|0:0,0:0:0
184,256,57487,2,0,P|184:184,1,70,8|0,0:0|0:0,0:0:0
304,192,57898,1,0,0:0:0
304,192,58103,1,0,0:0:0
424,192,58309,1,8,0:0:0
424,192,58514,1,0,0:0:0
424,312,58720,6,0,P|352:312,1,70
256,240,59131,2,0,P|328:240,1,70,8|0,0:0|0:0,0:0:0
256,144,59542,2,0,P|184:144,1,70
96,64,59953,2,0,P|168:64,1,70,8|0,0:0|0:0,0:0:0
288,64,60364,5,0,0:0:0
488,192,60775,1,8,0:0:0
288,320,61185,1,0,0:0:0
168,296,61391,1,0,0:0:0
72,224,61596,1,8,0:0:0
40,112,61802,1,0,0:0:0
408,64,62213,1,0,0:0:0
408,64,62418,1,8,0:0:0
392,304,62829,6,0,P|320:304,1,70
322,304,63240,1,8,0:0:0
200,304,63446,2,0,P|104:256|56:160,1,210,0|8,0:0|0:0,0:0:0
57,168,64268,1,0,0:0:0
272,72,64679,1,0,0:0:0
432,208,64884,1,8,0:0:0
272,328,65090,1,0,0:0:0
272,72,65501,1,0,0:0:0
272,72,65706,1,8,0:0:0
112,248,66117,5,0,0:0:0
112,248,66322,1,0,0:0:0
200,328,66528,1,8,0:0:0
200,328,66733,1,0,0:0:0
320,328,66939,2,0,P|376:296|400:216,1,140,0|8,0:0|0:0,0:0:0
408,112,67555,1,0,0:0:0
288,104,67761,2,0,P|224:88|144:112,1,140,0|8,0:0|0:0,0:0:0
153,106,68377,1,0,0:0:0
152,224,68583,5,0,0:0:0
152,224,68994,1,8,0:0:0
416,320,69405,1,0,0:0:0
456,184,69610,1,0,0:0:0
360,88,69816,1,8,0:0:0
224,88,70021,1,0,0:0:0
224,88,70124,1,0,0:0:0
224,88,70227,5,0,0:0:0
144,312,70638,2,8,P|216:312,1,70,8|0,0:0|0:0,0:0:0
304,232,71049,2,0,P|234:232,1,70
344,144,71459,2,0,P|414:144,1,70,8|0,0:0|0:0,0:0:0
424,264,71870,6,0,P|368:312,2,70,0|0|8,0:0|0:0|0:0,0:0:0
424,264,72487,1,0,0:0:0
296,64,72898,1,0,0:0:0
176,64,73103,1,8,0:0:0
88,144,73309,1,0,0:0:0
64,264,73514,5,0,0:0:0
296,304,73925,1,8,0:0:0
472,144,74336,1,0,0:0:0
296,304,74747,1,8,0:0:0
344,72,75158,5,0,0:0:0
296,304,75569,1,8,0:0:0
160,304,75980,1,0,0:0:0
136,280,76083,1,0,0:0:0
112,256,76185,1,0,0:0:0
104,224,76288,1,0,0:0:0
96,192,76391,1,8,0:0:0
96,160,76494,1,0,0:0:0
104,128,76596,1,0,0:0:0
128,96,76699,1,0,0:0:0
152,64,76802,1,0,0:0:0
224,64,77007,5,0,0:0:0
224,64,77110,1,0,0:0:0
224,64,77213,1,8,0:0:0
384,144,77418,1,0,0:0:0
384,144,77521,1,0,0:0:0
384,144,77624,1,0,0:0:0
320,304,77829,1,0,0:0:0
320,304,77932,1,0,0:0:0
320,304,78035,1,8,0:0:0
208,328,78240,1,0,0:0:0
224,64,78651,5,0,0:0:0
224,64,78857,1,8,0:0:0
344,64,79062,1,0,0:0:0
344,64,79268,1,0,0:0:0
448,272,79679,5,8,0:0:0
320,352,79884,1,0,0:0:0
320,192,80090,1,0,0:0:0
64,112,80501,5,8,0:0:0
192,32,80706,1,0,0:0:0
192,192,80912,1,0,0:0:0
456,104,81322,1,8,0:0:0
448,248,81528,2,0,P|392:328|280:344,1,210,0|8,0:0|0:0,0:0:0
286,345,82350,1,0,0:0:0
48,192,82761,1,0,0:0:0
160,104,82966,1,8,0:0:0
192,104,83069,1,0,0:0:0
224,104,83172,1,0,0:0:0
256,104,83275,1,0,0:0:0
288,104,83377,1,0,0:0:0
256,192,83583,12,0,86665,0:0:0
392,328,87281,5,0,0:0:0
128,328,87898,1,0,0:0:0
128,112,88514,1,0,0:0:0
128,144,88566,1,0,0:0:0
392,112,89130,1,0,0:0:0
392,144,89182,1,0,0:0:0
256,192,89542,1,0,0:0:0
