osu file format v11

[General]
AudioFilename: OP - YouTube.mp3
AudioLeadIn: 0
PreviewTime: 56268
Countdown: 0
SampleSet: Normal
StackLeniency: 0.7
Mode: 0
LetterboxInBreaks: 0

[Editor]
DistanceSpacing: 1.5
BeatDivisor: 4
GridSize: 8

[Metadata]
Title:Mikansei Stride (TV Size)
TitleUnicode:未完成ストライド
Artist:Kodama Saori
ArtistUnicode:Kodama Saori
Creator:tirigami
Version:Hard
Source:Hyouka
Tags:
BeatmapID:199255
BeatmapSetID:68984

[Difficulty]
HPDrainRate:6
CircleSize:4
OverallDifficulty:6
ApproachRate:7
SliderMultiplier:1.4
SliderTickRate:1

[Events]
//Background and Video events
0,0,"hyouka[1].jpg"
//Break Periods
//Storyboard Layer 0 (Background)
//Storyboard Layer 1 (Fail)
//Storyboard Layer 2 (Pass)
//Storyboard Layer 3 (Foreground)
//Storyboard Sound Samples
//Background Colour Transformations
3,100,163,162,255

[TimingPoints]
1186,410.958904109589,4,1,0,60,1,0
57090,-100,4,1,0,80,0,1
83391,-100,4,1,0,80,0,0

[Colours]
Combo1 : 255,255,0
Combo2 : 128,255,128
Combo3 : 0,0,255
Combo4 : 255,0,255

[HitObjects]
160,112,1186,1,0,0:0:0
160,112,1392,1,0,0:0:0
160,112,1597,1,0,0:0:0
352,272,2213,1,0,0:0:0
352,272,2419,1,0,0:0:0
352,272,2624,1,0,0:0:0
352,112,4473,5,0,0:0:0
352,112,4679,1,0,0:0:0
352,112,4884,1,0,0:0:0
168,272,5501,1,0,0:0:0
168,272,5707,1,0,0:0:0
168,272,5912,1,0,0:0:0
256,192,6322,2,0,P|256:272,1,70,0|8,0:0|0:0,0:0:0
168,112,6939,2,0,P|136:80,2,35
352,272,7350,2,0,P|384:304,2,35
416,192,7761,5,0,0:0:0
377,98,7966,2,0,P|436:47,2,70
273,73,8583,2,0,P|326:149,1,70
208,128,8994,2,0,P|154:57,1,70
92,147,9405,1,0,0:0:0
96,251,9610,1,0,0:0:0
92,145,9816,1,0,0:0:0
96,251,10021,2,0,P|124:315|192:332,1,140
292,333,10638,1,0,0:0:0
292,333,10843,1,0,0:0:0
397,332,11049,6,0,P|449:281,1,70
456,178,11459,2,0,P|455:108,1,70
357,68,11870,1,0,0:0:0
251,68,12076,1,0,0:0:0
357,68,12281,1,0,0:0:0
251,68,12487,1,0,0:0:0
146,68,12692,5,0,0:0:0
146,68,12795,1,0,0:0:0
146,68,12898,1,0,0:0:0
75,145,13103,1,0,0:0:0
75,145,13206,1,0,0:0:0
75,145,13309,2,0,P|98:219|155:262,1,140
249,267,13925,1,0,0:0:0
249,267,14131,1,0,0:0:0
312,184,14336,6,0,P|383:236,1,70
459,175,14747,2,0,P|400:130,1,70
322,65,15158,1,0,0:0:0
322,65,15364,1,0,0:0:0
217,63,15569,1,0,0:0:0
217,63,15775,2,0,P|73:63,2,140
357,218,17007,1,0,0:0:0
422,300,17213,1,0,0:0:0
357,218,17418,1,0,0:0:0
144,208,17829,5,0,0:0:0
148,111,18035,2,0,P|220:87|284:111,1,140
236,207,18651,2,0,P|260:263|236:335,1,140
44,247,19473,1,0,0:0:0
44,143,19679,1,0,0:0:0
44,247,19884,1,0,0:0:0
140,207,20090,1,0,0:0:0
240,168,20295,1,0,0:0:0
332,119,20501,1,0,0:0:0
428,79,20706,5,0,0:0:0
428,79,20809,1,0,0:0:0
428,79,20912,2,0,P|452:151|460:215,1,140
388,287,21528,2,0,P|324:327,2,70
300,231,22144,1,0,0:0:0
356,143,22350,1,0,0:0:0
164,63,22761,1,0,0:0:0
68,247,23172,1,0,0:0:0
268,311,23583,2,0,P|308:335|356:335,2,70
68,63,24610,5,0,0:0:0
172,63,24816,2,0,P|276:95|372:63,1,210
369,64,25638,1,0,0:0:0
444,311,27281,5,0,0:0:0
444,311,27384,1,0,0:0:0
444,311,27487,1,0,0:0:0
444,207,27692,1,0,0:0:0
260,311,28103,1,0,0:0:0
260,207,28309,1,0,0:0:0
260,207,28412,1,0,0:0:0
260,207,28514,1,0,0:0:0
148,207,28720,1,0,0:0:0
44,207,28925,2,0,P|4:143|44:103,1,140
132,55,29542,1,0,0:0:0
236,55,29747,1,0,0:0:0
132,55,29953,1,0,0:0:0
236,55,30158,1,0,0:0:0
340,55,30364,1,0,0:0:0
412,127,30569,5,0,0:0:0
412,127,30672,1,0,0:0:0
412,127,30775,2,0,P|452:191|452:263,1,140
364,311,31391,1,0,0:0:0
260,311,31596,2,0,P|188:311,2,70
364,311,32213,1,0,0:0:0
364,103,32624,1,0,0:0:0
160,48,33035,1,0,0:0:0
80,120,33240,2,0,P|32:64,2,70
80,240,33857,5,0,0:0:0
80,240,33959,1,0,0:0:0
80,240,34062,1,0,0:0:0
80,344,34268,1,0,0:0:0
264,248,34679,1,0,0:0:0
264,248,34781,1,0,0:0:0
264,248,34884,1,0,0:0:0
352,192,35090,1,0,0:0:0
432,248,35295,1,0,0:0:0
352,320,35501,2,0,P|256:360|160:312,1,210
165,318,36322,1,0,0:0:0
416,320,37144,5,0,0:0:0
416,320,37247,1,0,0:0:0
416,320,37350,1,0,0:0:0
328,128,37761,1,0,0:0:0
224,128,37966,1,0,0:0:0
280,216,38172,1,0,0:0:0
176,216,38377,1,0,0:0:0
240,304,38583,1,0,0:0:0
136,304,38788,2,0,P|56:224|56:128,1,210
256,72,39816,5,0,0:0:0
440,192,40021,1,0,0:0:0
312,344,40227,1,0,0:0:0
208,344,40432,5,0,0:0:0
208,344,40535,1,0,0:0:0
208,344,40638,2,0,P|144:320|112:256,2,140
312,344,41665,1,0,0:0:0
392,280,41870,1,0,0:0:0
456,200,42076,1,0,0:0:0
456,200,42281,2,0,P|392:88|256:40,1,280
152,40,43309,1,0,0:0:0
80,112,43514,1,0,0:0:0
176,152,43720,5,0,0:0:0
176,152,43822,1,0,0:0:0
176,152,43925,2,0,P|88:208|64:312,2,210,2|2|2,0:0|0:0|0:0,0:0:0
336,152,45569,2,0,P|424:208|448:312,2,210,2|2|2,0:0|0:0|0:0,0:0:0
136,232,47213,2,0,P|176:320|288:352,2,210,2|2|2,0:0|0:0|0:0,0:0:0
216,160,48651,1,0,0:0:0
288,88,48857,2,0,P|384:48|480:88,2,210,2|2|2,0:0|0:0|0:0,0:0:0
144,264,50295,5,0,0:0:0
144,264,50398,1,0,0:0:0
144,264,50501,2,0,P|224:320|304:256,1,210
424,88,51528,1,0,0:0:0
224,24,51939,1,0,0:0:0
48,280,52555,2,0,P|168:360,2,140
256,192,53788,12,0,55432,0:0:0
256,192,55843,5,0,0:0:0
368,56,56254,5,0,0:0:0
440,136,56459,1,0,0:0:0
368,56,56665,1,0,0:0:0
440,136,56870,1,0,0:0:0
440,136,56973,1,0,0:0:0
440,136,57076,2,8,P|464:200|432:272,1,140,0|8,0:0|0:0,0:0:0
344,304,57692,1,0,0:0:0
240,336,57898,2,0,P|160:368,2,70,0|0|8,0:0|0:0|0:0,0:0:0
344,304,58514,1,0,0:0:0
136,304,58925,1,0,0:0:0
136,304,59131,1,8,0:0:0
408,144,59542,5,0,0:0:0
408,144,59644,1,0,0:0:0
408,144,59747,1,0,0:0:0
344,64,59953,1,8,0:0:0
344,64,60055,1,0,0:0:0
344,64,60158,2,0,P|288:32|208:32,1,140
112,64,60775,1,8,0:0:0
32,136,60980,2,0,P|32:216,1,70
88,296,61391,2,0,P|160:296,1,70,0|8,0:0|0:0,0:0:0
264,296,61802,1,0,0:0:0
440,176,62213,1,0,0:0:0
440,176,62418,1,8,0:0:0
256,88,62829,5,0,0:0:0
184,160,63035,1,0,0:0:0
256,88,63240,1,8,0:0:0
360,88,63446,1,0,0:0:0
360,88,63549,1,0,0:0:0
360,88,63651,2,0,P|424:112|440:176,1,140,0|8,0:0|0:0,0:0:0
384,264,64268,1,0,0:0:0
288,312,64473,2,0,P|216:360,2,70,0|0|8,0:0|0:0|0:0,0:0:0
384,264,65090,1,0,0:0:0
304,72,65501,1,0,0:0:0
304,72,65706,1,8,0:0:0
48,256,66117,5,0,0:0:0
120,336,66322,1,0,0:0:0
48,256,66528,1,8,0:0:0
120,336,66733,1,0,0:0:0
176,248,66939,2,0,P|184:184|264:160,1,140,0|8,0:0|0:0,0:0:0
272,256,67555,1,0,0:0:0
368,264,67761,2,0,P|352:344|280:352,1,140,0|8,0:0|0:0,0:0:0
304,360,68377,1,0,0:0:0
256,192,68583,12,8,69816,0:0:0
80,80,70021,5,0,0:0:0
80,80,70124,1,0,0:0:0
80,80,70227,2,0,P|40:128|40:216,1,140,0|8,0:0|0:0,0:0:0
120,264,70843,2,0,P|192:328|304:320,2,210,0|8|0,0:0|0:0|0:0,0:0:0
120,264,72281,1,8,0:0:0
120,160,72487,1,0,0:0:0
320,104,72898,1,0,0:0:0
408,160,73103,1,8,0:0:0
320,104,73309,1,0,0:0:0
216,72,73514,6,0,P|160:40|96:80,1,140,0|8,0:0|0:0,0:0:0
160,160,74131,2,0,P|104:192|40:152,1,140
43,158,74747,1,8,0:0:0
72,264,74953,1,0,0:0:0
160,320,75158,1,0,0:0:0
72,264,75364,1,0,0:0:0
160,320,75569,1,8,0:0:0
368,320,75980,5,0,0:0:0
384,304,76083,1,0,0:0:0
400,288,76185,1,0,0:0:0
408,272,76288,1,0,0:0:0
416,256,76391,1,8,0:0:0
420,240,76494,1,0,0:0:0
424,224,76596,1,0,0:0:0
424,208,76699,1,0,0:0:0
424,192,76802,5,0,0:0:0
424,88,77110,1,0,0:0:0
424,88,77213,1,8,0:0:0
320,88,77521,1,0,0:0:0
320,88,77624,1,0,0:0:0
216,88,77932,1,0,0:0:0
216,88,78035,1,8,0:0:0
216,88,78240,1,0,0:0:0
80,88,78651,2,0,P|24:136,2,70,0|8|0,0:0|0:0|0:0,0:0:0
80,88,79268,1,0,0:0:0
80,88,79679,5,8,0:0:0
152,160,79884,1,0,0:0:0
80,232,80090,1,0,0:0:0
448,296,80501,5,8,0:0:0
336,296,80706,1,0,0:0:0
392,208,80912,1,0,0:0:0
240,64,81322,5,8,0:0:0
344,64,81528,2,8,P|440:88|480:184,2,210,0|8|0,0:0|0:0|0:0,0:0:0
240,64,82966,1,8,0:0:0
240,64,83172,1,0,0:0:0
256,192,83377,12,0,86665,0:0:0
416,288,87281,5,2,0:0:0
104,288,87898,1,2,0:0:0
256,192,88514,1,2,0:0:0
256,192,89131,1,2,0:0:0
256,192,89542,1,2,0:0:0
