osu file format v9

[General]
AudioFilename: Saori Kodama - Mikansei Stride (TV Size).mp3
AudioLeadIn: 2000
PreviewTime: 55506
Countdown: 0
SampleSet: Soft
StackLeniency: 0.7
Mode: 0
LetterboxInBreaks: 0

[Editor]
DistanceSpacing: 1
BeatDivisor: 4
GridSize: 4

[Metadata]
Title:Mikansei Stride (TV Size)
Artist:Kodama Saori
Creator:Genkishi
Version:Normal
Source:Hyouka
Tags:opening 2 mint_ong89

[Difficulty]
HPDrainRate:3
CircleSize:3
OverallDifficulty:3
ApproachRate:4
SliderMultiplier:1.2
SliderTickRate:2

[Events]
//Background and Video events
0,0,"BG.jpg"
Video,0,"Hyouka OP 2.avi"
//Break Periods
//Storyboard Layer 0 (Background)
//Storyboard Layer 1 (Fail)
//Storyboard Layer 2 (Pass)
//Storyboard Layer 3 (Foreground)
//Storyboard Sound Samples
//Background Colour Transformations
3,100,163,162,255

[TimingPoints]
1109,410.958904109589,4,2,1,80,1,0
14259,-100,4,2,1,60,0,0
56999,-100,4,2,1,80,0,1
63472,-100,4,2,1,80,0,0
63574,-100,4,2,1,80,0,1
83300,-100,4,2,1,80,0,0
86588,-100,4,2,1,60,0,0

[Colours]
Combo1 : 128,128,192
Combo2 : 128,255,128
Combo3 : 255,128,64
Combo4 : 128,255,255

[HitObjects]
256,64,1109,1,2
176,156,1519,2,0,B|212:200|304:200|336:156,1,180,2|2
256,64,2547,1,2
256,320,4396,5,2
336,228,4807,2,0,B|300:184|208:184|176:228,1,180,2|2
256,320,5835,1,2
76,320,6451,6,0,B|48:264|68:200,1,120,4|8
144,112,7273,1,10
256,64,7684,5,4
368,112,8095,1,8
444,203,8506,2,0,B|464:264|436:320,1,120,2|8
340,248,9328,2,0,B|256:280|160:248,1,180,2|2
56,104,10561,1,8
160,48,10972,6,0,B|280:48,1,120,2|8
360,136,11793,2,0,B|416:96|408:28,2,120,2|8|2
256,196,13026,1,8
152,136,13437,2,0,B|96:96|104:28,2,120,0|8|2
256,196,14670,5,0
340,280,15081,2,0,B|400:224|404:124|340:56,1,240,2|2
256,144,16314,1,0
166,62,16725,2,0,B|108:124|112:224|172:280,1,240,2|2
288,304,17958,6,0,B|276:240|220:200,1,120,0|2
328,140,18780,2,0,B|377:104|389:40,2,120,0|2|0
256,44,20013,1,2
64,184,20835,6,0,B|48:216|48:244,2,60,2|0|0
160,256,21656,2,0,B|208:300|280:284,1,120,2|0
391,285,22478,2,0,B|446:250|448:185,1,120,2|0
368,96,23300,1,2
256,140,23711,2,0,B|220:164|196:164,2,60,0|0|2
324,240,24533,6,0,B|256:300|152:268|96:332,2,240,0|2|2
256,140,26588,1,0
152,80,26999,2,0,B|120:144|152:196,1,120,8|4
256,140,27821,6,0,B|288:204|256:256,1,120,8|0
144,296,28643,1,8
256,340,29054,1,0
368,296,29465,1,8
348,176,29876,2,0,B|400:152|468:152,2,120,0|8|0
256,100,31109,5,8
164,176,31519,2,0,B|112:152|44:152,1,120,0|8
76,268,32341,2,0,B|128:292|204:292,1,120,0|8
300,240,33163,2,0,B|308:208|296:172,2,60,0|0|8
384,324,33985,5,2
472,244,34396,1,8
408,144,34807,2,0,B|464:40,2,120,0|8|0
316,68,36040,1,8
196,68,36451,1,0
100,144,36862,6,0,B|72:88,2,60,8|0|0
92,264,37684,2,0,B|136:320|208:300,1,120,8|0
320,300,38506,2,0,B|382:317|426:261,1,120,8|0
256,92,39739,5,2
160,164,40150,1,8
256,236,40561,2,0,B|308:280|392:272|440:208|420:136,2,240,6|8|2
84,68,43026,5,2
40,180,43437,1,8
56,300,43848,2,0,B|116:328|184:292,1,120,2|0
256,212,44670,2,0,B|256:332,2,120,0|8|0
316,108,45903,1,2
400,192,46314,5,0
316,108,46725,1,8
196,108,47136,2,0,B|129:92|85:128|85:128|29:64,2,180,2|0|8
316,108,48780,2,0,B|383:92|427:128|427:128|483:64,2,180,2|0|8
256,220,50424,5,4
360,280,50835,1,8
256,340,51245,1,0
152,280,51656,1,8
148,160,52067,2,0,B|208:109|312:109|376:165,2,240,2|8|0
256,216,54122,6,0,B|256:340,1,120,8|0
152,272,54944,2,0,B|44:196,2,120,8|0|8
256,216,56177,1,8
360,272,56588,2,8,B|468:196,1,120,8|4
424,88,57410,5,8
316,40,57821,2,0,B|192:40,1,120,2|8
84,88,58643,2,0,B|116:144|88:212,1,120,2|8
212,192,59465,2,0,B|187:251|219:307,1,120,2|8
339,307,60287,6,0,B|403:267|440:184|415:91,1,240,2|2
296,96,61519,1,8
184,136,61930,2,0,B|137:92|137:24,2,120,2|8|2
184,256,63163,6,0,B|137:300|137:368,1,120,8|4
256,336,63985,1,8
328,256,64396,2,0,B|375:300|375:368,2,120,2|8|2
368,140,65629,2,0,B|256:188|128:140,1,240,8|8
32,204,66862,6,0,B|68:320,1,120,2|8
156,236,67684,2,0,B|256:304,1,120,2|8
372,332,68506,2,0,B|444:232|392:104,1,240,2|8
272,84,69739,6,0,B|296:52|316:44,2,60,8|0|4
256,204,70561,1,8
160,276,70972,1,2
64,204,71382,2,0,B|64:80,1,120,8|2
160,156,72204,2,0,B|160:276,1,120,8|2
256,204,73026,5,8
352,276,73437,2,0,B|352:156,1,120,2|8
448,84,74259,2,0,B|448:204,2,120,2|8|2
328,60,75492,2,0,B|272:88|212:60,1,120,8|2
92,60,76314,2,0,B|120:116|92:176,1,120,8|4
56,292,77136,6,0,B|136:260|200:352|304:312,2,240,8|8|8
56,172,79191,1,2
140,84,79602,1,8
256,60,80013,2,0,B|316:40|376:60,2,120,0|8|0
256,176,81245,1,8
153,236,81656,2,0,B|177:284|256:306|337:284|363:232,2,240,0|0|4
256,80,83917,5,4
396,192,84533,1,4
256,304,85150,1,4
108,200,85766,2,0,B|72:144|88:72,2,120,4|4|4
256,192,86793,12,4,89465
