osu file format v9

[General]
AudioFilename: Saori Kodama - Mikansei Stride (TV Size).mp3
AudioLeadIn: 2000
PreviewTime: 55506
Countdown: 0
SampleSet: Soft
StackLeniency: 0.7
Mode: 0
LetterboxInBreaks: 0

[Editor]
DistanceSpacing: 1.2
BeatDivisor: 4
GridSize: 4

[Metadata]
Title:Mikansei Stride (TV Size)
Artist:Kodama Saori
Creator:Genkishi
Version:Hard
Source:Hyouka
Tags:opening 2 mint_ong89

[Difficulty]
HPDrainRate:6
CircleSize:4
OverallDifficulty:6
ApproachRate:7
SliderMultiplier:1.4
SliderTickRate:2

[Events]
//Background and Video events
0,0,"BG.jpg"
Video,0,"Hyouka OP 2.avi"
//Break Periods
//Storyboard Layer 0 (Background)
//Storyboard Layer 1 (Fail)
//Storyboard Layer 2 (Pass)
//Storyboard Layer 3 (Foreground)
//Storyboard Sound Samples
//Background Colour Transformations
3,100,163,162,255

[TimingPoints]
1109,410.958904109589,4,2,1,80,1,0
14259,-100,4,2,1,60,0,0
40561,-133.333333333333,4,2,1,60,0,0
56999,-100,4,2,1,80,0,1
63472,-100,4,2,1,80,0,0
63574,-100,4,2,1,80,0,1
83300,-100,4,2,1,80,0,0
86588,-100,4,2,1,60,0,0

[Colours]
Combo1 : 128,128,192
Combo2 : 128,255,128
Combo3 : 255,128,64
Combo4 : 128,255,255

[HitObjects]
376,48,1109,2,0,B|344:80|344:128,1,70,2|0
416,156,1519,2,0,B|400:224|332:268,1,140,2|0
256,296,2136,2,0,B|224:264|224:216,2,70,2|0|2
136,48,4396,6,0,B|168:80|168:128,1,70,2|0
96,156,4807,2,0,B|112:224|180:268,1,140,2|0
256,296,5424,2,0,B|288:264|288:216,2,70,2|0|2
400,92,6451,5,4
452,252,6862,2,0,B|440:304,2,35,8|0|0
368,256,7273,2,0,B|352:208,2,35,8|0|0
300,304,7684,6,0,B|228:324|152:292,1,140,4|8
32,192,8506,2,0,B|38:169|74:137,1,70,2|0
144,184,8917,2,0,B|208:168|276:116,1,140,8|2
340,76,9533,5,0
408,124,9739,1,8
456,196,9944,2,0,B|392:212|324:264,1,140,2|0
256,292,10561,1,8
176,268,10766,6,0,B|168:292|184:316,2,35,0|0|2
256,292,11177,2,0,B|276:256|252:216,1,70,0|8
184,180,11588,2,0,B|116:140,1,70,0|2
156,68,11999,2,0,B|224:108,2,70,0|8|0
256,192,12615,12,4,14259
48,296,14670,6,0,B|120:328|196:288,1,140,2|0
256,144,15492,2,0,B|316:128|316:128|336:96|380:84,1,140,2|0
396,168,16109,1,0
432,244,16314,2,0,B|372:260|372:260|352:292|308:304,1,140,2|0
256,236,16930,1,2
204,304,17136,1,0
132,264,17341,2,0,B|80:208|120:140|120:140|44:104,1,210,2|2
204,36,18369,5,0
256,100,18574,1,0
308,36,18780,1,2
460,107,19191,2,0,B|392:140|392:140|432:208|380:264,2,210,2|2|0
320,200,20835,6,0,B|288:224|252:228,1,70,2|0
172,216,21245,2,0,B|177:255|200:283,2,70,2|0|2
92,188,21862,1,0
152,132,22067,1,2
236,124,22273,6,0,B|304:100|352:32,2,140,0|2|0
256,208,23300,1,2
244,292,23506,2,0,B|216:328|180:340,2,70,0|0|2
388,204,24328,5,0
388,204,24533,1,2
320,156,24739,1,0
256,208,24944,1,0
192,156,25150,1,0
124,204,25355,1,2
152,284,25561,6,0,B|212:312|304:312|372:276,2,210,0|2|0
124,204,26999,1,8
56,156,27204,5,8
56,156,27307,1,0
56,156,27410,1,4
76,76,27615,2,0,B|116:92|136:136,1,70,0|8
124,204,28026,6,0,B|136:232|176:248,1,70,0|0
256,276,28437,2,0,B|256:200,1,70,0|8
335,248,28848,2,0,B|375:232|388:204,1,70
383,120,29259,2,0,B|396:92|436:76,2,70,0|8|0
215,120,30081,5,0
131,120,30287,2,0,B|76:168|56:248,1,140,8|0
100,308,30903,1,0
183,308,31109,2,0,B|199:353|245:364,2,70,8|0|0
256,264,31725,1,0
308,204,31930,1,8
364,268,32136,6,0,B|424:240|456:164,1,140
372,144,32752,2,0,B|312:116|280:40,1,140,8|0
196,56,33369,1,0
124,100,33574,2,0,B|72:148|76:236,1,140,8|0
28,296,34191,6,0,B|64:320|104:300,1,70,0|8
168,340,34602,2,0,B|192:308|172:264,1,70
152,192,35013,2,0,B|190:180|232:204,1,70,0|8
276,260,35424,6,0,B|348:256|412:208,1,140
405,127,36040,1,8
405,127,36245,2,0,B|347:83|275:79,1,140
200,120,36862,2,0,B|164:144|132:148,1,70,8|0
56,124,37273,6,0,B|16:192|52:272,1,140,0|8
120,300,37889,2,0,B|196:284|257:309,1,140
340,292,38506,1,8
340,292,38711,2,0,B|316:220|336:144,1,140
256,120,39328,1,8
176,144,39533,1,0
96,124,39739,6,0,B|60:88,2,35,2|0|0
108,208,40150,2,0,B|104:256,2,35,8|8|0
176,144,40561,6,0,B|216:88|328:92|364:28,1,210.000008010865,6|8
424,68,41588,1,0
444,140,41793,1,0
424,212,41999,6,0,B|376:272|284:300,1,157.500006008148,2|8
220,296,42821,1,0
220,296,43026,6,0,B|137:271|89:211,2,157.500006008148,0|8|0
256,232,44465,2,0,B|256:64,1,157.500006008148,2|8
184,52,45287,2,0,B|184:224,1,157.500006008148,0|8
184,283,46108,1,0
256,304,46314,1,0
324,276,46519,6,0,B|400:252|452:176,1,157.500006008148,0|2
343,78,47547,2,0,B|284:84,1,52.5000020027161,0|2
220,96,47958,2,0,B|164:152|80:168,1,157.500006008148,8|0
82,240,48780,2,0,B|138:296|222:312,1,157.500006008148,2|0
256,248,49602,2,0,B|256:176,2,52.5000020027161,0|0|8
292,311,50218,6,0,B|374:296|430:240,1,157.500006008148,2|8
380,184,51040,2,0,B|364:102|308:46,1,157.500006008148,2|8
204,46,51862,2,0,B|148:102|132:184,1,157.500006008148,2|8
116,260,52684,1,0
116,260,52889,6,0,B|168:288|180:340,1,105.000004005432,0|8
328,340,53711,2,0,B|340:288|392:260,1,105.000004005432,0|8
256,200,54533,2,0,B|256:88,1,105.000004005432,0|8
256,96,55355,1,2
152,199,55766,2,0,B|72:120,2,105.000004005432,4|8|8
256,332,56999,6,0,B|304:280|304:280|348:296|392:272,1,140,4|8
371,112,57821,2,0,B|347:96|303:112|303:112|255:60,2,140,2|8|2
340,192,58848,1,0
256,208,59054,2,0,B|184:224|100:208,1,140,8|2
32,210,59670,6,0,B|32:168|76:136,1,70,0|8
144,140,60081,2,0,B|172:120|172:78,1,70,0|2
256,56,60492,1,0
256,56,60698,2,0,B|328:88|396:52,1,140,8|2
451,114,61314,6,0,B|472:200,1,70,0|8
384,196,61725,2,0,B|384:284,1,70,0|2
300,272,62136,2,0,B|265:342,1,70,0|8
112,276,62752,2,0,B|136:316,2,35,8|0|0
52,216,63163,1,8
76,136,63369,1,8
152,100,63574,6,0,B|188:128|236:96|236:96|284:124,1,140,4|8
424,204,64396,2,0,B|440:248|420:288|420:288|448:336,1,140,2|8
360,344,65013,1,0
288,296,65218,2,0,B|216:328|140:289,1,140,2|8
88,140,66040,6,0,B|48:164|36:216,2,70,2|0|8
156,88,66656,2,0,B|304:88,1,140
332,164,67273,1,8
332,164,67478,2,0,B|180:164,2,140
416,184,68506,5,2
444,264,68711,1,0
380,320,68917,2,0,B|316:292|240:320,1,140,8|8
160,340,69533,1,8
92,292,69739,1,8
72,208,69944,1,8
116,136,70150,6,0,B|260:96,1,140,4|8
396,248,70972,2,0,B|252:288,1,140,2|8
180,308,71588,2,0,B|128:252|144:176,1,140
228,192,72204,2,0,B|280:136|264:60,1,140,8|2
179,62,72821,1,0
95,62,73026,1,8
120,144,73232,6,0,B|104:184|72:204,1,70,0|2
32,268,73643,2,0,B|57:283|73:323,1,70,0|8
156,323,74054,2,0,B|220:287|224:204,1,140,2|0
308,207,74670,2,0,B|311:286|375:322,1,140,8|2
459,322,75287,1,0
459,237,75492,6,0,B|460:88,1,140,8|2
384,56,76108,1,0
300,36,76314,1,8
215,56,76519,1,0
144,104,76725,6,0,B|88:148|88:148|104:184|84:224,1,140,4|8
256,188,77547,2,0,B|256:332,1,140,2|8
423,214,78369,2,0,B|408:184|424:148|424:148|368:104,1,140,2|8
300,52,78985,2,0,B|232:20|156:52,1,140,2|0
96,96,79602,5,8
96,96,79807,2,0,B|128:168|88:260,1,140,2|0
36,288,80424,2,0,B|72:320|112:320,1,70,8|0
256,124,81245,5,8
320,180,81451,1,0
400,148,81656,2,0,B|448:208|448:208|436:280,2,140,0|8|2
256,64,82889,1,8
192,120,83095,1,0
112,148,83300,6,0,B|64:208|64:208|76:280,2,140,4|8|2
256,64,84533,1,4
256,316,85150,1,4
168,80,85766,5,4
256,64,85972,1,0
256,64,86074,1,0
256,64,86177,1,8
344,80,86382,1,0
344,80,86485,1,0
344,80,86588,1,4
256,192,86793,12,4,89465
