osu file format v14

[General]
AudioFilename: Mikansei Stride - Saori Kodama.mp3
AudioLeadIn: 0
PreviewTime: 62683
Countdown: 0
SampleSet: Normal
StackLeniency: 0.7
Mode: 3
LetterboxInBreaks: 0
SpecialStyle: 0
WidescreenStoryboard: 1

[Editor]
DistanceSpacing: 1
BeatDivisor: 8
GridSize: 32
TimelineZoom: 1.999999

[Metadata]
Title:Mikansei Stride
TitleUnicode:未完成ストライド
Artist:Kodama Saori
ArtistUnicode:Kodama Saori
Creator:Jaya Umbara
Version:MX
Source:Hyouka
Tags:ending full -Troke-
BeatmapID:662321
BeatmapSetID:294608

[Difficulty]
HPDrainRate:9
CircleSize:4
OverallDifficulty:10
ApproachRate:5
SliderMultiplier:1.4
SliderTickRate:1

[Events]
//Background and Video events
0,0,"BG.jpg",0,0
//Break Periods
//Storyboard Layer 0 (Background)
//Storyboard Layer 1 (Fail)
//Storyboard Layer 2 (Pass)
//Storyboard Layer 3 (Foreground)
//Storyboard Sound Samples

[TimingPoints]
1142,410.958904109589,4,3,1,20,1,0
47169,-133.333333333333,4,1,1,20,0,0
57032,-100,4,1,1,20,0,0
61963,-50,4,1,1,20,0,0
62272,-1000,4,1,1,20,0,0
62374,-100,4,1,1,20,0,0
63607,-90.9090909090909,4,1,1,20,0,1
76142,-66.6666666666667,4,1,1,20,0,1
76244,-133.333333333333,4,1,1,20,0,1
76347,-100,4,1,1,20,0,1
76758,-100,4,1,1,20,0,1
92374,-133.333333333333,4,1,1,20,0,1
92683,-66.6666666666667,4,1,1,20,0,1
92785,-100,4,1,1,20,0,0
134909,-133.333333333333,4,1,1,20,0,0
135422,-66.6666666666667,4,1,1,20,0,0
135525,-100,4,1,1,20,0,0
135936,-90.9090909090909,4,1,1,20,0,1
148470,-66.6666666666667,4,1,1,20,0,1
148573,-133.333333333333,4,1,1,20,0,1
148676,-90.9090909090909,4,1,1,20,0,1
162237,-100,4,1,1,20,0,0
188539,-66.6666666666667,4,1,1,20,0,0
188847,-133.333333333333,4,1,1,20,0,0
188950,-57.1428571428571,4,1,1,20,0,0
189052,-133.333333333333,4,1,1,20,0,0
189155,-66.6666666666667,4,1,1,20,0,0
189463,-133.333333333333,4,1,1,20,0,0
189566,-66.6666666666667,4,1,1,20,0,0
189669,-133.333333333333,4,1,1,20,0,0
189772,-66.6666666666667,4,1,1,20,0,0
190080,-133.333333333333,4,1,1,20,0,0
190183,-66.6666666666667,4,1,1,20,0,0
190285,-133.333333333333,4,1,1,20,0,0
190388,-66.6666666666667,4,1,1,20,0,0
190696,-133.333333333333,4,1,1,20,0,0
190799,-66.6666666666667,4,1,1,20,0,0
190902,-133.333333333333,4,1,1,20,0,0
191005,-66.6666666666667,4,1,1,20,0,0
191313,-133.333333333333,4,1,1,20,0,0
191415,-66.6666666666667,4,1,1,20,0,0
191724,-133.333333333333,4,1,1,20,0,0
191826,-100,4,1,1,20,0,0
195114,-133.333333333333,4,1,1,20,0,0
201689,-100,4,1,1,20,0,0
208265,-33.3333333333333,4,1,1,20,0,0
208470,-66.6666666666667,4,1,1,20,0,0
208573,-133.333333333333,4,1,1,20,0,0
208676,-100,4,1,1,20,0,0
236210,-100,4,1,1,20,0,1
242785,-100,4,1,1,20,0,1
249353,-66.6666666666667,4,1,1,20,0,0
249669,-133.333333333333,4,1,1,20,0,0
249772,-100,4,1,1,20,0,0
250080,-66.6666666666667,4,1,1,20,0,0
250285,-133.333333333333,4,1,1,20,0,0
250388,-66.6666666666667,4,1,1,20,0,0
250491,-100,4,1,1,20,0,0
250696,-66.6666666666667,4,1,1,20,0,0
250902,-133.333333333333,4,1,1,20,0,0
251005,-66.6666666666667,4,1,1,20,0,0
251107,-100,4,1,1,20,0,0
251210,-66.6666666666667,4,1,1,20,0,0
251518,-133.333333333333,4,1,1,20,0,0
251621,-66.6666666666667,4,1,1,20,0,0
251724,-100,4,1,1,20,0,0
251826,-66.6666666666667,4,1,1,20,0,0
252135,-133.333333333333,4,1,1,20,0,0
252237,-66.6666666666667,4,1,1,20,0,0
252546,-133.333333333333,4,1,1,20,0,0
252648,-66.6666666666667,4,1,1,20,0,0
252957,-133.333333333333,4,1,1,20,0,0
253059,-66.6666666666667,4,1,1,20,0,0
253162,-133.333333333333,4,1,1,20,0,0
253265,-66.6666666666667,4,1,1,20,0,0
253573,-133.333333333333,4,1,1,20,0,0
253676,-66.6666666666667,4,1,1,20,0,0
253881,-100,4,1,1,20,0,0
253984,-66.6666666666667,4,1,1,20,0,0
254395,-133.333333333333,4,1,1,20,0,0
254498,-100,4,1,1,20,0,0
259224,-66.6666666666667,4,1,1,20,0,0
259481,-100,4,1,1,20,0,0
259532,-133.333333333333,4,1,1,20,0,0
259635,-100,4,1,1,20,0,0
259840,-66.6666666666667,4,1,1,20,0,0
260097,-100,4,1,1,20,0,0
260148,-133.333333333333,4,1,1,20,0,0
260251,-100,4,1,1,20,0,0
261792,-66.6666666666667,4,1,1,20,0,0
261998,-133.333333333333,4,1,1,20,0,0
262100,-66.6666666666667,4,1,1,20,0,0

[HitObjects]
192,192,1142,5,0,0:0:0:0:
320,192,1142,1,0,0:0:0:0:
448,192,1347,1,0,0:0:0:0:
320,192,1347,1,0,0:0:0:0:
320,192,1552,1,0,0:0:0:0:
64,192,1552,1,0,0:0:0:0:
320,192,2169,1,0,0:0:0:0:
192,192,2169,1,0,0:0:0:0:
192,192,2374,1,0,0:0:0:0:
64,192,2374,1,0,0:0:0:0:
448,192,2580,1,0,0:0:0:0:
192,192,2580,1,0,0:0:0:0:
320,192,2785,1,0,0:0:0:0:
64,192,3094,1,0,0:0:0:0:
448,192,3094,1,0,0:0:0:0:
448,192,3402,1,0,0:0:0:0:
192,192,3402,1,0,0:0:0:0:
320,192,3607,1,0,0:0:0:0:
192,192,3813,1,0,0:0:0:0:
64,192,3915,1,0,0:0:0:0:
320,192,4018,128,4,4429:0:0:0:0:
448,192,4018,1,4,0:0:0:0:
448,192,4429,1,0,0:0:0:0:
192,192,4429,1,0,0:0:0:0:
64,192,4635,1,0,0:0:0:0:
192,192,4635,1,0,0:0:0:0:
192,192,4840,1,0,0:0:0:0:
320,192,4840,1,0,0:0:0:0:
192,192,5457,1,0,0:0:0:0:
320,192,5457,1,0,0:0:0:0:
448,192,5662,1,0,0:0:0:0:
320,192,5662,1,0,0:0:0:0:
64,192,5868,1,0,0:0:0:0:
320,192,5868,1,0,0:0:0:0:
448,192,6278,1,4,0:0:0:0:
192,192,6278,1,0,0:0:0:0:
64,192,6484,1,12,0:0:0:0:
320,192,6484,1,8,0:0:0:0:
448,192,6792,1,0,0:0:0:0:
64,192,6792,1,0,0:0:0:0:
192,192,6792,1,0,0:0:0:0:
320,192,6895,1,0,0:0:0:0:
192,192,6998,1,0,0:0:0:0:
448,192,6998,1,0,0:0:0:0:
64,192,7100,1,0,0:0:0:0:
320,192,7100,1,0,0:0:0:0:
320,192,7306,1,0,0:0:0:0:
192,192,7306,1,0,0:0:0:0:
448,192,7409,1,0,0:0:0:0:
64,192,7409,1,0,0:0:0:0:
320,192,7511,128,0,7717:0:0:0:0:
448,192,7717,128,4,9155:0:0:0:0:
64,192,7717,1,0,0:0:0:0:
64,192,7922,1,0,0:0:0:0:
320,192,8128,1,0,0:0:0:0:
192,192,8333,1,0,0:0:0:0:
64,192,8539,1,0,0:0:0:0:
192,192,8744,1,0,0:0:0:0:
320,192,8950,1,0,0:0:0:0:
192,192,9155,1,0,0:0:0:0:
64,192,9155,1,0,0:0:0:0:
320,192,9361,128,4,10491:0:0:0:0:
64,192,9361,1,0,0:0:0:0:
448,192,9361,1,0,0:0:0:0:
192,192,9566,1,0,0:0:0:0:
448,192,9772,1,0,0:0:0:0:
192,192,9977,128,0,10491:0:0:0:0:
64,192,10183,1,0,0:0:0:0:
448,192,10491,1,0,0:0:0:0:
320,192,10594,1,0,0:0:0:0:
192,192,10696,1,0,0:0:0:0:
64,192,10799,1,0,0:0:0:0:
320,192,10799,1,0,0:0:0:0:
64,192,11005,1,0,0:0:0:0:
320,192,11005,1,0,0:0:0:0:
192,192,11005,128,4,12443:0:0:0:0:
64,192,11210,1,0,0:0:0:0:
320,192,11415,1,0,0:0:0:0:
448,192,11621,1,0,0:0:0:0:
320,192,11826,1,0,0:0:0:0:
64,192,12032,1,0,0:0:0:0:
320,192,12237,1,0,0:0:0:0:
64,192,12443,1,0,0:0:0:0:
448,192,12494,1,0,0:0:0:0:
320,192,12546,1,0,0:0:0:0:
192,192,12597,1,0,0:0:0:0:
64,192,12648,128,4,13470:0:0:0:0:
448,192,12648,1,4,0:0:0:0:
320,192,12854,1,0,0:0:0:0:
192,192,13059,128,0,13470:0:0:0:0:
448,192,13059,1,0,0:0:0:0:
320,192,13265,1,0,0:0:0:0:
448,192,13470,1,0,0:0:0:0:
320,192,13573,1,0,0:0:0:0:
192,192,13676,1,0,0:0:0:0:
64,192,13676,1,0,0:0:0:0:
320,192,13881,1,0,0:0:0:0:
448,192,13881,1,0,0:0:0:0:
192,192,14087,1,0,0:0:0:0:
320,192,14292,128,4,15114:0:0:0:0:
448,192,14292,1,0,0:0:0:0:
192,192,14498,1,0,0:0:0:0:
64,192,14703,128,0,15114:0:0:0:0:
448,192,14703,1,0,0:0:0:0:
448,192,14909,128,0,15114:0:0:0:0:
192,192,14909,1,0,0:0:0:0:
192,192,15114,128,0,15320:0:0:0:0:
64,192,15320,128,0,15525:0:0:0:0:
320,192,15320,1,0,0:0:0:0:
192,192,15525,128,0,15731:0:0:0:0:
320,192,15525,1,0,0:0:0:0:
320,192,15731,128,0,15936:0:0:0:0:
448,192,15731,1,0,0:0:0:0:
64,192,15936,1,0,0:0:0:0:
192,192,15936,128,4,17580:0:0:0:0:
448,192,15936,1,0,0:0:0:0:
64,192,16141,1,0,0:0:0:0:
320,192,16347,1,0,0:0:0:0:
64,192,16347,1,0,0:0:0:0:
448,192,16552,128,0,16963:0:0:0:0:
64,192,16758,1,0,0:0:0:0:
320,192,16963,1,0,0:0:0:0:
64,192,17066,1,0,0:0:0:0:
320,192,17169,1,0,0:0:0:0:
448,192,17272,1,0,0:0:0:0:
64,192,17374,1,0,0:0:0:0:
448,192,17580,1,0,0:0:0:0:
320,192,17580,128,12,17785:0:0:0:0:
448,192,17785,128,0,19018:0:0:0:0:
192,192,17785,1,0,0:0:0:0:
64,192,17991,1,0,0:0:0:0:
320,192,17991,1,0,0:0:0:0:
64,192,18196,1,0,0:0:0:0:
192,192,18402,1,0,0:0:0:0:
192,192,18607,1,0,0:0:0:0:
320,192,18813,1,0,0:0:0:0:
64,192,18813,1,0,0:0:0:0:
192,192,19018,1,0,0:0:0:0:
320,192,19224,1,0,0:0:0:0:
64,192,19224,1,0,0:0:0:0:
192,192,19326,1,0,0:0:0:0:
320,192,19429,1,0,0:0:0:0:
448,192,19532,1,0,0:0:0:0:
320,192,19635,1,0,0:0:0:0:
64,192,19635,1,0,0:0:0:0:
192,192,19737,1,0,0:0:0:0:
320,192,19840,1,0,0:0:0:0:
448,192,19943,1,0,0:0:0:0:
320,192,20046,1,0,0:0:0:0:
192,192,20046,1,0,0:0:0:0:
64,192,20046,1,0,0:0:0:0:
448,192,20251,1,0,0:0:0:0:
192,192,20251,1,0,0:0:0:0:
64,192,20251,1,0,0:0:0:0:
320,192,20354,1,0,0:0:0:0:
192,192,20457,1,0,0:0:0:0:
448,192,20457,1,0,0:0:0:0:
64,192,20559,1,0,0:0:0:0:
448,192,20662,1,0,0:0:0:0:
192,192,20662,1,0,0:0:0:0:
320,192,20765,1,0,0:0:0:0:
192,192,20868,1,0,0:0:0:0:
64,192,20868,1,0,0:0:0:0:
448,192,20868,1,0,0:0:0:0:
64,192,21073,1,0,0:0:0:0:
320,192,21073,1,0,0:0:0:0:
448,192,21278,1,0,0:0:0:0:
320,192,21278,1,0,0:0:0:0:
192,192,21278,1,0,0:0:0:0:
448,192,21484,1,0,0:0:0:0:
192,192,21484,1,0,0:0:0:0:
320,192,21689,1,0,0:0:0:0:
192,192,21689,1,0,0:0:0:0:
64,192,21689,1,0,0:0:0:0:
192,192,21895,1,0,0:0:0:0:
320,192,21895,1,0,0:0:0:0:
320,192,22100,1,0,0:0:0:0:
64,192,22100,1,0,0:0:0:0:
448,192,22100,1,0,0:0:0:0:
320,192,22306,1,0,0:0:0:0:
192,192,22306,1,0,0:0:0:0:
448,192,22511,1,0,0:0:0:0:
192,192,22511,1,0,0:0:0:0:
64,192,22511,1,0,0:0:0:0:
192,192,22717,1,0,0:0:0:0:
64,192,22717,1,0,0:0:0:0:
320,192,22922,1,0,0:0:0:0:
64,192,22922,1,0,0:0:0:0:
448,192,22922,1,0,0:0:0:0:
320,192,23128,1,0,0:0:0:0:
448,192,23128,1,0,0:0:0:0:
192,192,23333,1,0,0:0:0:0:
64,192,23333,1,0,0:0:0:0:
448,192,23333,1,0,0:0:0:0:
320,192,23539,1,0,0:0:0:0:
192,192,23539,1,0,0:0:0:0:
192,192,23744,1,0,0:0:0:0:
448,192,23744,1,0,0:0:0:0:
64,192,23744,1,0,0:0:0:0:
192,192,23950,1,0,0:0:0:0:
320,192,23950,1,0,0:0:0:0:
448,192,24155,1,0,0:0:0:0:
320,192,24155,1,0,0:0:0:0:
64,192,24155,1,0,0:0:0:0:
320,192,24361,1,0,0:0:0:0:
64,192,24361,1,0,0:0:0:0:
448,192,24566,1,0,0:0:0:0:
192,192,24566,1,0,0:0:0:0:
64,192,24566,1,0,0:0:0:0:
320,192,24772,1,0,0:0:0:0:
448,192,24772,1,0,0:0:0:0:
192,192,24977,1,0,0:0:0:0:
64,192,24977,1,0,0:0:0:0:
448,192,24977,1,0,0:0:0:0:
192,192,25183,1,0,0:0:0:0:
320,192,25183,1,0,0:0:0:0:
64,192,25388,1,0,0:0:0:0:
320,192,25388,1,0,0:0:0:0:
448,192,25388,1,0,0:0:0:0:
448,192,25594,1,0,0:0:0:0:
192,192,25594,1,0,0:0:0:0:
320,192,25799,1,0,0:0:0:0:
64,192,25799,1,0,0:0:0:0:
192,192,25799,1,0,0:0:0:0:
320,192,26005,1,0,0:0:0:0:
64,192,26005,1,0,0:0:0:0:
448,192,26210,1,0,0:0:0:0:
192,192,26210,1,0,0:0:0:0:
64,192,26210,1,0,0:0:0:0:
320,192,26415,1,0,0:0:0:0:
64,192,26415,1,0,0:0:0:0:
192,192,26621,1,0,0:0:0:0:
64,192,26621,1,0,0:0:0:0:
448,192,26621,1,0,0:0:0:0:
192,192,26826,1,0,0:0:0:0:
448,192,26826,1,0,0:0:0:0:
64,192,27032,1,0,0:0:0:0:
320,192,27032,1,0,0:0:0:0:
448,192,27032,1,0,0:0:0:0:
320,192,27443,1,4,0:0:0:0:
64,192,27443,128,4,29087:0:0:0:0:
192,192,27443,1,0,0:0:0:0:
448,192,27648,128,8,27854:0:0:0:0:
320,192,27648,1,0,0:0:0:0:
192,192,27854,1,0,0:0:0:0:
320,192,28059,128,4,28265:0:0:0:0:
448,192,28059,1,0,0:0:0:0:
448,192,28265,1,0,0:0:0:0:
320,192,28470,128,4,28676:0:0:0:0:
192,192,28470,1,0,0:0:0:0:
448,192,28676,1,0,0:0:0:0:
192,192,28881,128,4,29087:0:0:0:0:
448,192,28881,1,0,0:0:0:0:
320,192,29087,1,0,0:0:0:0:
448,192,29087,128,0,30731:0:0:0:0:
64,192,29292,1,0,0:0:0:0:
320,192,29292,128,4,29498:0:0:0:0:
64,192,29498,1,0,0:0:0:0:
192,192,29703,128,4,29909:0:0:0:0:
64,192,29703,1,0,0:0:0:0:
64,192,29909,1,0,0:0:0:0:
192,192,30114,128,4,30320:0:0:0:0:
320,192,30114,1,0,0:0:0:0:
64,192,30320,1,0,0:0:0:0:
64,192,30525,128,4,30731:0:0:0:0:
320,192,30525,1,0,0:0:0:0:
192,192,30731,1,0,0:0:0:0:
320,192,30731,128,0,31758:0:0:0:0:
192,192,30936,128,4,31142:0:0:0:0:
64,192,30936,1,0,0:0:0:0:
448,192,31142,1,0,0:0:0:0:
192,192,31347,128,4,31552:0:0:0:0:
448,192,31347,1,0,0:0:0:0:
64,192,31552,1,0,0:0:0:0:
64,192,31758,128,4,31963:0:0:0:0:
448,192,31758,1,0,0:0:0:0:
448,192,31963,1,0,0:0:0:0:
64,192,32169,1,0,0:0:0:0:
448,192,32169,128,4,32374:0:0:0:0:
320,192,32374,128,4,32580:0:0:0:0:
192,192,32374,128,4,32580:0:0:0:0:
64,192,32374,128,4,32580:0:0:0:0:
64,192,32785,128,4,32991:0:0:0:0:
320,192,32785,128,4,32991:0:0:0:0:
448,192,32785,128,4,32991:0:0:0:0:
192,192,33196,1,0,0:0:0:0:
448,192,33196,1,0,0:0:0:0:
64,192,33196,1,0,0:0:0:0:
320,192,33299,1,0,0:0:0:0:
64,192,33402,1,0,0:0:0:0:
448,192,33402,1,0,0:0:0:0:
320,192,33505,1,0,0:0:0:0:
192,192,33607,1,0,0:0:0:0:
64,192,33607,1,0,0:0:0:0:
320,192,33710,1,0,0:0:0:0:
192,192,33813,1,0,0:0:0:0:
448,192,33813,1,0,0:0:0:0:
320,192,33864,1,0,0:0:0:0:
448,192,33915,1,0,0:0:0:0:
320,192,33967,1,0,0:0:0:0:
64,192,34018,1,4,0:0:0:0:
192,192,34018,1,4,0:0:0:0:
448,192,34224,1,0,0:0:0:0:
320,192,34224,1,0,0:0:0:0:
64,192,34429,1,0,0:0:0:0:
192,192,34429,1,0,0:0:0:0:
320,192,34429,1,0,0:0:0:0:
192,192,34635,1,0,0:0:0:0:
320,192,34840,1,0,0:0:0:0:
64,192,34840,1,0,0:0:0:0:
448,192,34840,1,0,0:0:0:0:
320,192,35046,1,0,0:0:0:0:
192,192,35046,1,0,0:0:0:0:
448,192,35251,1,0,0:0:0:0:
192,192,35251,1,0,0:0:0:0:
64,192,35251,1,0,0:0:0:0:
192,192,35457,1,0,0:0:0:0:
64,192,35662,1,0,0:0:0:0:
320,192,35662,1,0,0:0:0:0:
448,192,35662,1,0,0:0:0:0:
448,192,35868,1,0,0:0:0:0:
192,192,35868,1,0,0:0:0:0:
320,192,36073,1,0,0:0:0:0:
64,192,36073,1,0,0:0:0:0:
192,192,36073,1,0,0:0:0:0:
320,192,36278,1,0,0:0:0:0:
192,192,36484,1,0,0:0:0:0:
448,192,36484,1,0,0:0:0:0:
64,192,36484,1,0,0:0:0:0:
320,192,36689,1,0,0:0:0:0:
448,192,36689,1,0,0:0:0:0:
64,192,36895,1,0,0:0:0:0:
320,192,36895,1,0,0:0:0:0:
192,192,36895,1,0,0:0:0:0:
64,192,37100,1,0,0:0:0:0:
448,192,37306,1,0,0:0:0:0:
192,192,37306,1,0,0:0:0:0:
320,192,37306,1,0,0:0:0:0:
320,192,37511,1,0,0:0:0:0:
64,192,37511,1,0,0:0:0:0:
64,192,37717,1,0,0:0:0:0:
192,192,37717,1,0,0:0:0:0:
448,192,37717,1,0,0:0:0:0:
448,192,37922,1,0,0:0:0:0:
320,192,38128,1,0,0:0:0:0:
64,192,38128,1,0,0:0:0:0:
192,192,38128,1,0,0:0:0:0:
64,192,38333,1,0,0:0:0:0:
448,192,38333,1,0,0:0:0:0:
192,192,38539,1,0,0:0:0:0:
448,192,38539,1,0,0:0:0:0:
320,192,38539,1,0,0:0:0:0:
320,192,38744,1,0,0:0:0:0:
64,192,38950,1,0,0:0:0:0:
448,192,38950,1,0,0:0:0:0:
192,192,38950,1,0,0:0:0:0:
320,192,39155,1,0,0:0:0:0:
64,192,39155,1,0,0:0:0:0:
448,192,39361,1,0,0:0:0:0:
320,192,39361,1,0,0:0:0:0:
192,192,39361,1,0,0:0:0:0:
448,192,39566,1,0,0:0:0:0:
192,192,39772,1,0,0:0:0:0:
448,192,39772,1,0,0:0:0:0:
320,192,39772,1,0,0:0:0:0:
64,192,39977,1,0,0:0:0:0:
320,192,39977,1,0,0:0:0:0:
448,192,40183,1,0,0:0:0:0:
64,192,40183,1,0,0:0:0:0:
192,192,40183,1,0,0:0:0:0:
192,192,40388,1,0,0:0:0:0:
448,192,40594,1,0,0:0:0:0:
320,192,40594,1,0,0:0:0:0:
64,192,40594,1,0,0:0:0:0:
320,192,40799,1,0,0:0:0:0:
192,192,40799,1,0,0:0:0:0:
64,192,41005,1,0,0:0:0:0:
192,192,41005,1,0,0:0:0:0:
448,192,41005,1,0,0:0:0:0:
192,192,41210,1,0,0:0:0:0:
320,192,41415,1,0,0:0:0:0:
64,192,41415,1,0,0:0:0:0:
448,192,41415,1,0,0:0:0:0:
320,192,41621,1,0,0:0:0:0:
448,192,41621,1,0,0:0:0:0:
192,192,41826,1,0,0:0:0:0:
320,192,41826,1,0,0:0:0:0:
448,192,41826,1,0,0:0:0:0:
192,192,42032,1,0,0:0:0:0:
320,192,42237,1,0,0:0:0:0:
64,192,42237,1,0,0:0:0:0:
448,192,42237,1,0,0:0:0:0:
64,192,42443,1,0,0:0:0:0:
192,192,42443,1,0,0:0:0:0:
320,192,42648,1,0,0:0:0:0:
448,192,42648,1,0,0:0:0:0:
192,192,42648,1,0,0:0:0:0:
320,192,42854,1,0,0:0:0:0:
192,192,43059,1,0,0:0:0:0:
448,192,43059,1,0,0:0:0:0:
320,192,43059,1,0,0:0:0:0:
192,192,43265,1,0,0:0:0:0:
64,192,43265,1,0,0:0:0:0:
320,192,43470,1,0,0:0:0:0:
64,192,43470,1,0,0:0:0:0:
448,192,43470,1,0,0:0:0:0:
320,192,43676,1,0,0:0:0:0:
448,192,43881,1,0,0:0:0:0:
192,192,43881,1,0,0:0:0:0:
320,192,43881,1,0,0:0:0:0:
448,192,44087,1,0,0:0:0:0:
64,192,44087,1,0,0:0:0:0:
192,192,44292,1,0,0:0:0:0:
64,192,44292,1,0,0:0:0:0:
448,192,44292,1,0,0:0:0:0:
64,192,44498,1,0,0:0:0:0:
320,192,44703,1,0,0:0:0:0:
448,192,44703,1,0,0:0:0:0:
192,192,44703,1,0,0:0:0:0:
320,192,44909,1,0,0:0:0:0:
64,192,44909,1,0,0:0:0:0:
448,192,45114,1,0,0:0:0:0:
192,192,45114,1,0,0:0:0:0:
64,192,45114,1,0,0:0:0:0:
64,192,45320,1,0,0:0:0:0:
320,192,45525,1,0,0:0:0:0:
192,192,45525,1,0,0:0:0:0:
448,192,45525,1,0,0:0:0:0:
64,192,45731,1,0,0:0:0:0:
448,192,45731,1,0,0:0:0:0:
192,192,45936,1,0,0:0:0:0:
64,192,45936,1,0,0:0:0:0:
320,192,45936,1,0,0:0:0:0:
320,192,46141,1,0,0:0:0:0:
192,192,46347,1,0,0:0:0:0:
448,192,46347,1,0,0:0:0:0:
320,192,46450,1,0,0:0:0:0:
64,192,46552,1,0,0:0:0:0:
192,192,46552,1,0,0:0:0:0:
320,192,46758,1,0,0:0:0:0:
64,192,46758,1,0,0:0:0:0:
448,192,46861,1,0,0:0:0:0:
192,192,46861,1,0,0:0:0:0:
320,192,46963,1,0,0:0:0:0:
448,192,47066,1,0,0:0:0:0:
64,192,47066,1,0,0:0:0:0:
448,192,47169,128,4,48813:0:0:0:0:
192,192,47169,1,4,0:0:0:0:
320,192,47169,128,0,47785:0:0:0:0:
192,192,47785,128,0,48196:0:0:0:0:
64,192,47785,1,0,0:0:0:0:
64,192,48196,1,0,0:0:0:0:
320,192,48196,128,0,48402:0:0:0:0:
64,192,48402,128,0,48813:0:0:0:0:
192,192,48402,1,0,0:0:0:0:
192,192,48813,1,0,0:0:0:0:
320,192,48813,128,4,50457:0:0:0:0:
448,192,49224,1,0,0:0:0:0:
64,192,49224,1,0,0:0:0:0:
192,192,49635,1,0,0:0:0:0:
448,192,49635,1,0,0:0:0:0:
192,192,49840,1,0,0:0:0:0:
64,192,50046,1,0,0:0:0:0:
448,192,50046,1,0,0:0:0:0:
192,192,50251,1,0,0:0:0:0:
448,192,50457,1,4,0:0:0:0:
192,192,50457,128,4,52100:0:0:0:0:
64,192,50457,1,4,0:0:0:0:
320,192,50868,1,0,0:0:0:0:
64,192,50868,1,0,0:0:0:0:
64,192,51278,1,0,0:0:0:0:
448,192,51278,1,0,0:0:0:0:
64,192,51484,1,0,0:0:0:0:
320,192,51689,1,0,0:0:0:0:
448,192,51689,1,0,0:0:0:0:
320,192,51895,1,0,0:0:0:0:
320,192,52100,1,4,0:0:0:0:
448,192,52100,1,4,0:0:0:0:
64,192,52100,128,4,53744:0:0:0:0:
448,192,52511,1,0,0:0:0:0:
192,192,52511,1,0,0:0:0:0:
320,192,52922,1,0,0:0:0:0:
192,192,52922,1,0,0:0:0:0:
320,192,53128,1,0,0:0:0:0:
192,192,53333,1,0,0:0:0:0:
448,192,53333,1,0,0:0:0:0:
320,192,53539,1,0,0:0:0:0:
192,192,53744,128,4,55388:0:0:0:0:
448,192,53744,1,4,0:0:0:0:
320,192,53744,1,4,0:0:0:0:
320,192,54155,1,0,0:0:0:0:
448,192,54155,1,0,0:0:0:0:
64,192,54566,1,0,0:0:0:0:
448,192,54566,1,0,0:0:0:0:
448,192,54772,1,0,0:0:0:0:
320,192,54977,1,0,0:0:0:0:
64,192,54977,1,0,0:0:0:0:
320,192,55183,1,0,0:0:0:0:
448,192,55388,128,4,57032:0:0:0:0:
64,192,55388,1,0,0:0:0:0:
64,192,55799,1,0,0:0:0:0:
192,192,55799,1,0,0:0:0:0:
320,192,56210,1,0,0:0:0:0:
64,192,56415,1,0,0:0:0:0:
192,192,56621,1,0,0:0:0:0:
320,192,56826,1,0,0:0:0:0:
64,192,57032,1,4,0:0:0:0:
320,192,57032,128,4,57854:0:0:0:0:
448,192,57443,1,0,0:0:0:0:
192,192,57443,1,0,0:0:0:0:
192,192,57854,1,0,0:0:0:0:
64,192,57957,1,0,0:0:0:0:
192,192,58059,1,0,0:0:0:0:
320,192,58162,1,0,0:0:0:0:
192,192,58265,1,0,0:0:0:0:
448,192,58265,1,0,0:0:0:0:
64,192,58368,1,0,0:0:0:0:
192,192,58470,1,0,0:0:0:0:
320,192,58573,1,0,0:0:0:0:
64,192,58676,128,0,60320:0:0:0:0:
192,192,58676,1,0,0:0:0:0:
448,192,58676,1,0,0:0:0:0:
320,192,58778,1,0,0:0:0:0:
448,192,58881,1,0,0:0:0:0:
320,192,58984,1,0,0:0:0:0:
192,192,59087,1,0,0:0:0:0:
448,192,59087,1,0,0:0:0:0:
320,192,59189,1,0,0:0:0:0:
192,192,59292,1,0,0:0:0:0:
448,192,59395,1,0,0:0:0:0:
320,192,59498,1,0,0:0:0:0:
192,192,59498,1,0,0:0:0:0:
448,192,59600,1,0,0:0:0:0:
320,192,59703,1,0,0:0:0:0:
192,192,59806,1,0,0:0:0:0:
320,192,59909,1,0,0:0:0:0:
448,192,59909,1,0,0:0:0:0:
192,192,60011,1,0,0:0:0:0:
320,192,60114,1,0,0:0:0:0:
448,192,60217,1,0,0:0:0:0:
320,192,60320,1,0,0:0:0:0:
448,192,60320,128,0,61963:0:0:0:0:
192,192,60422,1,0,0:0:0:0:
64,192,60525,1,0,0:0:0:0:
192,192,60628,1,0,0:0:0:0:
64,192,60731,1,0,0:0:0:0:
320,192,60731,1,0,0:0:0:0:
192,192,60833,1,0,0:0:0:0:
320,192,60936,1,0,0:0:0:0:
64,192,61039,1,0,0:0:0:0:
192,192,61142,1,0,0:0:0:0:
320,192,61142,1,0,0:0:0:0:
64,192,61244,1,0,0:0:0:0:
192,192,61347,1,0,0:0:0:0:
320,192,61450,1,0,0:0:0:0:
192,192,61552,1,0,0:0:0:0:
64,192,61552,1,0,0:0:0:0:
320,192,61655,1,0,0:0:0:0:
192,192,61758,1,0,0:0:0:0:
64,192,61861,1,0,0:0:0:0:
192,192,61963,1,0,0:0:0:0:
320,192,61963,1,0,0:0:0:0:
448,192,62374,1,4,0:0:0:0:
320,192,62374,1,4,0:0:0:0:
192,192,62374,1,4,0:0:0:0:
64,192,62374,1,4,0:0:0:0:
448,192,62683,1,0,0:0:0:0:
320,192,62785,1,0,0:0:0:0:
192,192,62888,1,0,0:0:0:0:
448,192,62888,1,0,0:0:0:0:
64,192,62991,1,0,0:0:0:0:
320,192,62991,1,0,0:0:0:0:
320,192,63196,1,0,0:0:0:0:
448,192,63299,1,0,0:0:0:0:
192,192,63299,1,0,0:0:0:0:
64,192,63402,1,0,0:0:0:0:
320,192,63402,1,0,0:0:0:0:
192,192,63453,1,0,0:0:0:0:
64,192,63505,1,0,0:0:0:0:
192,192,63556,1,0,0:0:0:0:
448,192,63607,128,4,65251:0:0:0:0:
320,192,63607,1,4,0:0:0:0:
320,192,64018,1,0,0:0:0:0:
64,192,64018,1,0,0:0:0:0:
192,192,64429,1,0,0:0:0:0:
320,192,64429,1,0,0:0:0:0:
64,192,64635,1,0,0:0:0:0:
192,192,64840,1,0,0:0:0:0:
320,192,65046,1,0,0:0:0:0:
320,192,65251,128,4,66895:0:0:0:0:
192,192,65251,1,4,0:0:0:0:
64,192,65251,1,4,0:0:0:0:
448,192,65457,1,0,0:0:0:0:
192,192,65662,1,0,0:0:0:0:
192,192,65868,1,0,0:0:0:0:
64,192,66073,1,0,0:0:0:0:
448,192,66073,1,0,0:0:0:0:
64,192,66278,1,0,0:0:0:0:
192,192,66484,1,0,0:0:0:0:
448,192,66689,1,0,0:0:0:0:
192,192,66895,128,4,68539:0:0:0:0:
448,192,66895,1,4,0:0:0:0:
64,192,66895,1,4,0:0:0:0:
320,192,67100,1,0,0:0:0:0:
64,192,67306,1,0,0:0:0:0:
448,192,67306,1,0,0:0:0:0:
320,192,67511,1,0,0:0:0:0:
64,192,67717,1,0,0:0:0:0:
320,192,67717,1,0,0:0:0:0:
64,192,67922,1,0,0:0:0:0:
320,192,68128,1,0,0:0:0:0:
320,192,68333,1,0,0:0:0:0:
448,192,68539,128,0,68950:0:0:0:0:
64,192,68539,1,0,0:0:0:0:
320,192,68539,1,0,0:0:0:0:
320,192,68744,128,0,68950:0:0:0:0:
192,192,68744,1,0,0:0:0:0:
64,192,68950,128,0,69361:0:0:0:0:
192,192,68950,1,0,0:0:0:0:
192,192,69155,128,0,69361:0:0:0:0:
320,192,69155,1,0,0:0:0:0:
320,192,69361,128,0,69772:0:0:0:0:
448,192,69361,1,0,0:0:0:0:
448,192,69566,128,0,69772:0:0:0:0:
192,192,69566,1,0,0:0:0:0:
192,192,69772,128,0,70183:0:0:0:0:
64,192,69772,1,0,0:0:0:0:
64,192,69977,128,0,70183:0:0:0:0:
448,192,69977,1,0,0:0:0:0:
448,192,70183,128,4,71826:0:0:0:0:
320,192,70183,1,4,0:0:0:0:
192,192,70388,1,0,0:0:0:0:
64,192,70594,1,0,0:0:0:0:
320,192,70594,1,0,0:0:0:0:
192,192,70799,1,0,0:0:0:0:
320,192,71005,1,0,0:0:0:0:
64,192,71005,1,0,0:0:0:0:
192,192,71210,1,0,0:0:0:0:
64,192,71415,1,0,0:0:0:0:
192,192,71415,1,0,0:0:0:0:
64,192,71621,1,0,0:0:0:0:
320,192,71826,128,4,73470:0:0:0:0:
192,192,71826,1,4,0:0:0:0:
448,192,72032,1,0,0:0:0:0:
448,192,72237,1,0,0:0:0:0:
64,192,72237,1,0,0:0:0:0:
192,192,72443,1,0,0:0:0:0:
192,192,72648,1,0,0:0:0:0:
448,192,72648,1,0,0:0:0:0:
64,192,72854,1,0,0:0:0:0:
64,192,73059,1,0,0:0:0:0:
192,192,73059,1,0,0:0:0:0:
448,192,73265,1,0,0:0:0:0:
192,192,73470,128,4,75114:0:0:0:0:
64,192,73470,1,4,0:0:0:0:
448,192,73470,1,0,0:0:0:0:
320,192,73676,1,0,0:0:0:0:
320,192,73881,1,0,0:0:0:0:
64,192,74087,1,0,0:0:0:0:
448,192,74292,1,0,0:0:0:0:
64,192,74292,1,0,0:0:0:0:
320,192,74498,1,0,0:0:0:0:
64,192,74703,1,0,0:0:0:0:
448,192,74909,1,0,0:0:0:0:
64,192,75114,128,4,76758:0:0:0:0:
320,192,75114,1,4,0:0:0:0:
448,192,75320,1,0,0:0:0:0:
192,192,75525,1,0,0:0:0:0:
320,192,75525,1,0,0:0:0:0:
192,192,75731,1,0,0:0:0:0:
448,192,75833,1,0,0:0:0:0:
192,192,75936,1,0,0:0:0:0:
320,192,76039,1,0,0:0:0:0:
448,192,76142,1,0,0:0:0:0:
320,192,76347,1,0,0:0:0:0:
448,192,76347,1,0,0:0:0:0:
192,192,76552,1,0,0:0:0:0:
320,192,76552,1,0,0:0:0:0:
448,192,76758,128,4,78402:0:0:0:0:
320,192,76758,1,4,0:0:0:0:
192,192,76758,1,0,0:0:0:0:
192,192,77169,1,0,0:0:0:0:
320,192,77169,1,0,0:0:0:0:
192,192,77580,1,0,0:0:0:0:
64,192,77991,1,0,0:0:0:0:
192,192,77991,1,0,0:0:0:0:
320,192,78402,128,4,80046:0:0:0:0:
64,192,78402,1,4,0:0:0:0:
448,192,78813,1,0,0:0:0:0:
64,192,78813,1,0,0:0:0:0:
448,192,79224,1,0,0:0:0:0:
64,192,79224,128,0,80046:0:0:0:0:
192,192,79635,1,0,0:0:0:0:
448,192,79635,1,0,0:0:0:0:
192,192,80046,128,4,81689:0:0:0:0:
448,192,80046,1,0,0:0:0:0:
64,192,80457,1,0,0:0:0:0:
448,192,80457,1,0,0:0:0:0:
448,192,80868,128,0,81689:0:0:0:0:
320,192,80868,1,0,0:0:0:0:
320,192,81278,1,0,0:0:0:0:
64,192,81278,1,0,0:0:0:0:
320,192,81689,1,0,0:0:0:0:
64,192,81689,128,0,82100:0:0:0:0:
320,192,81895,128,0,82100:0:0:0:0:
192,192,82100,1,0,0:0:0:0:
448,192,82100,128,0,82511:0:0:0:0:
64,192,82306,128,0,82511:0:0:0:0:
320,192,82511,1,0,0:0:0:0:
192,192,82511,128,0,82922:0:0:0:0:
448,192,82717,128,0,82922:0:0:0:0:
320,192,82922,128,0,83333:0:0:0:0:
64,192,82922,1,0,0:0:0:0:
192,192,83128,128,0,83333:0:0:0:0:
448,192,83333,128,4,84977:0:0:0:0:
64,192,83333,1,4,0:0:0:0:
64,192,83744,1,0,0:0:0:0:
192,192,83744,1,0,0:0:0:0:
64,192,84155,1,0,0:0:0:0:
192,192,84566,1,0,0:0:0:0:
320,192,84977,128,4,86621:0:0:0:0:
192,192,84977,1,4,0:0:0:0:
64,192,84977,1,4,0:0:0:0:
192,192,85388,1,0,0:0:0:0:
448,192,85799,1,0,0:0:0:0:
448,192,86210,1,0,0:0:0:0:
64,192,86210,1,0,0:0:0:0:
192,192,86621,128,4,88265:0:0:0:0:
448,192,86621,1,4,0:0:0:0:
64,192,87032,1,0,0:0:0:0:
64,192,87443,1,0,0:0:0:0:
320,192,87443,1,0,0:0:0:0:
64,192,87854,1,0,0:0:0:0:
64,192,88265,128,4,89909:0:0:0:0:
448,192,88265,1,4,0:0:0:0:
192,192,88676,1,0,0:0:0:0:
320,192,88778,1,0,0:0:0:0:
448,192,88881,1,0,0:0:0:0:
320,192,88984,1,0,0:0:0:0:
192,192,89087,1,0,0:0:0:0:
320,192,89189,1,0,0:0:0:0:
448,192,89292,1,0,0:0:0:0:
320,192,89395,1,0,0:0:0:0:
192,192,89498,1,0,0:0:0:0:
320,192,89600,1,0,0:0:0:0:
448,192,89703,1,0,0:0:0:0:
320,192,89806,1,0,0:0:0:0:
448,192,89909,128,4,91142:0:0:0:0:
192,192,89909,1,0,0:0:0:0:
64,192,90114,1,0,0:0:0:0:
320,192,90320,128,0,91142:0:0:0:0:
192,192,90320,1,0,0:0:0:0:
64,192,90525,1,0,0:0:0:0:
192,192,90731,128,0,91142:0:0:0:0:
64,192,90731,1,0,0:0:0:0:
64,192,90936,1,0,0:0:0:0:
64,192,91142,1,0,0:0:0:0:
320,192,91347,1,0,0:0:0:0:
64,192,91552,1,0,0:0:0:0:
192,192,91552,1,0,0:0:0:0:
448,192,91552,1,0,0:0:0:0:
192,192,91758,1,0,0:0:0:0:
64,192,91963,1,0,0:0:0:0:
320,192,91963,1,0,0:0:0:0:
448,192,91963,1,0,0:0:0:0:
192,192,92169,1,0,0:0:0:0:
192,192,92374,128,0,92785:0:0:0:0:
320,192,92374,128,0,92785:0:0:0:0:
448,192,92785,1,0,0:0:0:0:
64,192,92785,1,0,0:0:0:0:
448,192,92991,1,0,0:0:0:0:
64,192,92991,1,0,0:0:0:0:
320,192,93094,1,0,0:0:0:0:
64,192,93196,1,4,0:0:0:0:
192,192,93196,1,4,0:0:0:0:
192,192,93607,1,0,0:0:0:0:
448,192,93607,1,0,0:0:0:0:
64,192,93607,1,0,0:0:0:0:
320,192,93813,1,0,0:0:0:0:
192,192,94018,1,0,0:0:0:0:
64,192,94018,1,0,0:0:0:0:
320,192,94429,1,0,0:0:0:0:
448,192,94429,1,0,0:0:0:0:
64,192,94635,1,0,0:0:0:0:
448,192,94840,1,0,0:0:0:0:
192,192,94840,1,0,0:0:0:0:
320,192,95251,1,0,0:0:0:0:
192,192,95251,1,0,0:0:0:0:
448,192,95457,1,0,0:0:0:0:
64,192,95662,1,0,0:0:0:0:
192,192,95662,1,0,0:0:0:0:
320,192,96073,1,0,0:0:0:0:
192,192,96073,1,0,0:0:0:0:
192,192,96278,1,0,0:0:0:0:
448,192,96484,1,0,0:0:0:0:
64,192,96484,1,0,0:0:0:0:
192,192,96895,1,0,0:0:0:0:
64,192,96895,1,0,0:0:0:0:
64,192,97100,1,0,0:0:0:0:
320,192,97306,1,0,0:0:0:0:
448,192,97306,1,0,0:0:0:0:
192,192,97717,1,0,0:0:0:0:
320,192,97717,1,0,0:0:0:0:
448,192,97922,1,0,0:0:0:0:
64,192,98128,1,0,0:0:0:0:
320,192,98128,1,0,0:0:0:0:
192,192,98539,1,0,0:0:0:0:
320,192,98539,1,0,0:0:0:0:
64,192,98744,1,0,0:0:0:0:
320,192,98950,1,8,0:0:0:0:
448,192,98950,1,8,0:0:0:0:
192,192,99155,1,4,0:0:0:0:
320,192,99361,1,8,0:0:0:0:
448,192,99361,1,8,0:0:0:0:
64,192,99566,1,4,0:0:0:0:
320,192,99772,1,12,0:0:0:0:
448,192,99772,1,12,0:0:0:0:
448,192,100183,1,0,0:0:0:0:
320,192,100183,1,0,0:0:0:0:
192,192,100183,1,0,0:0:0:0:
64,192,100285,1,0,0:0:0:0:
192,192,100388,1,0,0:0:0:0:
448,192,100388,1,0,0:0:0:0:
320,192,100491,1,0,0:0:0:0:
448,192,100594,1,0,0:0:0:0:
320,192,100696,1,0,0:0:0:0:
64,192,100799,1,0,0:0:0:0:
192,192,100902,1,0,0:0:0:0:
320,192,101005,1,0,0:0:0:0:
448,192,101005,1,0,0:0:0:0:
64,192,101005,1,0,0:0:0:0:
192,192,101210,1,0,0:0:0:0:
64,192,101415,1,0,0:0:0:0:
320,192,101415,1,0,0:0:0:0:
320,192,101826,1,0,0:0:0:0:
448,192,101826,1,0,0:0:0:0:
320,192,102135,1,0,0:0:0:0:
192,192,102237,1,0,0:0:0:0:
448,192,102237,1,0,0:0:0:0:
64,192,102237,1,0,0:0:0:0:
64,192,102648,1,8,0:0:0:0:
192,192,102648,1,8,0:0:0:0:
320,192,102854,1,4,0:0:0:0:
64,192,103059,1,8,0:0:0:0:
192,192,103059,1,8,0:0:0:0:
320,192,103470,1,0,0:0:0:0:
320,192,103778,1,0,0:0:0:0:
192,192,103881,1,0,0:0:0:0:
448,192,103881,1,0,0:0:0:0:
64,192,104292,1,0,0:0:0:0:
448,192,104703,1,0,0:0:0:0:
192,192,104703,1,0,0:0:0:0:
320,192,105114,1,0,0:0:0:0:
64,192,105114,1,0,0:0:0:0:
320,192,105422,1,0,0:0:0:0:
192,192,105525,1,0,0:0:0:0:
448,192,105628,1,0,0:0:0:0:
64,192,105731,1,0,0:0:0:0:
320,192,105936,1,0,0:0:0:0:
448,192,106039,1,0,0:0:0:0:
192,192,106142,1,0,0:0:0:0:
64,192,106244,1,0,0:0:0:0:
320,192,106347,1,4,0:0:0:0:
448,192,106347,128,4,107991:0:0:0:0:
320,192,106758,1,0,0:0:0:0:
192,192,107169,1,0,0:0:0:0:
320,192,107169,1,0,0:0:0:0:
192,192,107580,1,0,0:0:0:0:
320,192,107991,128,4,109635:0:0:0:0:
192,192,107991,1,4,0:0:0:0:
64,192,107991,1,4,0:0:0:0:
64,192,108402,1,0,0:0:0:0:
64,192,108813,1,0,0:0:0:0:
448,192,108813,1,0,0:0:0:0:
192,192,109224,1,0,0:0:0:0:
448,192,109635,1,4,0:0:0:0:
64,192,109635,1,4,0:0:0:0:
192,192,109635,128,4,110868:0:0:0:0:
64,192,110046,1,0,0:0:0:0:
64,192,110457,1,0,0:0:0:0:
320,192,110457,1,0,0:0:0:0:
320,192,110868,128,4,111278:0:0:0:0:
448,192,110868,1,0,0:0:0:0:
64,192,111278,128,4,112922:0:0:0:0:
448,192,111278,1,4,0:0:0:0:
192,192,111278,1,0,0:0:0:0:
448,192,111689,1,0,0:0:0:0:
192,192,112100,1,0,0:0:0:0:
448,192,112100,1,0,0:0:0:0:
320,192,112306,1,0,0:0:0:0:
192,192,112511,1,0,0:0:0:0:
448,192,112511,1,0,0:0:0:0:
448,192,112922,128,4,114566:0:0:0:0:
192,192,112922,1,4,0:0:0:0:
320,192,112922,1,4,0:0:0:0:
320,192,113333,1,0,0:0:0:0:
320,192,113744,1,0,0:0:0:0:
192,192,113744,1,0,0:0:0:0:
192,192,114155,1,0,0:0:0:0:
64,192,114566,1,4,0:0:0:0:
192,192,114566,1,4,0:0:0:0:
320,192,114566,128,4,115799:0:0:0:0:
64,192,114977,1,0,0:0:0:0:
448,192,115388,1,0,0:0:0:0:
64,192,115388,1,0,0:0:0:0:
64,192,115594,1,0,0:0:0:0:
192,192,115799,1,4,0:0:0:0:
448,192,115799,128,4,116210:0:0:0:0:
192,192,116210,128,4,117854:0:0:0:0:
64,192,116210,1,4,0:0:0:0:
320,192,116210,1,0,0:0:0:0:
64,192,116621,1,0,0:0:0:0:
448,192,116826,1,0,0:0:0:0:
320,192,117032,1,0,0:0:0:0:
64,192,117032,1,0,0:0:0:0:
448,192,117237,1,0,0:0:0:0:
320,192,117443,1,0,0:0:0:0:
64,192,117648,1,0,0:0:0:0:
64,192,117854,128,4,119498:0:0:0:0:
320,192,117854,1,4,0:0:0:0:
448,192,117854,1,4,0:0:0:0:
448,192,118265,1,0,0:0:0:0:
192,192,118265,1,0,0:0:0:0:
320,192,118573,1,0,0:0:0:0:
448,192,118676,1,0,0:0:0:0:
192,192,118676,1,0,0:0:0:0:
320,192,118881,1,0,0:0:0:0:
192,192,118881,1,0,0:0:0:0:
448,192,119087,1,0,0:0:0:0:
192,192,119087,1,0,0:0:0:0:
320,192,119189,1,0,0:0:0:0:
448,192,119292,1,0,0:0:0:0:
192,192,119292,1,0,0:0:0:0:
320,192,119498,1,4,0:0:0:0:
448,192,119498,128,4,119806:0:0:0:0:
192,192,119909,1,4,0:0:0:0:
320,192,119909,128,4,120217:0:0:0:0:
64,192,120320,1,0,0:0:0:0:
192,192,120320,1,0,0:0:0:0:
448,192,120320,1,0,0:0:0:0:
320,192,120525,1,0,0:0:0:0:
448,192,120525,1,0,0:0:0:0:
64,192,120525,1,0,0:0:0:0:
448,192,120936,1,0,0:0:0:0:
320,192,121039,1,0,0:0:0:0:
192,192,121142,1,0,0:0:0:0:
64,192,121244,1,0,0:0:0:0:
320,192,121347,1,0,0:0:0:0:
448,192,121347,1,0,0:0:0:0:
192,192,121347,1,0,0:0:0:0:
64,192,121552,1,0,0:0:0:0:
192,192,121552,1,0,0:0:0:0:
320,192,121552,1,0,0:0:0:0:
320,192,121963,1,0,0:0:0:0:
448,192,121963,1,0,0:0:0:0:
192,192,122169,1,0,0:0:0:0:
320,192,122374,1,0,0:0:0:0:
448,192,122374,1,0,0:0:0:0:
192,192,122580,1,0,0:0:0:0:
320,192,122785,1,4,0:0:0:0:
448,192,122785,1,4,0:0:0:0:
64,192,122785,128,4,124429:0:0:0:0:
448,192,123196,1,0,0:0:0:0:
192,192,123196,1,0,0:0:0:0:
320,192,123299,1,0,0:0:0:0:
448,192,123505,1,0,0:0:0:0:
320,192,123607,1,0,0:0:0:0:
192,192,123710,1,0,0:0:0:0:
320,192,123813,1,0,0:0:0:0:
448,192,123813,1,0,0:0:0:0:
320,192,124224,1,4,0:0:0:0:
448,192,124224,1,4,0:0:0:0:
192,192,124429,1,4,0:0:0:0:
320,192,124429,1,4,0:0:0:0:
448,192,124635,1,4,0:0:0:0:
320,192,124635,1,4,0:0:0:0:
192,192,124635,1,4,0:0:0:0:
192,192,124840,1,4,0:0:0:0:
320,192,124840,1,4,0:0:0:0:
64,192,124840,1,4,0:0:0:0:
64,192,125251,128,0,126073:0:0:0:0:
192,192,125457,128,0,126073:0:0:0:0:
320,192,125662,128,0,126073:0:0:0:0:
448,192,125868,1,0,0:0:0:0:
448,192,126073,1,4,0:0:0:0:
448,192,126484,1,0,0:0:0:0:
192,192,126484,1,0,0:0:0:0:
64,192,126484,1,0,0:0:0:0:
64,192,126689,1,0,0:0:0:0:
320,192,126689,1,0,0:0:0:0:
448,192,126689,1,0,0:0:0:0:
320,192,126895,1,0,0:0:0:0:
448,192,126895,1,0,0:0:0:0:
192,192,126895,1,0,0:0:0:0:
320,192,127100,1,0,0:0:0:0:
192,192,127100,1,0,0:0:0:0:
64,192,127100,1,0,0:0:0:0:
64,192,127511,1,0,0:0:0:0:
192,192,127511,1,0,0:0:0:0:
320,192,127511,1,0,0:0:0:0:
448,192,127511,1,0,0:0:0:0:
448,192,127922,1,0,0:0:0:0:
320,192,127922,1,0,0:0:0:0:
64,192,128128,1,0,0:0:0:0:
192,192,128128,1,0,0:0:0:0:
192,192,128539,1,0,0:0:0:0:
320,192,128539,1,0,0:0:0:0:
64,192,128744,1,0,0:0:0:0:
192,192,128847,1,0,0:0:0:0:
320,192,128950,1,0,0:0:0:0:
448,192,129052,1,0,0:0:0:0:
64,192,129155,1,0,0:0:0:0:
320,192,129155,1,0,0:0:0:0:
448,192,129258,1,0,0:0:0:0:
320,192,129361,1,0,0:0:0:0:
192,192,129361,1,0,0:0:0:0:
64,192,129566,1,0,0:0:0:0:
192,192,129772,1,0,0:0:0:0:
320,192,129772,1,0,0:0:0:0:
448,192,129772,1,0,0:0:0:0:
64,192,129874,1,0,0:0:0:0:
320,192,129977,1,0,0:0:0:0:
192,192,129977,1,0,0:0:0:0:
448,192,130080,1,0,0:0:0:0:
64,192,130183,1,0,0:0:0:0:
320,192,130183,1,0,0:0:0:0:
192,192,130285,1,0,0:0:0:0:
320,192,130388,1,0,0:0:0:0:
64,192,130388,1,0,0:0:0:0:
448,192,130491,1,0,0:0:0:0:
64,192,130594,1,0,0:0:0:0:
192,192,130594,1,0,0:0:0:0:
320,192,130594,1,0,0:0:0:0:
448,192,130696,1,0,0:0:0:0:
320,192,130799,1,0,0:0:0:0:
64,192,130799,1,0,0:0:0:0:
192,192,130902,1,0,0:0:0:0:
64,192,131005,1,0,0:0:0:0:
448,192,131005,1,0,0:0:0:0:
320,192,131107,1,0,0:0:0:0:
192,192,131210,1,0,0:0:0:0:
448,192,131210,1,0,0:0:0:0:
64,192,131313,1,0,0:0:0:0:
192,192,131415,1,0,0:0:0:0:
320,192,131415,1,0,0:0:0:0:
448,192,131415,1,0,0:0:0:0:
448,192,131518,1,0,0:0:0:0:
320,192,131621,1,0,0:0:0:0:
64,192,131621,1,0,0:0:0:0:
192,192,131724,1,0,0:0:0:0:
64,192,131826,1,0,0:0:0:0:
448,192,131826,1,0,0:0:0:0:
320,192,131929,1,0,0:0:0:0:
64,192,132032,1,0,0:0:0:0:
192,192,132032,1,0,0:0:0:0:
448,192,132135,1,0,0:0:0:0:
64,192,132237,1,0,0:0:0:0:
192,192,132237,1,0,0:0:0:0:
320,192,132237,1,0,0:0:0:0:
448,192,132340,1,0,0:0:0:0:
320,192,132443,1,0,0:0:0:0:
192,192,132443,1,0,0:0:0:0:
64,192,132546,1,0,0:0:0:0:
448,192,132648,1,0,0:0:0:0:
192,192,132648,1,0,0:0:0:0:
320,192,132751,1,0,0:0:0:0:
64,192,132854,1,0,0:0:0:0:
448,192,132854,1,0,0:0:0:0:
192,192,132957,1,0,0:0:0:0:
64,192,133059,1,0,0:0:0:0:
320,192,133059,1,0,0:0:0:0:
448,192,133059,1,0,0:0:0:0:
192,192,133162,1,0,0:0:0:0:
320,192,133265,1,0,0:0:0:0:
448,192,133265,1,0,0:0:0:0:
64,192,133368,1,0,0:0:0:0:
192,192,133470,1,0,0:0:0:0:
448,192,133470,1,0,0:0:0:0:
320,192,133573,1,0,0:0:0:0:
192,192,133676,1,0,0:0:0:0:
64,192,133676,1,0,0:0:0:0:
320,192,133778,1,0,0:0:0:0:
64,192,133881,1,0,0:0:0:0:
192,192,133881,1,0,0:0:0:0:
448,192,133881,1,0,0:0:0:0:
320,192,133984,1,0,0:0:0:0:
192,192,134087,128,0,134292:0:0:0:0:
64,192,134087,1,0,0:0:0:0:
320,192,134189,1,0,0:0:0:0:
448,192,134292,1,0,0:0:0:0:
64,192,134395,1,0,0:0:0:0:
448,192,134498,128,0,134703:0:0:0:0:
192,192,134498,1,0,0:0:0:0:
320,192,134600,1,0,0:0:0:0:
64,192,134703,1,0,0:0:0:0:
64,192,134909,1,0,0:0:0:0:
320,192,134909,128,0,135525:0:0:0:0:
448,192,135525,1,0,0:0:0:0:
64,192,135525,1,0,0:0:0:0:
320,192,135628,1,0,0:0:0:0:
192,192,135731,1,0,0:0:0:0:
64,192,135833,1,0,0:0:0:0:
448,192,135936,128,4,137374:0:0:0:0:
320,192,135936,1,4,0:0:0:0:
192,192,135936,1,0,0:0:0:0:
64,192,136142,1,0,0:0:0:0:
64,192,136347,1,0,0:0:0:0:
192,192,136552,1,0,0:0:0:0:
192,192,136758,1,0,0:0:0:0:
320,192,136758,1,0,0:0:0:0:
320,192,136963,1,0,0:0:0:0:
192,192,137169,1,0,0:0:0:0:
320,192,137374,128,0,137580:0:0:0:0:
64,192,137374,1,0,0:0:0:0:
448,192,137580,1,4,0:0:0:0:
192,192,137580,128,4,139018:0:0:0:0:
64,192,137785,1,0,0:0:0:0:
320,192,137991,1,0,0:0:0:0:
448,192,138196,1,0,0:0:0:0:
64,192,138402,1,0,0:0:0:0:
448,192,138402,1,0,0:0:0:0:
64,192,138607,1,0,0:0:0:0:
320,192,138813,1,0,0:0:0:0:
64,192,139018,128,0,139224:0:0:0:0:
448,192,139018,1,0,0:0:0:0:
192,192,139224,1,4,0:0:0:0:
320,192,139224,128,4,140662:0:0:0:0:
192,192,139429,128,0,139635:0:0:0:0:
448,192,139635,1,0,0:0:0:0:
64,192,139840,1,0,0:0:0:0:
192,192,140046,1,0,0:0:0:0:
448,192,140251,1,0,0:0:0:0:
64,192,140457,1,0,0:0:0:0:
192,192,140662,128,0,140868:0:0:0:0:
448,192,140868,128,4,141278:0:0:0:0:
320,192,140868,1,0,0:0:0:0:
192,192,141278,1,0,0:0:0:0:
320,192,141278,128,4,141689:0:0:0:0:
64,192,141689,1,0,0:0:0:0:
192,192,141689,128,4,142100:0:0:0:0:
448,192,141792,1,0,0:0:0:0:
64,192,141895,1,0,0:0:0:0:
320,192,141998,1,0,0:0:0:0:
64,192,142100,128,4,142511:0:0:0:0:
448,192,142100,1,0,0:0:0:0:
320,192,142306,1,0,0:0:0:0:
192,192,142409,1,0,0:0:0:0:
448,192,142511,128,4,143950:0:0:0:0:
320,192,142511,1,4,0:0:0:0:
192,192,142717,1,0,0:0:0:0:
320,192,142717,1,0,0:0:0:0:
64,192,142922,1,0,0:0:0:0:
192,192,143128,1,0,0:0:0:0:
320,192,143333,1,0,0:0:0:0:
192,192,143333,1,0,0:0:0:0:
192,192,143539,1,0,0:0:0:0:
64,192,143539,1,0,0:0:0:0:
192,192,143744,1,0,0:0:0:0:
64,192,143950,1,0,0:0:0:0:
320,192,143950,128,0,144155:0:0:0:0:
192,192,144155,128,4,145594:0:0:0:0:
448,192,144155,1,4,0:0:0:0:
64,192,144361,1,0,0:0:0:0:
320,192,144361,1,0,0:0:0:0:
320,192,144566,1,0,0:0:0:0:
320,192,144772,1,0,0:0:0:0:
448,192,144772,1,0,0:0:0:0:
448,192,144977,1,0,0:0:0:0:
64,192,144977,1,0,0:0:0:0:
320,192,145183,1,0,0:0:0:0:
448,192,145388,1,0,0:0:0:0:
64,192,145594,128,0,145799:0:0:0:0:
320,192,145594,1,0,0:0:0:0:
320,192,145799,128,4,147237:0:0:0:0:
192,192,145799,1,4,0:0:0:0:
192,192,146005,1,0,0:0:0:0:
448,192,146210,1,0,0:0:0:0:
192,192,146415,1,0,0:0:0:0:
448,192,146415,1,0,0:0:0:0:
192,192,146621,1,0,0:0:0:0:
64,192,146621,1,0,0:0:0:0:
448,192,146826,1,0,0:0:0:0:
64,192,147032,1,0,0:0:0:0:
192,192,147237,128,0,147443:0:0:0:0:
448,192,147443,1,0,0:0:0:0:
448,192,147751,1,0,0:0:0:0:
320,192,147854,1,0,0:0:0:0:
64,192,147957,1,0,0:0:0:0:
192,192,147957,1,0,0:0:0:0:
320,192,148059,1,0,0:0:0:0:
448,192,148162,1,0,0:0:0:0:
64,192,148162,1,0,0:0:0:0:
320,192,148265,1,0,0:0:0:0:
192,192,148368,1,0,0:0:0:0:
448,192,148368,1,0,0:0:0:0:
64,192,148470,1,4,0:0:0:0:
320,192,148470,1,4,0:0:0:0:
320,192,148676,1,4,0:0:0:0:
64,192,148676,1,4,0:0:0:0:
192,192,148881,1,0,0:0:0:0:
320,192,149087,1,4,0:0:0:0:
448,192,149087,128,4,150525:0:0:0:0:
192,192,149292,1,0,0:0:0:0:
320,192,149292,1,0,0:0:0:0:
64,192,149498,1,0,0:0:0:0:
192,192,149703,1,0,0:0:0:0:
192,192,149909,1,0,0:0:0:0:
320,192,149909,1,0,0:0:0:0:
64,192,150114,1,0,0:0:0:0:
192,192,150114,1,0,0:0:0:0:
192,192,150320,1,0,0:0:0:0:
64,192,150525,1,0,0:0:0:0:
320,192,150525,128,0,150731:0:0:0:0:
192,192,150731,128,4,152169:0:0:0:0:
448,192,150731,1,4,0:0:0:0:
320,192,150936,1,0,0:0:0:0:
64,192,150936,1,0,0:0:0:0:
320,192,151142,1,0,0:0:0:0:
320,192,151347,1,0,0:0:0:0:
448,192,151347,1,0,0:0:0:0:
64,192,151552,1,0,0:0:0:0:
448,192,151552,1,0,0:0:0:0:
320,192,151758,1,0,0:0:0:0:
320,192,151963,1,0,0:0:0:0:
64,192,152169,128,0,152374:0:0:0:0:
448,192,152169,1,0,0:0:0:0:
320,192,152374,128,4,153813:0:0:0:0:
192,192,152374,1,4,0:0:0:0:
192,192,152580,1,0,0:0:0:0:
448,192,152785,1,0,0:0:0:0:
64,192,152991,1,0,0:0:0:0:
192,192,152991,1,0,0:0:0:0:
192,192,153196,1,0,0:0:0:0:
448,192,153402,1,0,0:0:0:0:
64,192,153607,1,0,0:0:0:0:
192,192,153813,128,0,154018:0:0:0:0:
448,192,154018,128,4,154429:0:0:0:0:
320,192,154018,1,0,0:0:0:0:
320,192,154224,1,0,0:0:0:0:
320,192,154429,128,4,154840:0:0:0:0:
192,192,154429,1,0,0:0:0:0:
64,192,154635,1,0,0:0:0:0:
192,192,154840,128,4,155251:0:0:0:0:
64,192,154840,1,0,0:0:0:0:
320,192,155046,1,0,0:0:0:0:
64,192,155251,128,4,155662:0:0:0:0:
448,192,155251,1,0,0:0:0:0:
320,192,155457,1,0,0:0:0:0:
448,192,155662,128,4,157100:0:0:0:0:
192,192,155662,1,0,0:0:0:0:
320,192,155868,1,0,0:0:0:0:
64,192,156073,1,0,0:0:0:0:
192,192,156073,1,0,0:0:0:0:
192,192,156278,1,0,0:0:0:0:
320,192,156484,1,0,0:0:0:0:
192,192,156484,1,0,0:0:0:0:
64,192,156689,1,0,0:0:0:0:
192,192,156895,1,0,0:0:0:0:
320,192,157100,128,0,157306:0:0:0:0:
64,192,157100,1,0,0:0:0:0:
448,192,157306,1,4,0:0:0:0:
192,192,157306,128,4,158744:0:0:0:0:
320,192,157511,1,0,0:0:0:0:
320,192,157717,1,0,0:0:0:0:
448,192,157922,1,0,0:0:0:0:
448,192,158128,1,0,0:0:0:0:
64,192,158128,1,0,0:0:0:0:
320,192,158333,1,0,0:0:0:0:
64,192,158333,1,0,0:0:0:0:
320,192,158539,1,0,0:0:0:0:
448,192,158744,1,0,0:0:0:0:
64,192,158744,128,0,158950:0:0:0:0:
192,192,158950,1,4,0:0:0:0:
320,192,158950,128,4,160388:0:0:0:0:
192,192,159155,1,0,0:0:0:0:
448,192,159361,1,0,0:0:0:0:
448,192,159566,1,0,0:0:0:0:
192,192,159772,1,0,0:0:0:0:
448,192,159977,1,0,0:0:0:0:
64,192,160183,1,0,0:0:0:0:
192,192,160388,128,0,160594:0:0:0:0:
448,192,160388,1,0,0:0:0:0:
63,192,160594,128,4,160799:0:0:0:0:
447,192,160594,128,4,160799:0:0:0:0:
320,192,160594,128,0,160799:0:0:0:0:
192,192,160902,1,0,0:0:0:0:
191,192,161005,128,4,161210:0:0:0:0:
63,192,161005,128,4,161210:0:0:0:0:
320,192,161005,128,0,161210:0:0:0:0:
448,192,161210,1,0,0:0:0:0:
64,192,161313,1,0,0:0:0:0:
447,192,161415,128,4,161621:0:0:0:0:
319,192,161415,128,4,161621:0:0:0:0:
191,192,161415,128,4,161621:0:0:0:0:
64,192,161621,1,0,0:0:0:0:
192,192,161724,1,0,0:0:0:0:
320,192,161826,1,0,0:0:0:0:
448,192,161929,1,0,0:0:0:0:
320,192,162032,1,0,0:0:0:0:
192,192,162135,1,0,0:0:0:0:
320,192,162237,1,0,0:0:0:0:
448,192,162237,128,4,165525:0:0:0:0:
64,192,162237,128,4,164909:0:0:0:0:
320,192,162443,1,0,0:0:0:0:
192,192,162648,1,0,0:0:0:0:
320,192,162648,1,0,0:0:0:0:
192,192,162854,1,0,0:0:0:0:
192,192,163059,1,0,0:0:0:0:
320,192,163059,1,0,0:0:0:0:
320,192,163265,1,0,0:0:0:0:
320,192,163470,1,0,0:0:0:0:
192,192,163470,1,0,0:0:0:0:
192,192,164087,1,0,0:0:0:0:
320,192,164292,1,0,0:0:0:0:
192,192,164498,1,0,0:0:0:0:
320,192,164703,1,0,0:0:0:0:
192,192,164909,128,4,165525:0:0:0:0:
320,192,165114,1,0,0:0:0:0:
64,192,165320,1,0,0:0:0:0:
320,192,165525,128,4,168813:0:0:0:0:
64,192,165525,128,4,168402:0:0:0:0:
192,192,165731,1,0,0:0:0:0:
192,192,165936,1,0,0:0:0:0:
448,192,165936,1,0,0:0:0:0:
448,192,166142,1,0,0:0:0:0:
192,192,166347,1,0,0:0:0:0:
448,192,166347,1,0,0:0:0:0:
192,192,166552,1,0,0:0:0:0:
192,192,166758,1,0,0:0:0:0:
448,192,166758,1,0,0:0:0:0:
448,192,167374,1,0,0:0:0:0:
192,192,167580,1,0,0:0:0:0:
448,192,167785,1,0,0:0:0:0:
192,192,167991,1,0,0:0:0:0:
448,192,168196,1,0,0:0:0:0:
448,192,168402,128,4,168813:0:0:0:0:
192,192,168402,1,0,0:0:0:0:
192,192,168607,1,0,0:0:0:0:
192,192,168813,128,4,172100:0:0:0:0:
64,192,168813,128,4,171484:0:0:0:0:
320,192,169018,1,0,0:0:0:0:
320,192,169224,1,0,0:0:0:0:
448,192,169224,1,0,0:0:0:0:
448,192,169429,1,0,0:0:0:0:
448,192,169635,1,0,0:0:0:0:
320,192,169635,1,0,0:0:0:0:
320,192,169840,1,0,0:0:0:0:
320,192,170046,1,0,0:0:0:0:
448,192,170046,1,0,0:0:0:0:
320,192,170662,1,0,0:0:0:0:
448,192,170868,1,0,0:0:0:0:
320,192,171073,1,0,0:0:0:0:
448,192,171278,1,0,0:0:0:0:
320,192,171484,128,4,172100:0:0:0:0:
448,192,171484,1,0,0:0:0:0:
64,192,171689,1,0,0:0:0:0:
448,192,171895,1,0,0:0:0:0:
64,192,172100,128,4,175388:0:0:0:0:
448,192,172100,128,4,174566:0:0:0:0:
320,192,172306,1,0,0:0:0:0:
320,192,172511,1,0,0:0:0:0:
192,192,172511,1,0,0:0:0:0:
192,192,172717,1,0,0:0:0:0:
192,192,172922,1,0,0:0:0:0:
320,192,172922,1,0,0:0:0:0:
320,192,173128,1,0,0:0:0:0:
192,192,173333,1,0,0:0:0:0:
320,192,173333,1,0,0:0:0:0:
320,192,173539,128,0,173950:0:0:0:0:
192,192,173950,128,0,174361:0:0:0:0:
320,192,174361,128,0,174566:0:0:0:0:
192,192,174566,128,4,175388:0:0:0:0:
320,192,174977,1,0,0:0:0:0:
448,192,175388,5,4,0:0:0:0:
320,192,175388,1,4,0:0:0:0:
64,192,175594,1,0,0:0:0:0:
320,192,175594,1,0,0:0:0:0:
192,192,175799,1,0,0:0:0:0:
448,192,176005,1,0,0:0:0:0:
320,192,176005,1,0,0:0:0:0:
448,192,176415,1,0,0:0:0:0:
192,192,176415,1,0,0:0:0:0:
320,192,176621,1,0,0:0:0:0:
64,192,176826,1,0,0:0:0:0:
192,192,176826,1,0,0:0:0:0:
192,192,177032,1,0,0:0:0:0:
320,192,177032,1,0,0:0:0:0:
64,192,177237,1,0,0:0:0:0:
320,192,177237,1,0,0:0:0:0:
192,192,177443,1,0,0:0:0:0:
448,192,177648,1,0,0:0:0:0:
320,192,177648,1,0,0:0:0:0:
320,192,178059,1,0,0:0:0:0:
64,192,178059,1,0,0:0:0:0:
192,192,178265,1,0,0:0:0:0:
64,192,178470,1,0,0:0:0:0:
320,192,178470,1,0,0:0:0:0:
192,192,178676,1,0,0:0:0:0:
448,192,178676,1,0,0:0:0:0:
64,192,178676,1,0,0:0:0:0:
320,192,178881,1,0,0:0:0:0:
192,192,178881,1,0,0:0:0:0:
192,192,179087,1,0,0:0:0:0:
64,192,179087,1,0,0:0:0:0:
448,192,179292,1,0,0:0:0:0:
320,192,179292,1,0,0:0:0:0:
192,192,179498,1,0,0:0:0:0:
320,192,179498,1,0,0:0:0:0:
64,192,179703,1,0,0:0:0:0:
192,192,179703,1,0,0:0:0:0:
192,192,179909,1,0,0:0:0:0:
320,192,179909,1,0,0:0:0:0:
320,192,180114,1,0,0:0:0:0:
64,192,180114,1,0,0:0:0:0:
448,192,180114,1,0,0:0:0:0:
192,192,180320,1,0,0:0:0:0:
448,192,180320,1,0,0:0:0:0:
64,192,180320,1,0,0:0:0:0:
320,192,180525,1,0,0:0:0:0:
448,192,180525,1,0,0:0:0:0:
192,192,180731,1,0,0:0:0:0:
320,192,180731,1,0,0:0:0:0:
448,192,180936,1,0,0:0:0:0:
320,192,180936,1,0,0:0:0:0:
64,192,181142,1,0,0:0:0:0:
192,192,181142,1,0,0:0:0:0:
192,192,181347,1,0,0:0:0:0:
320,192,181347,1,0,0:0:0:0:
320,192,181552,1,0,0:0:0:0:
448,192,181552,1,0,0:0:0:0:
64,192,181758,1,4,0:0:0:0:
448,192,181758,1,4,0:0:0:0:
320,192,181963,128,4,182169:0:0:0:0:
192,192,182169,128,4,182374:0:0:0:0:
448,192,182374,1,4,0:0:0:0:
64,192,182374,1,4,0:0:0:0:
192,192,183196,1,0,0:0:0:0:
64,192,183196,1,0,0:0:0:0:
448,192,183196,1,0,0:0:0:0:
320,192,183402,128,4,183710:0:0:0:0:
64,192,183813,128,4,184121:0:0:0:0:
192,192,183915,1,0,0:0:0:0:
320,192,184018,1,0,0:0:0:0:
448,192,184224,128,4,184532:0:0:0:0:
320,192,184532,1,0,0:0:0:0:
192,192,184635,1,0,0:0:0:0:
448,192,184840,1,0,0:0:0:0:
64,192,184840,1,0,0:0:0:0:
320,192,184840,1,0,0:0:0:0:
192,192,185251,128,4,185559:0:0:0:0:
64,192,185251,1,4,0:0:0:0:
448,192,185251,1,4,0:0:0:0:
320,192,185662,128,4,185970:0:0:0:0:
448,192,185662,1,4,0:0:0:0:
64,192,185662,1,4,0:0:0:0:
64,192,186484,1,0,0:0:0:0:
192,192,186484,1,0,0:0:0:0:
448,192,186484,1,0,0:0:0:0:
448,192,186792,1,0,0:0:0:0:
320,192,186895,1,0,0:0:0:0:
64,192,186895,1,0,0:0:0:0:
192,192,186998,1,0,0:0:0:0:
64,192,187100,1,0,0:0:0:0:
448,192,187203,1,0,0:0:0:0:
320,192,187306,1,0,0:0:0:0:
64,192,187409,1,0,0:0:0:0:
448,192,187409,1,0,0:0:0:0:
192,192,187511,1,0,0:0:0:0:
448,192,187614,1,0,0:0:0:0:
64,192,187614,1,0,0:0:0:0:
320,192,187717,1,0,0:0:0:0:
64,192,187820,1,0,0:0:0:0:
448,192,187820,1,0,0:0:0:0:
192,192,187922,1,0,0:0:0:0:
320,192,188025,1,0,0:0:0:0:
64,192,188025,1,0,0:0:0:0:
448,192,188128,1,0,0:0:0:0:
64,192,188231,1,0,0:0:0:0:
320,192,188231,1,0,0:0:0:0:
192,192,188333,1,0,0:0:0:0:
448,192,188333,1,0,0:0:0:0:
64,192,188539,1,4,0:0:0:0:
320,192,188539,1,4,0:0:0:0:
448,192,188539,1,4,0:0:0:0:
192,192,188950,1,0,0:0:0:0:
320,192,188950,1,0,0:0:0:0:
64,192,188950,1,0,0:0:0:0:
320,192,189155,1,0,0:0:0:0:
448,192,189155,1,0,0:0:0:0:
192,192,189155,1,0,0:0:0:0:
192,192,189566,1,0,0:0:0:0:
448,192,189566,1,0,0:0:0:0:
64,192,189566,1,0,0:0:0:0:
320,192,189772,1,0,0:0:0:0:
448,192,189772,1,0,0:0:0:0:
64,192,189772,1,0,0:0:0:0:
64,192,190183,1,0,0:0:0:0:
192,192,190183,1,0,0:0:0:0:
320,192,190183,1,0,0:0:0:0:
320,192,190388,1,0,0:0:0:0:
448,192,190388,1,0,0:0:0:0:
192,192,190388,1,0,0:0:0:0:
64,192,190799,1,0,0:0:0:0:
192,192,190799,1,0,0:0:0:0:
448,192,190799,1,0,0:0:0:0:
448,192,191005,1,0,0:0:0:0:
320,192,191005,1,0,0:0:0:0:
64,192,191005,1,0,0:0:0:0:
192,192,191415,1,0,0:0:0:0:
64,192,191415,1,0,0:0:0:0:
320,192,191415,1,0,0:0:0:0:
448,192,191415,1,0,0:0:0:0:
320,192,191826,1,0,0:0:0:0:
448,192,191826,1,0,0:0:0:0:
64,192,191826,1,0,0:0:0:0:
64,192,192032,1,0,0:0:0:0:
192,192,192032,1,0,0:0:0:0:
448,192,192032,1,0,0:0:0:0:
320,192,192237,1,0,0:0:0:0:
64,192,192443,1,0,0:0:0:0:
192,192,192443,1,0,0:0:0:0:
448,192,192443,1,0,0:0:0:0:
320,192,192648,1,0,0:0:0:0:
448,192,192648,1,0,0:0:0:0:
64,192,192854,1,0,0:0:0:0:
192,192,192854,1,0,0:0:0:0:
320,192,193059,1,0,0:0:0:0:
448,192,193059,1,0,0:0:0:0:
64,192,193059,1,0,0:0:0:0:
64,192,193265,1,0,0:0:0:0:
192,192,193265,1,0,0:0:0:0:
320,192,193470,1,0,0:0:0:0:
448,192,193470,1,0,0:0:0:0:
64,192,193676,128,0,194087:0:0:0:0:
192,192,193676,1,0,0:0:0:0:
192,192,193881,128,0,194292:0:0:0:0:
320,192,193881,1,0,0:0:0:0:
320,192,194087,128,0,194498:0:0:0:0:
448,192,194087,1,0,0:0:0:0:
448,192,194292,128,0,194703:0:0:0:0:
64,192,194292,1,0,0:0:0:0:
192,192,194498,1,0,0:0:0:0:
320,192,194703,1,0,0:0:0:0:
64,192,194909,1,0,0:0:0:0:
192,192,194909,1,0,0:0:0:0:
320,192,195114,1,4,0:0:0:0:
448,192,195114,128,4,196758:0:0:0:0:
320,192,196758,128,4,198402:0:0:0:0:
192,192,196758,1,4,0:0:0:0:
192,192,198402,128,4,200046:0:0:0:0:
64,192,198402,1,4,0:0:0:0:
64,192,200046,128,4,201689:0:0:0:0:
448,192,200046,1,4,0:0:0:0:
320,192,201689,1,0,0:0:0:0:
448,192,201689,128,4,203333:0:0:0:0:
64,192,202100,1,0,0:0:0:0:
320,192,202511,1,0,0:0:0:0:
192,192,202922,1,0,0:0:0:0:
320,192,203333,128,4,204977:0:0:0:0:
64,192,203333,1,0,0:0:0:0:
448,192,203744,1,0,0:0:0:0:
192,192,203744,1,0,0:0:0:0:
64,192,204155,1,0,0:0:0:0:
192,192,204155,128,0,204977:0:0:0:0:
64,192,204566,1,0,0:0:0:0:
448,192,204566,1,0,0:0:0:0:
448,192,204977,1,0,0:0:0:0:
64,192,204977,128,4,206621:0:0:0:0:
192,192,205388,1,0,0:0:0:0:
320,192,205388,1,0,0:0:0:0:
448,192,205799,1,0,0:0:0:0:
320,192,205799,1,0,0:0:0:0:
320,192,206210,1,0,0:0:0:0:
192,192,206210,1,0,0:0:0:0:
320,192,206415,1,0,0:0:0:0:
448,192,206415,1,0,0:0:0:0:
192,192,206621,128,4,208265:0:0:0:0:
320,192,208265,1,0,0:0:0:0:
448,192,208265,1,0,0:0:0:0:
448,192,208676,1,4,0:0:0:0:
64,192,208676,1,4,0:0:0:0:
320,192,208676,1,4,0:0:0:0:
192,192,208676,1,4,0:0:0:0:
448,192,209087,5,0,0:0:0:0:
320,192,209189,1,0,0:0:0:0:
64,192,209189,1,0,0:0:0:0:
192,192,209292,1,0,0:0:0:0:
64,192,209395,1,0,0:0:0:0:
320,192,209395,1,0,0:0:0:0:
192,192,209498,1,0,0:0:0:0:
448,192,209498,1,0,0:0:0:0:
320,192,209600,1,0,0:0:0:0:
192,192,209703,1,0,0:0:0:0:
64,192,209806,1,0,0:0:0:0:
448,192,209909,128,4,211347:0:0:0:0:
320,192,209909,1,4,0:0:0:0:
192,192,209909,1,0,0:0:0:0:
192,192,210114,1,0,0:0:0:0:
320,192,210114,1,0,0:0:0:0:
64,192,210320,1,0,0:0:0:0:
192,192,210525,1,0,0:0:0:0:
192,192,210731,1,0,0:0:0:0:
320,192,210731,1,0,0:0:0:0:
320,192,210936,1,0,0:0:0:0:
192,192,211142,1,0,0:0:0:0:
64,192,211347,1,0,0:0:0:0:
320,192,211347,128,0,211552:0:0:0:0:
192,192,211552,128,4,212991:0:0:0:0:
448,192,211552,1,4,0:0:0:0:
320,192,211758,1,0,0:0:0:0:
320,192,211963,1,0,0:0:0:0:
64,192,212169,1,0,0:0:0:0:
320,192,212169,1,0,0:0:0:0:
448,192,212374,1,0,0:0:0:0:
64,192,212374,1,0,0:0:0:0:
320,192,212580,1,0,0:0:0:0:
448,192,212580,1,0,0:0:0:0:
320,192,212785,1,0,0:0:0:0:
64,192,212991,128,0,213196:0:0:0:0:
448,192,212991,1,0,0:0:0:0:
192,192,213196,1,4,0:0:0:0:
320,192,213196,128,4,214635:0:0:0:0:
192,192,213402,1,0,0:0:0:0:
448,192,213607,1,0,0:0:0:0:
448,192,213813,1,0,0:0:0:0:
192,192,214018,1,0,0:0:0:0:
192,192,214224,1,0,0:0:0:0:
448,192,214224,1,0,0:0:0:0:
64,192,214429,1,0,0:0:0:0:
192,192,214635,128,0,214840:0:0:0:0:
448,192,214635,1,0,0:0:0:0:
448,192,214840,128,4,215251:0:0:0:0:
192,192,215046,1,0,0:0:0:0:
320,192,215251,128,4,215662:0:0:0:0:
64,192,215251,1,0,0:0:0:0:
448,192,215457,1,0,0:0:0:0:
192,192,215662,128,4,216073:0:0:0:0:
64,192,215662,1,0,0:0:0:0:
320,192,215868,1,0,0:0:0:0:
64,192,216073,128,4,216484:0:0:0:0:
448,192,216073,1,0,0:0:0:0:
192,192,216278,1,0,0:0:0:0:
320,192,216484,1,4,0:0:0:0:
448,192,216484,128,4,217922:0:0:0:0:
192,192,216689,1,0,0:0:0:0:
64,192,216895,1,0,0:0:0:0:
64,192,217100,1,0,0:0:0:0:
192,192,217306,1,0,0:0:0:0:
320,192,217306,1,0,0:0:0:0:
320,192,217511,1,0,0:0:0:0:
192,192,217717,1,0,0:0:0:0:
64,192,217922,1,0,0:0:0:0:
320,192,217922,128,0,218128:0:0:0:0:
192,192,218128,128,4,219566:0:0:0:0:
448,192,218128,1,4,0:0:0:0:
448,192,218333,1,0,0:0:0:0:
320,192,218539,1,0,0:0:0:0:
320,192,218744,1,0,0:0:0:0:
448,192,218950,1,0,0:0:0:0:
64,192,218950,1,0,0:0:0:0:
64,192,219155,1,0,0:0:0:0:
320,192,219361,1,0,0:0:0:0:
448,192,219566,1,0,0:0:0:0:
64,192,219566,128,0,219772:0:0:0:0:
192,192,219772,1,4,0:0:0:0:
320,192,219772,128,4,221210:0:0:0:0:
192,192,219977,1,0,0:0:0:0:
448,192,220183,1,0,0:0:0:0:
448,192,220388,1,0,0:0:0:0:
192,192,220594,1,0,0:0:0:0:
192,192,220799,1,0,0:0:0:0:
64,192,221005,1,0,0:0:0:0:
192,192,221210,128,0,221415:0:0:0:0:
320,192,221415,128,4,221724:0:0:0:0:
64,192,221415,128,4,221724:0:0:0:0:
448,192,221415,128,4,221724:0:0:0:0:
320,192,221826,128,4,222135:0:0:0:0:
192,192,221826,128,4,222135:0:0:0:0:
64,192,221826,128,4,222135:0:0:0:0:
192,192,222237,128,4,222546:0:0:0:0:
320,192,222237,128,4,222546:0:0:0:0:
448,192,222237,128,4,222546:0:0:0:0:
64,192,222648,1,0,0:0:0:0:
192,192,222751,1,0,0:0:0:0:
320,192,222854,1,0,0:0:0:0:
192,192,222957,1,0,0:0:0:0:
320,192,223059,1,4,0:0:0:0:
448,192,223059,128,4,224498:0:0:0:0:
192,192,223265,1,0,0:0:0:0:
64,192,223470,1,0,0:0:0:0:
64,192,223676,1,0,0:0:0:0:
192,192,223881,1,0,0:0:0:0:
320,192,223881,1,0,0:0:0:0:
320,192,224087,1,0,0:0:0:0:
192,192,224292,1,0,0:0:0:0:
64,192,224498,1,0,0:0:0:0:
320,192,224498,128,0,224703:0:0:0:0:
448,192,224703,1,4,0:0:0:0:
192,192,224703,128,4,226142:0:0:0:0:
448,192,224909,1,0,0:0:0:0:
320,192,225114,1,0,0:0:0:0:
320,192,225320,1,0,0:0:0:0:
448,192,225525,1,0,0:0:0:0:
64,192,225525,1,0,0:0:0:0:
64,192,225731,1,0,0:0:0:0:
320,192,225936,1,0,0:0:0:0:
448,192,226142,1,0,0:0:0:0:
64,192,226142,128,0,226347:0:0:0:0:
192,192,226347,1,4,0:0:0:0:
320,192,226347,128,4,227785:0:0:0:0:
192,192,226552,1,0,0:0:0:0:
448,192,226758,1,0,0:0:0:0:
448,192,226963,1,0,0:0:0:0:
192,192,227169,1,0,0:0:0:0:
192,192,227374,1,0,0:0:0:0:
64,192,227580,1,0,0:0:0:0:
192,192,227785,128,0,227991:0:0:0:0:
448,192,227991,128,4,228402:0:0:0:0:
320,192,227991,1,0,0:0:0:0:
320,192,228196,1,0,0:0:0:0:
320,192,228402,128,4,228813:0:0:0:0:
192,192,228402,1,0,0:0:0:0:
64,192,228607,1,0,0:0:0:0:
192,192,228813,128,4,229224:0:0:0:0:
64,192,228813,1,0,0:0:0:0:
320,192,229018,1,0,0:0:0:0:
64,192,229224,128,4,229635:0:0:0:0:
448,192,229224,1,0,0:0:0:0:
320,192,229429,1,0,0:0:0:0:
448,192,229635,128,4,231073:0:0:0:0:
192,192,229635,1,0,0:0:0:0:
320,192,229635,1,0,0:0:0:0:
192,192,229840,1,0,0:0:0:0:
64,192,230046,1,0,0:0:0:0:
64,192,230251,1,0,0:0:0:0:
192,192,230457,1,0,0:0:0:0:
320,192,230457,1,0,0:0:0:0:
320,192,230662,1,0,0:0:0:0:
192,192,230868,1,0,0:0:0:0:
64,192,231073,1,0,0:0:0:0:
320,192,231073,128,0,231278:0:0:0:0:
192,192,231278,128,4,232717:0:0:0:0:
448,192,231278,1,4,0:0:0:0:
448,192,231484,1,0,0:0:0:0:
320,192,231689,1,0,0:0:0:0:
320,192,231895,1,0,0:0:0:0:
64,192,232100,1,0,0:0:0:0:
448,192,232100,1,0,0:0:0:0:
64,192,232306,1,0,0:0:0:0:
320,192,232511,1,0,0:0:0:0:
448,192,232717,1,0,0:0:0:0:
64,192,232717,128,0,232922:0:0:0:0:
192,192,232922,1,4,0:0:0:0:
320,192,232922,128,4,234361:0:0:0:0:
192,192,233128,1,0,0:0:0:0:
448,192,233333,1,0,0:0:0:0:
64,192,233333,1,0,0:0:0:0:
64,192,233539,1,0,0:0:0:0:
192,192,233744,1,0,0:0:0:0:
448,192,233744,1,0,0:0:0:0:
448,192,233950,1,0,0:0:0:0:
64,192,234155,1,0,0:0:0:0:
192,192,234361,1,0,0:0:0:0:
64,192,234566,1,0,0:0:0:0:
320,192,234566,1,0,0:0:0:0:
192,192,234669,1,0,0:0:0:0:
320,192,234772,1,0,0:0:0:0:
448,192,234772,1,0,0:0:0:0:
192,192,234874,1,0,0:0:0:0:
64,192,234977,1,0,0:0:0:0:
320,192,234977,1,0,0:0:0:0:
192,192,235080,1,0,0:0:0:0:
320,192,235183,1,0,0:0:0:0:
64,192,235183,1,0,0:0:0:0:
448,192,235285,1,0,0:0:0:0:
64,192,235388,1,0,0:0:0:0:
192,192,235388,1,0,0:0:0:0:
320,192,235491,1,0,0:0:0:0:
192,192,235594,1,0,0:0:0:0:
448,192,235594,1,0,0:0:0:0:
64,192,235696,1,0,0:0:0:0:
192,192,235799,1,0,0:0:0:0:
448,192,235799,1,0,0:0:0:0:
320,192,235902,1,0,0:0:0:0:
192,192,236005,1,0,0:0:0:0:
448,192,236005,1,0,0:0:0:0:
64,192,236107,1,0,0:0:0:0:
320,192,236210,128,4,238470:0:0:0:0:
448,192,236210,1,4,0:0:0:0:
192,192,236415,1,0,0:0:0:0:
64,192,236621,1,0,0:0:0:0:
192,192,236826,1,0,0:0:0:0:
448,192,236826,1,0,0:0:0:0:
64,192,237032,1,0,0:0:0:0:
448,192,237237,1,0,0:0:0:0:
192,192,237443,1,0,0:0:0:0:
64,192,237648,1,4,0:0:0:0:
448,192,237648,1,4,0:0:0:0:
192,192,237854,1,0,0:0:0:0:
64,192,238059,1,0,0:0:0:0:
192,192,238265,1,0,0:0:0:0:
192,192,238470,128,4,239087:0:0:0:0:
64,192,238470,1,0,0:0:0:0:
448,192,238470,1,0,0:0:0:0:
448,192,238676,1,0,0:0:0:0:
320,192,238881,1,0,0:0:0:0:
64,192,239087,128,4,239292:0:0:0:0:
320,192,239087,1,0,0:0:0:0:
320,192,239292,128,4,240731:0:0:0:0:
448,192,239292,1,4,0:0:0:0:
64,192,239498,1,0,0:0:0:0:
192,192,239703,1,0,0:0:0:0:
448,192,239909,1,0,0:0:0:0:
64,192,240114,1,0,0:0:0:0:
192,192,240114,1,0,0:0:0:0:
192,192,240320,1,0,0:0:0:0:
448,192,240525,1,0,0:0:0:0:
192,192,240731,1,0,0:0:0:0:
64,192,240936,1,4,0:0:0:0:
448,192,240936,1,4,0:0:0:0:
192,192,240936,1,0,0:0:0:0:
192,192,241142,1,0,0:0:0:0:
320,192,241347,1,0,0:0:0:0:
64,192,241347,1,0,0:0:0:0:
448,192,241347,1,0,0:0:0:0:
192,192,241552,1,0,0:0:0:0:
64,192,241758,1,0,0:0:0:0:
320,192,241758,1,0,0:0:0:0:
448,192,241758,1,0,0:0:0:0:
320,192,241963,1,0,0:0:0:0:
64,192,242169,1,0,0:0:0:0:
192,192,242169,1,0,0:0:0:0:
448,192,242169,1,0,0:0:0:0:
320,192,242374,1,0,0:0:0:0:
448,192,242580,1,0,0:0:0:0:
192,192,242580,1,0,0:0:0:0:
64,192,242580,1,0,0:0:0:0:
192,192,242785,1,0,0:0:0:0:
320,192,242785,1,0,0:0:0:0:
192,192,242991,1,0,0:0:0:0:
320,192,242991,1,0,0:0:0:0:
448,192,243196,1,0,0:0:0:0:
64,192,243402,1,0,0:0:0:0:
192,192,243402,1,0,0:0:0:0:
192,192,243607,1,0,0:0:0:0:
320,192,243607,1,0,0:0:0:0:
448,192,243813,1,0,0:0:0:0:
320,192,243813,1,0,0:0:0:0:
64,192,244018,1,0,0:0:0:0:
192,192,244224,1,0,0:0:0:0:
320,192,244224,1,0,0:0:0:0:
448,192,244429,1,0,0:0:0:0:
64,192,244635,1,0,0:0:0:0:
192,192,244635,1,0,0:0:0:0:
448,192,244840,1,0,0:0:0:0:
192,192,245046,1,0,0:0:0:0:
320,192,245046,1,0,0:0:0:0:
448,192,245251,1,0,0:0:0:0:
192,192,245457,1,0,0:0:0:0:
320,192,245457,1,0,0:0:0:0:
448,192,245559,1,0,0:0:0:0:
64,192,245662,1,0,0:0:0:0:
320,192,245662,1,0,0:0:0:0:
192,192,245765,1,0,0:0:0:0:
320,192,245868,1,0,0:0:0:0:
448,192,245868,1,0,0:0:0:0:
448,192,246073,1,0,0:0:0:0:
192,192,246073,1,0,0:0:0:0:
64,192,246278,1,0,0:0:0:0:
320,192,246278,1,0,0:0:0:0:
192,192,246484,1,0,0:0:0:0:
64,192,246484,1,0,0:0:0:0:
320,192,246689,1,0,0:0:0:0:
448,192,246689,1,0,0:0:0:0:
64,192,246895,1,0,0:0:0:0:
192,192,246895,1,0,0:0:0:0:
320,192,247100,1,0,0:0:0:0:
64,192,247100,1,0,0:0:0:0:
192,192,247306,1,0,0:0:0:0:
448,192,247306,1,0,0:0:0:0:
320,192,247511,1,0,0:0:0:0:
64,192,247511,1,0,0:0:0:0:
64,192,247717,1,0,0:0:0:0:
448,192,247717,1,0,0:0:0:0:
320,192,247922,1,0,0:0:0:0:
192,192,247922,1,0,0:0:0:0:
448,192,248128,1,0,0:0:0:0:
64,192,248128,1,0,0:0:0:0:
64,192,248333,1,0,0:0:0:0:
192,192,248333,1,0,0:0:0:0:
320,192,248539,1,0,0:0:0:0:
448,192,248539,1,0,0:0:0:0:
64,192,248744,1,0,0:0:0:0:
448,192,248744,1,0,0:0:0:0:
320,192,248950,128,0,249361:0:0:0:0:
192,192,248950,1,0,0:0:0:0:
448,192,249361,128,0,249772:0:0:0:0:
64,192,249361,1,0,0:0:0:0:
320,192,249772,128,0,249977:0:0:0:0:
64,192,249772,1,0,0:0:0:0:
192,192,249977,128,0,250388:0:0:0:0:
448,192,249977,1,0,0:0:0:0:
64,192,250388,128,0,250594:0:0:0:0:
320,192,250388,1,0,0:0:0:0:
448,192,250594,128,0,251005:0:0:0:0:
192,192,250594,1,0,0:0:0:0:
64,192,251005,1,0,0:0:0:0:
192,192,251005,1,0,0:0:0:0:
320,192,251210,1,0,0:0:0:0:
448,192,251210,1,0,0:0:0:0:
64,192,251210,1,0,0:0:0:0:
64,192,251621,1,0,0:0:0:0:
192,192,251621,1,0,0:0:0:0:
448,192,251621,1,0,0:0:0:0:
320,192,251826,1,0,0:0:0:0:
448,192,251826,1,0,0:0:0:0:
64,192,251826,1,0,0:0:0:0:
64,192,252237,1,0,0:0:0:0:
192,192,252237,1,0,0:0:0:0:
320,192,252237,1,0,0:0:0:0:
448,192,252237,1,0,0:0:0:0:
64,192,252648,1,0,0:0:0:0:
192,192,252648,1,0,0:0:0:0:
320,192,252648,1,0,0:0:0:0:
448,192,252648,1,0,0:0:0:0:
448,192,253059,1,0,0:0:0:0:
320,192,253059,1,0,0:0:0:0:
192,192,253059,1,0,0:0:0:0:
64,192,253265,1,0,0:0:0:0:
192,192,253265,1,0,0:0:0:0:
320,192,253265,1,0,0:0:0:0:
320,192,253676,1,0,0:0:0:0:
192,192,253676,1,0,0:0:0:0:
448,192,253881,128,0,254498:0:0:0:0:
64,192,253881,128,0,254498:0:0:0:0:
448,192,254703,1,0,0:0:0:0:
192,192,254703,1,0,0:0:0:0:
320,192,254909,1,0,0:0:0:0:
192,192,255114,1,0,0:0:0:0:
448,192,255114,1,0,0:0:0:0:
320,192,255320,1,0,0:0:0:0:
64,192,255320,1,0,0:0:0:0:
192,192,255525,1,0,0:0:0:0:
448,192,255525,1,0,0:0:0:0:
448,192,255936,128,0,256347:0:0:0:0:
192,192,255936,128,0,256142:0:0:0:0:
320,192,256142,1,0,0:0:0:0:
320,192,256347,128,0,256552:0:0:0:0:
64,192,256347,1,0,0:0:0:0:
448,192,256552,1,0,0:0:0:0:
192,192,256552,128,0,256963:0:0:0:0:
448,192,256758,128,0,256963:0:0:0:0:
64,192,256758,1,0,0:0:0:0:
320,192,256963,1,0,0:0:0:0:
64,192,256963,128,0,257169:0:0:0:0:
448,192,257169,128,0,257580:0:0:0:0:
192,192,257169,1,0,0:0:0:0:
192,192,257580,1,0,0:0:0:0:
64,192,257580,1,0,0:0:0:0:
320,192,257785,1,0,0:0:0:0:
448,192,257785,1,0,0:0:0:0:
64,192,257785,1,0,0:0:0:0:
64,192,258196,1,0,0:0:0:0:
192,192,258196,1,0,0:0:0:0:
448,192,258196,1,0,0:0:0:0:
448,192,258402,1,0,0:0:0:0:
320,192,258402,1,0,0:0:0:0:
64,192,258402,1,0,0:0:0:0:
192,192,258607,1,0,0:0:0:0:
320,192,258710,1,0,0:0:0:0:
64,192,258813,1,0,0:0:0:0:
448,192,258813,1,0,0:0:0:0:
192,192,258813,1,0,0:0:0:0:
320,192,258915,1,0,0:0:0:0:
192,192,259018,1,0,0:0:0:0:
64,192,259121,1,0,0:0:0:0:
448,192,259224,1,0,0:0:0:0:
192,192,259224,1,0,0:0:0:0:
320,192,259224,1,0,0:0:0:0:
448,192,259635,1,0,0:0:0:0:
320,192,259635,1,0,0:0:0:0:
64,192,259840,1,0,0:0:0:0:
192,192,259840,1,0,0:0:0:0:
192,192,260251,1,0,0:0:0:0:
320,192,260251,1,0,0:0:0:0:
64,192,260457,1,4,0:0:0:0:
448,192,260457,1,4,0:0:0:0:
64,192,260765,1,0,0:0:0:0:
192,192,261073,1,4,0:0:0:0:
320,192,261073,1,4,0:0:0:0:
448,192,261278,1,0,0:0:0:0:
448,192,261484,1,0,0:0:0:0:
448,192,261587,1,0,0:0:0:0:
192,192,261689,1,4,0:0:0:0:
320,192,261689,1,4,0:0:0:0:
64,192,262100,1,4,0:0:0:0:
448,192,262100,1,4,0:0:0:0:
