osu file format v7

[General]
AudioFilename: Blangonga.mp3
AudioLeadIn: 3000
PreviewTime: 73139
Countdown: 0
SampleSet: Soft
StackLeniency: 0.7
Mode: 0
LetterboxInBreaks: 1

[Editor]
Bookmarks: 45376
DistanceSpacing: 1
BeatDivisor: 4
GridSize: 16

[Metadata]
Title:Blangonga
Artist:Koda Masato
Creator:H-boy
Version:Two Roars in the Snow
Source:Hunting Music Collection II ~Roar chapter~
Tags:Monster Hunter 2nd G

[Difficulty]
HPDrainRate:7
CircleSize:5
OverallDifficulty:7
SliderMultiplier:1.7
SliderTickRate:1

[Events]
//Background and Video events
0,0,"BG.jpg"
//Break Periods
//Storyboard Layer 0 (Background)
//Storyboard Layer 1 (Fail)
//Storyboard Layer 2 (Pass)
//Storyboard Layer 3 (Foreground)
//Storyboard Sound Samples
//Background Colour Transformations
3,100,163,162,255

[TimingPoints]
597,447.794611538174,4,2,1,40,1,0
3171,-100,4,1,1,40,0,0
3395,-100,4,2,1,40,0,0
9664,-200,4,2,1,70,0,0
10336,-100,4,1,2,70,0,0
10448,-100,4,1,2,70,0,1
10560,-100,4,1,2,50,0,1
20635,-100,4,1,1,50,0,1
20859,-100,4,1,2,50,0,1
24554,-100,4,1,2,50,0,0
53324,-100,4,1,1,40,0,0
53548,-100,4,1,2,50,0,0
67654,-100,4,1,1,50,0,0
67878,-100,4,1,2,50,0,0
81759,-100,4,2,1,50,0,0
89148,-100,4,1,2,50,0,0

[Colours]
Combo1 : 255,255,255
Combo2 : 0,128,192
Combo3 : 88,88,252

[HitObjects]
256,304,597,1,8
224,240,820,1,0
160,240,1044,1,0
144,176,1268,1,8
80,144,1492,1,0
96,80,1716,1,8
160,96,1940,1,8
224,80,2164,5,8
272,128,2388,1,8
320,80,2612,1,0
272,32,2835,2,8,B|384:32,1,85,0|8
432,32,3283,1,4
272,192,3731,1,0
208,192,4179,5,2
272,192,4403,1,2
256,192,4515,12,0,5746
272,192,5970,5,2
336,192,6194,1,2
256,192,6306,12,0,7537
256,192,7761,5,2
256,192,7985,1,2
256,192,8097,12,0,9328
256,192,9552,5,2
256,192,9776,2,0,B|400:192,1,127.5,2|4
400,192,10560,5,0
416,192,10672,1,0
432,192,10784,1,0
448,192,10896,1,0
496,112,11120,1,0
496,112,11232,1,0
496,112,11344,1,0
496,112,11456,1,0
496,112,11567,1,0
464,32,11791,2,0,B|424:24|376:16,1,85,4|0
288,16,12239,5,0
288,16,12351,1,0
288,16,12463,1,0
208,16,12687,2,0,B|144:64|176:112,1,85,4|0
240,112,13135,1,0
166,154,13359,1,0
240,208,13583,1,0
240,208,13694,1,0
240,208,13806,1,0
304,256,14030,5,4
320,272,14142,1,0
336,288,14254,1,0
416,288,14478,2,0,B|448:352,3,42.5
435,326,14926,1,0
480,256,15150,5,0
480,256,15374,2,0,B|496:216|488:160,1,85,4|0
448,96,15822,1,0
448,96,15933,1,0
448,96,16045,1,0
368,80,16269,2,0,B|304:96|304:152,1,85
304,144,16605,1,0
304,160,16717,1,0
272,240,16941,1,0
192,272,17165,1,0
192,272,17277,1,0
192,272,17389,1,0
112,240,17613,5,4
64,176,17837,1,0
128,112,18060,1,0
208,112,18284,2,0,B|208:64,1,42.5
208,64,18508,1,0
288,64,18732,2,0,B|368:64|368:64,1,42.5
336,64,18956,1,4
400,112,19180,1,0
448,192,19404,5,4
400,256,19628,1,0
336,304,19852,1,0
320,304,19964,1,0
304,304,20076,1,0
288,304,20188,1,0
272,304,20299,2,0,B|168:304,1,85
144,240,20747,1,4
144,240,20859,1,0
144,240,20971,1,0
80,192,21195,5,4
144,144,21419,1,0
144,144,21531,1,0
144,144,21643,1,4
208,192,21867,1,0
288,192,22091,1,4
304,192,22203,1,0
320,192,22315,1,0
336,192,22426,1,0
352,192,22538,2,0,B|448:192,1,85,4|0
496,128,22986,5,4
496,128,23098,1,0
496,128,23210,1,0
432,64,23434,1,4
432,64,23546,1,0
432,64,23658,1,0
432,64,23770,1,0
432,64,23882,2,0,B|384:32|320:64,1,85,4|0
272,64,24330,1,4
256,64,24442,1,0
240,64,24554,1,0
160,64,24777,6,0,B|64:64|40:144|64:216|176:216,1,255
235,214,25673,1,0
235,214,25897,2,0,B|347:214|347:214,1,85,0|0
405,214,26345,1,0
405,213,26457,1,0
405,214,26569,1,0
464,273,26792,1,0
464,273,26904,1,0
464,273,27016,1,8
403,333,27240,1,0
317,333,27464,2,0,B|309:285|253:277,3,85,0|0|8|0
192,240,28360,6,0,B|192:144|264:104|336:144|392:136,1,255
336,64,29255,1,0
416,64,29479,2,0,B|512:64|512:64,1,85
480,144,29927,1,0
480,160,30039,1,0
480,176,30151,1,0
416,224,30375,1,0
416,240,30487,1,0
416,256,30599,1,8
480,304,30822,1,0
480,320,30935,1,0
480,336,31047,2,0,B|400:352|368:352|368:352,1,85
352,272,31494,1,8
288,224,31718,1,0
208,256,31942,6,0,B|144:248|80:272|24:264,1,170,4|8
64,192,32614,2,0,B|112:176|192:184|248:168,1,170
192,96,33286,2,0,B|128:88|64:112|8:104,1,170,8|0
16,16,33957,1,0
16,16,34069,1,0
16,16,34181,1,8
96,32,34405,1,0
176,16,34629,1,0
256,48,34853,1,0
336,32,35077,1,8
336,32,35189,1,0
336,32,35301,1,0
320,112,35524,6,0,B|400:144|496:144,1,170
432,208,36196,2,0,B|352:240|256:240,1,170
256,320,36868,2,0,B|176:288|80:288,1,170
64,208,37540,1,0
64,208,37652,1,0
64,208,37763,1,8
32,128,37987,1,0
32,128,38099,1,0
32,128,38211,1,0
112,96,38435,1,0
112,96,38547,1,0
112,96,38659,1,8
112,96,38883,1,0
192,128,39107,6,0,B|256:64|368:80|400:160|368:256|304:288|176:240,1,425
112,224,40450,1,0
48,176,40674,1,0
112,128,40898,6,0,B|96:32|304:32|240:192|464:192|416:16,1,425
480,96,42241,1,0
480,176,42465,1,0
400,144,42689,6,0,B|256:144|176:256|240:368|432:336,1,425
448,256,44033,1,0
448,256,44256,1,0
352,224,44480,6,0,B|288:208|288:208|240:320|176:288|112:256|112:256|64:304,1,340,0|4
48,208,45600,1,0
64,192,45712,1,0
80,176,45824,2,0,B|192:176,1,85,4|0
224,112,46272,5,0
240,128,46383,1,0
256,144,46495,2,0,B|352:192,1,85,0|8
416,160,46943,5,0
432,192,47054,1,0
448,224,47166,2,0,B|454:331,1,85,0|0
368,288,47615,5,8
336,304,47726,1,0
304,320,47838,2,0,B|214:380,2,85,0|0|0
224,288,48511,1,8
192,272,48622,1,0
160,256,48734,1,0
144,176,48958,2,0,B|208:208,3,42.5
182,195,49406,1,8
224,112,49630,1,0
256,32,49854,5,0
224,48,49966,1,0
192,64,50078,2,0,B|80:64,1,85,0|8
176,128,50526,5,0
208,144,50638,1,0
240,160,50750,2,0,B|352:160,1,85
416,208,51197,5,8
384,224,51309,1,0
352,240,51421,2,0,B|240:240,2,85
304,320,52093,1,8
264,320,52205,1,0
224,320,52317,1,0
136,280,52541,2,0,B|200:280,3,42.5
178,280,52988,1,8
192,192,53212,1,0
128,144,53436,6,0,B|224:104,1,85,4|0
224,80,53772,1,0
272,80,53884,2,0,B|368:40,1,85,4|0
384,64,54220,1,0
416,80,54332,2,0,B|512:40,2,85,4|0|0
400,160,55004,5,0
336,224,55227,1,0
272,160,55451,1,0
240,240,55675,1,0
192,176,55899,1,0
160,256,56123,1,0
112,192,56347,1,0
64,112,56571,1,4
64,112,56683,1,0
64,112,56795,1,0
64,112,56907,1,0
64,112,57019,6,0,B|160:72,1,85
176,96,57355,1,0
224,80,57467,2,0,B|320:40,1,85
336,64,57803,1,0
384,64,57915,2,0,B|480:24,2,85
432,128,58587,5,0
416,208,58810,1,0
336,176,59034,1,0
352,256,59258,1,0
272,304,59482,1,0
224,240,59706,1,0
144,288,59930,1,0
176,208,60154,1,4
176,208,60265,1,0
176,208,60377,1,0
176,208,60489,1,0
176,208,60601,5,0
112,160,60825,1,0
32,192,61049,1,0
32,192,61273,2,0,B|0:80|144:64,1,170
192,80,61944,2,0,B|256:112|304:64|368:80,1,170,0|0
358,78,62504,5,0
358,78,62616,1,0
358,78,62728,1,0
358,78,62840,1,0
352,160,63064,1,0
400,224,63288,1,0
320,272,63512,1,0
240,240,63736,1,0
176,288,63959,1,0
96,256,64183,5,4
48,192,64407,1,0
112,144,64631,1,0
160,208,64855,2,0,B|208:160|128:96|192:48,1,170
256,96,65527,2,4,B|195:141|291:205|243:253,1,170
336,256,66198,2,0,B|400:192|368:96,1,170
320,176,66870,2,0,B|256:112|288:16,1,170
128,48,67766,5,4
80,128,67990,1,0
80,128,68102,1,0
80,128,68213,1,8
48,208,68437,1,0
48,208,68661,1,0
48,208,68773,1,0
48,208,68885,1,0
48,208,68997,1,0
48,208,69109,1,8
16,288,69333,1,0
112,368,69557,5,4
160,304,69781,1,0
160,304,69893,1,0
160,304,70005,1,8
208,240,70229,1,0
208,240,70452,1,0
208,240,70564,1,0
208,240,70676,1,0
208,240,70788,1,0
208,240,70900,1,8
224,160,71124,6,4,B|320:160|320:160,1,85,0|4
368,96,71572,1,0
368,96,71684,1,0
368,96,71796,1,8
448,96,72020,1,0
448,96,72132,1,0
448,96,72244,1,0
480,176,72468,1,0
480,176,72579,1,0
480,176,72691,1,8
480,176,72915,2,0,B|480:272|480:272,1,85,0|4
400,304,73363,5,0
400,304,73475,1,0
400,304,73587,1,8
336,352,73811,2,0,B|208:352|208:352,1,85
176,304,74259,1,0
176,304,74371,1,0
176,304,74483,1,8
176,304,74707,2,0,B|48:304|48:304,1,85,0|4
64,224,75154,6,0,B|32:112|32:112,1,85,0|8
32,64,75602,2,0,B|128:32|128:32,1,85
160,48,75938,1,0
208,32,76050,2,0,B|304:48|304:48,1,85,0|8
384,48,76498,2,4,B|496:48|496:48,1,85,0|4
464,128,76945,6,0,B|416:224|416:224,1,85,0|8
352,256,77393,2,0,B|400:336|400:336,1,85
352,352,77729,1,0
352,352,77841,2,0,B|240:352|240:352,1,85,0|8
176,352,78289,2,0,B|80:352|80:352,1,85,0|4
48,288,78737,5,0
48,288,78849,1,0
48,288,78961,1,8
96,224,79184,2,0,B|32:128|32:128,1,85
16,128,79520,1,0
16,80,79632,2,0,B|96:16|96:16,1,85,0|8
160,32,80080,1,4
160,32,80304,1,4
240,32,80528,5,0
240,32,80640,1,0
240,32,80752,1,8
304,80,80976,2,0,B|416:80|416:80,1,85
416,112,81311,1,0
464,112,81423,2,0,B|464:224|464:224,1,85,8|4
464,288,81871,6,0,B|368:336|368:336,1,85,0|0
304,304,82319,1,0
304,304,82431,1,0
304,304,82543,1,8
224,336,82767,1,0
144,336,82991,1,0
128,336,83103,1,0
112,336,83215,1,0
96,336,83327,1,0
80,336,83439,1,8
32,272,83662,6,0,B|32:160|32:160,1,85
96,128,84110,1,0
96,128,84222,1,0
96,128,84334,1,8
64,48,84558,2,0,B|176:48|176:48,1,85
240,48,85006,1,0
240,48,85118,1,0
240,48,85230,1,8
224,128,85453,1,0
304,96,85677,6,0,B|384:144|384:144,1,85
368,224,86125,2,0,B|448:272|448:272,1,85,8|0
368,224,86573,6,0,B|288:304|288:304,1,85
272,208,87021,2,0,B|208:272|208:272,1,85,8|0
256,192,87469,12,4,89260
