osu file format v7

[General]
AudioFilename: Blangonga.mp3
AudioLeadIn: 3000
PreviewTime: 73139
Countdown: 0
SampleSet: Soft
StackLeniency: 0.7
Mode: 0
LetterboxInBreaks: 1

[Editor]
Bookmarks: 45376
DistanceSpacing: 1
BeatDivisor: 4
GridSize: 16

[Metadata]
Title:Blangonga
Artist:Koda Masato
Creator:H-boy
Version:The Ruler of the Snow
Source:Hunting Music Collection II ~Roar chapter~
Tags:Monster Hunter 2nd G

[Difficulty]
HPDrainRate:4
CircleSize:4
OverallDifficulty:5
SliderMultiplier:1.5
SliderTickRate:1

[Events]
//Background and Video events
0,0,"BG.jpg"
//Break Periods
//Storyboard Layer 0 (Background)
//Storyboard Layer 1 (Fail)
//Storyboard Layer 2 (Pass)
//Storyboard Layer 3 (Foreground)
//Storyboard Sound Samples
//Background Colour Transformations
3,100,163,162,255

[TimingPoints]
597,447.794611538174,4,2,1,40,1,0
3171,-100,4,1,1,40,0,0
3395,-100,4,2,1,40,0,0
3955,-100,4,2,1,70,0,0
10448,-100,4,1,2,70,0,1
20635,-100,4,1,1,50,0,1
20859,-100,4,1,2,50,0,1
24554,-100,4,1,2,50,0,0
53324,-100,4,1,1,40,0,0
53548,-100,4,1,2,50,0,0
67654,-100,4,1,1,50,0,0
67878,-100,4,1,2,50,0,0
81759,-100,4,2,1,50,0,0
89148,-100,4,1,2,50,0,0

[Colours]
Combo1 : 255,255,255
Combo2 : 0,128,192
Combo3 : 88,88,252

[HitObjects]
288,336,597,2,0,B|192:336|144:272|144:272,1,150,8|0
144,208,1268,1,8
80,80,1716,1,8
160,80,1940,1,8
240,80,2164,5,8
320,80,2388,1,8
320,80,2835,2,8,B|432:80,1,75,0|8
464,80,3283,1,4
192,192,4179,5,2
256,192,4403,12,2,5970
256,192,6194,12,2,7761
256,192,7985,12,2,9552
64,192,10000,6,0,B|224:192,1,150
288,192,10672,1,0
416,96,11120,1,0
336,96,11344,1,0
336,96,11791,2,0,B|288:96|256:96,1,75,4|0
208,48,12239,5,0
64,48,12687,2,0,B|48:96|32:144,1,75,4|0
40,194,13135,1,0
39,195,13359,1,0
112,192,13583,1,0
192,192,13806,1,0
192,192,14030,6,0,B|256:272|256:272,1,75,4|0
352,352,14702,1,0
352,352,14926,1,0
448,240,15374,2,0,B|512:176|512:176,1,75,4|0
480,112,15822,5,0
480,112,16269,2,0,B|384:112|384:112,1,75
336,144,16717,1,0
256,144,16941,1,0
256,144,17165,2,0,B|160:144|160:144,1,75
128,192,17613,5,4
64,144,17837,1,0
128,96,18060,1,0
272,96,18508,1,0
272,96,18956,1,0
352,96,19180,1,0
416,144,19404,5,4
416,224,19628,1,0
480,272,19852,1,0
480,272,20299,2,0,B|480:368,1,75
480,347,20747,1,4
329,347,21195,5,4
288,288,21419,1,0
208,288,21643,1,0
161,346,21867,1,0
112,288,22091,1,0
112,144,22538,2,0,B|192:144,1,75,4|0
256,144,22986,5,4
336,144,23210,1,0
448,48,23658,1,0
368,48,23882,2,0,B|272:48|272:48,1,75
224,48,24330,1,4
224,48,24554,1,0
144,48,24777,6,0,B|64:128|240:256|32:336|32:336,1,300
208,336,26121,1,0
352,336,26569,1,0
352,336,26792,1,0
352,336,27016,1,8
464,240,27464,1,0
464,240,27912,1,8
380,136,28360,6,0,B|256:64|176:240|80:96|80:96,1,300
48,256,29703,1,0
176,336,30151,1,0
256,336,30375,1,0
176,336,30599,1,8
320,336,31047,1,0
320,336,31494,1,8
320,192,31942,6,0,B|480:192|512:96|512:96,2,225
176,192,33733,1,0
96,192,33957,1,0
16,192,34181,1,8
96,64,34629,1,0
240,64,35077,1,8
384,64,35524,6,0,B|480:112|496:224|464:288|464:288,2,225
240,64,37316,1,0
160,64,37540,1,0
80,64,37763,1,8
16,208,38211,1,0
160,208,38659,1,8
256,192,39107,12,0,40450
256,192,40898,12,0,42241
256,192,42689,12,0,44033
400,128,44480,6,0,B|240:96|160:240|240:368|416:336,1,450,0|4
464,192,46272,1,0
464,112,46495,1,0
464,112,46719,1,8
336,32,47167,5,0
192,32,47615,1,8
112,160,48063,1,0
32,160,48287,1,0
32,160,48511,1,8
80,304,48958,2,0,B|80:416|80:416,2,75,0|0|8
160,304,49630,1,0
224,256,49854,5,0
368,256,50302,1,8
304,128,50750,2,0,B|400:128,1,75
448,128,51197,5,8
448,48,51421,2,0,B|352:48,2,75
448,48,52093,1,8
304,64,52541,2,0,B|256:128,2,75,0|8|0
368,112,53212,1,0
432,160,53436,6,0,B|432:240,1,75,4|0
352,224,53884,2,0,B|352:320,1,75,4|0
272,272,54332,2,0,B|272:384,2,75,4|0|0
192,272,55004,5,0
192,272,55227,1,0
80,160,55675,1,0
80,160,55899,1,0
144,112,56123,1,0
144,112,56347,1,0
224,112,56571,1,4
224,112,57019,6,0,B|304:80,1,75
320,160,57467,2,0,B|400:128,1,75
416,208,57915,2,0,B|496:176,2,75
416,288,58587,5,0
416,288,58810,1,0
288,352,59258,1,0
288,352,59482,1,0
208,352,59706,1,0
208,352,59930,1,0
208,352,60154,1,4
64,288,60601,5,0
16,224,60825,1,0
64,160,61049,2,0,B|224:160|224:160,1,150
352,224,61944,2,0,B|176:224|176:224,1,150,0|4
240,80,62840,1,0
384,96,63288,1,0
437,149,63512,1,0
422,222,63736,1,0
347,222,63959,1,0
324,150,64183,5,4
173,150,64631,2,0,B|160:256|240:288|240:288,1,150
377,281,65527,2,4,B|457:201|425:137|425:137,1,150
172,149,66422,2,0,B|159:255|239:287|239:287,1,150
432,64,67766,5,4
352,64,67990,1,0
352,64,68213,1,8
208,112,68661,1,0
128,112,68885,1,0
64,160,69109,2,0,B|64:320|64:320,1,150,0|4
128,352,69781,5,0
208,352,70005,1,8
336,288,70452,1,0
416,288,70676,1,0
480,240,70900,2,0,B|480:64|480:64,1,150,0|4
336,48,71796,5,8
192,96,72244,1,0
112,96,72468,1,0
112,96,72691,1,8
48,144,72915,2,0,B|48:256|48:256,1,75,0|4
128,336,73587,5,8
208,336,73811,2,0,B|304:336|304:336,1,75
416,272,74483,1,8
416,272,74707,2,0,B|528:272|528:272,1,75,0|4
464,192,75154,6,0,B|464:96|464:96,1,75,0|8
320,80,75826,2,0,B|224:80|224:80,2,75
400,80,76498,2,4,B|400:192|400:192,1,75,0|4
400,304,77169,2,0,B|512:304|512:304,2,75,8|0|0
320,304,77841,2,0,B|240:304|240:304,1,75,0|8
96,304,78513,1,4
96,304,78737,6,0,B|96:208|96:208,1,75,0|8
96,160,79184,2,0,B|32:80|32:80,1,75
192,32,79856,1,8
112,32,80080,1,4
192,32,80304,1,4
336,32,80752,5,8
384,96,80976,2,0,B|464:96|464:96,1,75
496,160,81423,2,0,B|496:256|496:256,1,75,0|4
368,320,82095,5,0
288,320,82319,1,0
208,320,82543,1,8
64,272,82991,1,0
0,224,83215,1,0
64,176,83439,1,8
128,224,83662,6,0,B|240:224|240:224,1,75
352,224,84334,1,8
352,224,84558,2,0,B|448:224|448:224,1,75
496,96,85230,1,8
352,96,85677,1,8
272,96,85901,1,0
192,96,86125,1,0
80,192,86573,1,8
80,192,86797,1,0
256,192,87021,12,4,89260
