osu file format v7

[General]
AudioFilename: Blangonga.mp3
AudioLeadIn: 3000
PreviewTime: 73139
Countdown: 0
SampleSet: Normal
StackLeniency: 0.7
Mode: 0
LetterboxInBreaks: 1

[Editor]
Bookmarks: 45376
DistanceSpacing: 1
BeatDivisor: 4
GridSize: 16

[Metadata]
Title:Blangonga
Artist:Koda Masato
Creator:H-boy
Version:Blangonga Training
Source:Hunting Music Collection II ~Roar chapter~
Tags:Monster Hunter 2nd G

[Difficulty]
HPDrainRate:5
CircleSize:4
OverallDifficulty:4
SliderMultiplier:0.999999999999999
SliderTickRate:2

[Events]
//Background and Video events
0,0,"BG.jpg"
//Break Periods
//Storyboard Layer 0 (Background)
//Storyboard Layer 1 (Fail)
//Storyboard Layer 2 (Pass)
//Storyboard Layer 3 (Foreground)
//Storyboard Sound Samples
//Background Colour Transformations
3,100,163,162,255

[TimingPoints]
597,447.794611538174,4,2,1,40,1,0
3171,-100,4,1,1,40,0,0
3395,-100,4,2,1,40,0,0
3955,-100,4,2,1,70,0,0
10448,-100,4,1,2,70,0,1
20635,-100,4,1,1,50,0,1
20859,-100,4,1,2,50,0,1
24330,-100,4,1,2,50,0,0
53324,-100,4,1,1,40,0,0
53548,-100,4,1,2,50,0,0
67654,-100,4,1,1,50,0,0
67878,-100,4,1,2,50,0,0
81759,-100,4,2,1,50,0,0
89148,-100,4,1,2,50,0,0

[Colours]
Combo1 : 255,255,255
Combo2 : 0,128,192
Combo3 : 88,88,252

[HitObjects]
256,320,597,2,0,B|144:336|48:272|32:144|32:144,1,300,0|8
128,160,2388,1,8
192,80,2835,2,8,B|304:80,1,99.9999999999999,0|4
240,272,4179,6,0,B|304:336|432:304|464:192|496:128|448:80|416:64,1,400,2|2
320,64,6418,2,0,B|256:176|112:64|48:192|48:192,1,300,0|2
144,224,8209,2,0,B|208:336|352:224|416:352|416:352,1,300,0|2
448,144,10448,5,0
304,144,11120,1,0
304,144,11344,1,0
224,80,11791,2,0,B|176:80|112:80,1,99.9999999999999,4|0
48,144,12687,5,0
48,240,13135,1,0
48,240,13359,1,0
96,336,13806,1,0
96,336,14030,1,4
192,336,14478,2,0,B|304:336|304:336,1,99.9999999999999
384,288,15374,6,0,B|464:208|464:208,1,99.9999999999999,4|0
480,176,16045,1,0
480,176,16269,2,0,B|384:112|384:112,1,99.9999999999999
304,96,17165,1,4
208,96,17613,5,0
112,96,18060,1,0
112,96,18284,2,0,B|112:32,1,50
112,144,18956,1,0
48,224,19404,5,4
112,304,19852,1,0
112,304,20076,1,0
112,304,20299,2,0,B|224:304,1,99.9999999999999,0|4
320,304,21195,5,4
400,240,21643,1,0
400,240,21867,1,0
320,176,22315,1,0
320,176,22538,2,0,B|208:176,1,99.9999999999999,4|0
112,176,23434,1,4
64,96,23882,2,0,B|160:32|160:32,1,99.9999999999999,4|4
240,64,24777,6,0,B|160:144|320:224|160:352|160:352,1,300
70,342,26569,1,0
70,342,27016,1,8
64,240,27464,2,0,B|64:176|64:176,2,50,0|0|8
160,240,28360,6,0,B|160:144|256:128|416:224|480:64,1,400
384,32,30599,1,8
288,32,31047,2,0,B|208:32|176:32|176:32,1,99.9999999999999,0|8
256,192,31942,12,0,33286
256,192,33733,5,0
256,96,34181,1,8
256,96,34405,1,0
160,96,34853,1,0
160,96,35077,1,8
256,192,35524,12,0,36868
256,192,37316,5,0
256,288,37764,1,8
256,288,37988,1,0
352,288,38436,1,0
352,288,38660,1,8
352,192,39107,6,0,B|432:288|560:240|576:128|544:16|432:-16|336:80,1,499.999999999999
272,128,42689,6,0,B|96:128|16:240|80:384|320:320,1,499.999999999999
384,288,45376,5,0
384,192,45824,2,0,B|496:192,1,99.9999999999999,4|0
480,96,46719,1,0
384,96,47166,2,0,B|272:96,1,99.9999999999999,0|8
192,48,48063,5,0
112,96,48511,2,0,B|112:208|112:208,1,99.9999999999999,8|0
112,288,49406,1,0
112,288,49854,2,0,B|224:288|224:288,1,99.9999999999999,8|0
256,192,50749,12,0,52093
96,96,53436,6,0,B|208:96,1,99.9999999999999,4|0
304,96,54332,2,0,B|416:48,2,99.9999999999999
368,176,55675,1,0
432,256,56123,1,0
336,256,56571,1,4
272,176,57019,1,0
224,96,57466,2,0,B|112:96|112:96,1,99.9999999999999
160,192,58362,6,0,B|48:192|48:192,2,99.9999999999999
256,192,59705,1,0
352,192,60154,1,4
448,192,60601,5,0
448,192,61049,2,0,B|480:64|336:48,1,200
256,48,62392,1,4
256,48,62840,1,0
160,48,63288,1,0
64,48,63736,1,0
64,48,64183,5,4
16,144,64631,2,0,B|16:256|16:304|64:336|256:352|288:288|288:224|272:128|272:128,1,499.999999999999
480,112,67766,5,4
400,64,68213,1,8
400,64,68437,1,0
400,64,68661,1,0
304,112,69109,1,8
256,192,69557,5,4
160,192,70005,1,8
160,192,70229,1,0
160,192,70452,1,0
64,192,70900,1,8
0,112,71348,5,4
64,32,71796,1,8
128,112,72244,1,0
224,112,72691,1,8
224,112,72915,2,0,B|224:272|224:272,1,150,0|8
144,320,74035,5,0
64,256,74483,1,8
64,256,74707,2,0,B|64:96|64:96,1,150,0|8
144,48,75826,1,0
240,48,76274,1,8
240,48,76498,2,0,B|400:48|400:48,1,150,0|8
448,128,77617,5,0
448,224,78065,1,8
384,304,78513,1,4
320,224,78961,1,0
320,128,79408,1,8
384,48,79856,6,0,B|160:48|160:48,1,200,4|0
96,96,81200,2,0,B|96:304|96:304,1,200
192,304,82543,1,8
192,304,82991,1,0
192,304,83215,1,0
192,304,83439,1,8
288,304,83886,6,0,B|400:304|400:304,1,99.9999999999999,0|8
416,208,84782,1,0
416,208,85230,1,8
416,208,85454,1,0
416,208,85677,1,0
416,112,86125,6,0,B|304:112|304:112,1,99.9999999999999,8|0
240,48,87021,2,8,B|128:48|128:48,1,99.9999999999999,8|0
64,112,87916,2,0,B|64:224|64:224,1,99.9999999999999,8|0
144,272,88812,2,0,B|144:384|144:384,1,99.9999999999999,8|4
