osu file format v10

[General]
AudioFilename: No Regret.mp3
AudioLeadIn: 500
PreviewTime: 51084
Countdown: 0
SampleSet: Soft
StackLeniency: 0.7
Mode: 0
LetterboxInBreaks: 0

[Editor]
DistanceSpacing: 1.2
BeatDivisor: 4
GridSize: 4

[Metadata]
Title:No Regret (TV Size)
TitleUnicode:
Artist:Koda Kumi
ArtistUnicode:
Creator:bossandy
Version:Insane
Source:The Law Of Ueki
Tags:S_h_i_o_n Shion Darknessangel opening op2
BeatmapID:150788
BeatmapSetID:48824

[Difficulty]
HPDrainRate:7
CircleSize:4
OverallDifficulty:7
ApproachRate:8
SliderMultiplier:1.8
SliderTickRate:1

[Events]
//Background and Video events
0,0,"BG.jpg"
//Break Periods
//Storyboard Layer 0 (Background)
//Storyboard Layer 1 (Fail)
//Storyboard Layer 2 (Pass)
//Storyboard Layer 3 (Foreground)
//Storyboard Sound Samples
//Background Colour Transformations
3,100,163,162,255

[TimingPoints]
1325,372.670807453416,4,2,1,60,1,0
2815,-100,4,1,1,60,0,0
4306,-100,4,2,1,50,0,0
7287,-100,4,2,2,60,0,0
8778,-100,4,1,1,60,0,0
9710,-100,4,2,1,60,0,0
14741,-100,4,1,1,60,0,0
16231,-100,4,2,1,80,0,0
26852,-100,4,1,1,80,0,0
27598,-100,4,2,1,40,0,0
28157,-100,4,2,2,60,0,0
39523,-100,4,2,2,40,0,0
39710,-100,4,2,2,70,0,0
39896,-100,4,2,2,80,0,0
40082,-100,4,2,2,60,0,0
44554,-100,4,2,2,50,0,0
44927,-100,4,2,2,60,0,0
45300,-100,4,2,2,70,0,0
45672,-100,4,2,2,80,0,0
50144,-100,4,2,0,80,0,0
51449,-100,4,2,0,50,0,0
51635,-100,4,2,0,60,0,0
51821,-100,4,2,0,70,0,0
52008,-100,4,2,2,80,0,1
55175,-100,4,1,2,60,0,1
55362,-100,4,2,2,80,0,1
63002,-100,4,2,2,80,0,0
63561,-100,4,2,2,90,0,0
63933,-100,4,2,2,80,0,1
74927,-133.333333333333,4,2,2,90,0,1
75765,-133.333333333333,4,2,2,80,0,0
75859,-100,4,2,2,80,0,1
81821,-100,4,1,0,50,0,0
83318,-100,4,2,1,60,0,0
86293,-100,4,1,0,40,0,0
86666,-100,4,2,0,50,0,0
87039,-100,4,2,0,45,0,0
87411,-100,4,2,0,40,0,0
87784,-100,4,2,0,35,0,0
88157,-100,4,2,0,30,0,0
88529,-100,4,2,0,25,0,0
88902,-100,4,2,0,20,0,0
89275,-100,4,2,0,15,0,0

[Colours]
Combo1 : 255,255,77
Combo2 : 0,128,0
Combo3 : 37,128,218

[HitObjects]
336,96,2256,5,0,0:0:0
256,40,2443,1,0,0:0:0
176,96,2629,1,2,0:0:0
256,192,2815,5,4,0:0:0
256,192,4306,5,2,0:0:0
256,192,5797,5,0,0:0:0
408,72,7287,6,0,B|336:128,1,90,8|0,0:0|0:0,0:0:0
104,72,7660,2,0,B|176:128,1,90,8|0,0:0|0:0,0:0:0
256,352,8033,2,0,B|256:248,1,90,8|0,0:0|0:0,0:0:0
256,122,8405,1,8,0:0:0
200,200,8592,1,8,0:0:0
312,200,8778,1,4,0:0:0
64,112,9710,6,0,B|16:160|16:224|64:272,1,180,0|2,0:0|0:0,0:0:0
256,320,10455,1,0,0:0:0
328,256,10641,1,2,0:0:0
424,272,10828,1,0,0:0:0
480,192,11014,2,0,B|496:148|480:104,1,90,2|0,0:0|0:0,0:0:0
288,40,11387,2,0,B|272:84|288:128,1,90,2|0,0:0|0:0,0:0:0
384,120,11759,5,4,0:0:0
128,120,12505,1,4,0:0:0
256,336,13064,1,0,0:0:0
256,336,13250,5,4,0:0:0
304,256,13436,1,2,0:0:0
208,224,13623,1,2,0:0:0
328,80,13809,2,0,B|304:32|256:24|208:32|184:80,2,180,0|2|0,0:0|0:0|0:0,0:0:0
256,144,14741,1,4,0:0:0
408,216,15486,5,0,0:0:0
456,224,15579,1,0,0:0:0
496,200,15672,1,0,0:0:0
504,152,15765,1,0,0:0:0
480,112,15859,1,0,0:0:0
408,48,16045,1,0,0:0:0
176,112,16231,6,0,B|216:152|256:152|296:152|336:112,1,180,4|8,0:0|0:0,0:0:0
256,48,16790,1,0,0:0:0
176,112,16977,1,0,0:0:0
88,160,17163,2,0,B|72:128|72:104|88:72,2,90,0|8|0,0:0|0:0|0:0,0:0:0
168,344,17908,6,0,B|128:320|128:268,1,90,0|8,0:0|0:0,0:0:0
256,104,18281,2,0,B|256:192,1,90
344,344,18654,2,0,B|384:320|384:268,2,90,0|8|0,0:0|0:0|0:0,0:0:0
256,288,19213,1,0,0:0:0
384,136,19585,5,8,0:0:0
344,56,19772,2,0,B|296:36|256:56|256:56|216:76|168:56,1,180
128,144,20331,1,8,0:0:0
88,232,20517,2,0,B|118:247|142:247|174:231,1,90,0|0,0:0|0:0,0:0:0
374,317,20890,2,0,B|372:283|360:263|330:243,1,90,0|8,0:0|0:0,0:0:0
305,26,21262,2,0,B|277:45|265:65|263:101,2,90,0|0|0,0:0|0:0|0:0,0:0:0
360,112,21821,1,8,0:0:0
440,168,22008,1,0,0:0:0
448,72,22194,1,4,0:0:0
256,304,22567,5,8,0:0:0
160,304,22753,1,0,0:0:0
152,296,22846,1,0,0:0:0
144,288,22939,1,0,0:0:0
96,200,23126,2,0,B|81:170|81:146|97:114,1,90,0|8,0:0|0:0,0:0:0
264,32,23498,2,0,B|279:62|279:86|263:118,1,90,0|0,0:0|0:0,0:0:0
184,160,23871,1,0,0:0:0
256,232,24057,1,8,0:0:0
328,304,24244,2,0,B|377:277|391:231|370:191|370:191|349:151|363:105|413:79,1,270,0|8,0:0|0:0,0:0:0
480,152,24989,1,0,0:0:0
256,192,25082,12,2,26293,0:0:0
184,107,26666,5,0,0:0:0
364,171,26852,1,0,0:0:0
218,295,27039,1,0,0:0:0
288,40,27598,5,0,0:0:0
336,64,27784,1,2,0:0:0
384,88,27970,1,0,0:0:0
472,40,28157,6,0,B|504:128|472:216,1,180,4|8,0:0|0:0,0:0:0
400,256,28716,1,0,0:0:0
320,280,28902,2,0,B|275:291|243:324,2,90,2|0|8,0:0|0:0|0:0,0:0:0
344,200,29461,1,0,0:0:0
344,80,29647,6,0,B|256:112|168:80,1,180,2|8,0:0|0:0,0:0:0
40,176,30206,2,0,B|128:144|216:176,1,180,2|2,0:0|0:0,0:0:0
84,264,30765,2,0,B|116:248|140:248|170:263,1,90,8|0,0:0|0:0,0:0:0
256,288,31138,6,0,B|304:268|344:288|344:288|384:308|432:288,1,180,2|8,0:0|0:0,0:0:0
496,216,31697,2,0,B|511:186|511:162|495:130,1,90,0|2,0:0|0:0,0:0:0
408,72,32070,2,0,B|393:102|393:126|409:158,2,90,2|8|0,0:0|0:0|0:0,0:0:0
328,40,32629,5,2,0:0:0
256,96,32815,1,2,0:0:0
184,40,33002,1,8,0:0:0
112,96,33188,1,2,0:0:0
108,112,33281,1,0,0:0:0
104,128,33374,2,0,B|76:216,1,90,8|2,0:0|0:0,0:0:0
224,352,33747,2,0,B|252:264,1,90,8|2,0:0|0:0,0:0:0
304,104,34120,6,0,B|360:104|360:104|392:136|440:136|472:104,1,180,4|8,0:0|0:0,0:0:0
416,32,34679,2,0,B|416:216,1,180,2|2,0:0|0:0,0:0:0
460,292,35238,1,8,0:0:0
372,292,35424,1,2,0:0:0
328,216,35610,1,2,0:0:0
140,92,35797,6,0,B|140:182,1,90,2|8,0:0|0:0,0:0:0
80,338,36169,2,0,B|80:248,1,90,2|0,0:0|0:0,0:0:0
60,66,36542,2,0,B|60:156,1,90,2|8,0:0|0:0,0:0:0
0,312,36915,2,4,B|0:222,1,90,2|4,0:0|0:0,0:0:0
256,40,37474,5,8,0:0:0
328,96,37660,2,0,B|304:144|256:152|208:144|184:96,2,180,4|8|12,0:0|0:0|0:0,0:0:0
384,168,38592,1,4,0:0:0
376,184,38685,1,0,0:0:0
368,200,38778,1,0,0:0:0
256,336,38964,1,8,0:0:0
264,320,39057,1,0,0:0:0
272,304,39151,1,0,0:0:0
264,216,39337,5,8,0:0:0
224,228,39523,1,4,0:0:0
184,240,39710,1,2,0:0:0
144,252,39896,1,2,0:0:0
88,184,40082,6,0,B|176:144|184:40,1,180,4|8,0:0|0:0,0:0:0
424,184,40641,2,0,B|336:144|328:40,2,180,2|8|2,0:0|0:0|0:0,0:0:0
496,240,41573,1,2,0:0:0
424,288,41759,5,0,0:0:0
424,288,41852,1,0,0:0:0
424,288,41946,1,8,0:0:0
336,264,42132,2,0,B|306:249|282:249|250:265,1,90,0|8,0:0|0:0,0:0:0
184,320,42505,5,2,0:0:0
136,296,42691,1,2,0:0:0
88,272,42877,1,2,0:0:0
56,192,43064,6,0,B|77:134|120:133|164:132|185:74,1,180,4|8,0:0|0:0,0:0:0
456,192,43623,2,0,B|434:134|391:133|347:132|326:74,1,180,2|8,0:0|0:0,0:0:0
256,136,44182,1,2,0:0:0
256,136,44368,1,2,0:0:0
184,192,44554,6,0,B|120:128,1,90,4|2,0:0|0:0,0:0:0
328,192,44927,2,0,B|392:128,1,90,8|2,0:0|0:0,0:0:0
144,280,45300,2,0,B|100:292|100:292|56:280,1,90,4|2,0:0|0:0,0:0:0
368,280,45672,2,0,B|412:292|412:292|456:280,1,90,8|2,0:0|0:0,0:0:0
256,136,46045,5,4,0:0:0
88,64,46418,1,0,0:0:0
152,128,46604,1,2,0:0:0
64,152,46790,1,4,0:0:0
96,232,46977,1,2,0:0:0
96,240,47070,1,0,0:0:0
96,248,47163,1,0,0:0:0
144,320,47349,5,4,0:0:0
256,176,47722,2,0,B|256:128,2,45,0|0|8,0:0|0:0|0:0,0:0:0
312,248,48095,1,4,0:0:0
368,320,48281,5,2,0:0:0
432,240,48467,1,0,0:0:0
432,144,48654,1,8,0:0:0
368,64,48840,1,2,0:0:0
256,96,49026,6,0,B|168:128|80:96,1,180,4|8,0:0|0:0,0:0:0
16,32,49585,1,0,0:0:0
64,192,49772,2,0,B|72:216|73:241,3,45,2|2|2|2,0:0|0:0|0:0|0:0,0:0:0
80,264,50144,1,2,0:0:0
104,280,50238,1,0,0:0:0
132,276,50331,1,2,0:0:0
148,256,50424,1,0,0:0:0
144,228,50517,5,6,0:0:0
292,304,50703,1,6,0:0:0
368,156,50890,1,6,0:0:0
220,80,51076,1,6,0:0:0
220,80,51449,5,0,0:0:0
256,76,51635,1,2,0:0:0
296,72,51821,1,2,0:0:0
368,156,52008,5,6,0:0:0
440,64,52194,2,0,B|464:48|464:16,2,45,0|0|8,0:0|0:0|0:0,0:0:0
368,156,52567,1,2,0:0:0
440,240,52753,2,0,B|455:270|455:294|439:326,1,90,0|8,0:0|0:0,0:0:0
280,192,53126,2,0,B|265:162|265:138|281:106,1,90,0|8,0:0|0:0,0:0:0
184,48,53498,5,2,0:0:0
120,136,53685,1,0,0:0:0
120,136,53778,1,0,0:0:0
120,136,53871,1,8,0:0:0
120,248,54057,2,0,B|90:263|66:263|34:247,1,90,2|0,0:0|0:0,0:0:0
168,344,54430,2,0,B|256:312|344:344,1,180,8|8,0:0|0:0,0:0:0
424,272,54989,6,0,B|424:184,1,90,2|0,0:0|0:0,0:0:0
344,16,55362,2,0,B|344:104,1,90,8|2,0:0|0:0,0:0:0
264,176,55734,1,0,0:0:0
168,120,55921,1,0,0:0:0
96,40,56107,1,8,0:0:0
24,120,56293,1,0,0:0:0
88,208,56480,6,0,B|32:288,1,90,12|0,0:0|0:0,0:0:0
328,264,56852,2,0,B|336:353,1,90,8|0,0:0|0:0,0:0:0
184,264,57225,2,0,B|175:353,1,90,12|0,0:0|0:0,0:0:0
424,208,57598,2,0,B|480:288,1,90,8|0,0:0|0:0,0:0:0
344,120,57970,6,0,B|296:104|296:104|256:112|216:104|216:104|168:120,1,180,6|8,0:0|0:0,0:0:0
72,72,58529,1,2,0:0:0
40,232,58716,2,0,B|85:218|101:170,1,90,0|8,0:0|0:0,0:0:0
51,320,59088,2,0,B|63:272|39:232,1,90,0|8,0:0|0:0,0:0:0
144,248,59461,5,2,0:0:0
248,232,59647,1,0,0:0:0
352,264,59834,1,8,0:0:0
432,336,60020,1,2,0:0:0
504,192,60206,5,0,0:0:0
398,180,60393,1,8,0:0:0
312,120,60579,1,0,0:0:0
256,24,60765,1,8,0:0:0
200,120,60952,6,0,B|152:96|152:48,1,90,4|0,0:0|0:0,0:0:0
312,120,61325,2,0,B|360:96|360:48,1,90,8|0,0:0|0:0,0:0:0
256,192,61697,1,4,0:0:0
204,288,61884,1,0,0:0:0
308,288,62070,1,8,0:0:0
204,288,62256,1,0,0:0:0
152,192,62443,5,4,0:0:0
56,232,62629,2,0,B|41:202|41:178|57:146,1,90,4|4,0:0|0:0,0:0:0
112,56,63002,1,4,0:0:0
400,328,63374,5,8,0:0:0
424,280,63561,1,2,0:0:0
448,232,63747,1,2,0:0:0
464,128,63933,6,0,B|368:144|312:56,1,180,6|8,0:0|0:0,0:0:0
199,55,64492,2,0,B|144:144|48:128,1,180,2|8,0:0|0:0,0:0:0
16,232,65051,1,0,0:0:0
96,304,65238,1,8,0:0:0
200,272,65424,5,2,0:0:0
200,272,65517,1,0,0:0:0
200,272,65610,1,0,0:0:0
312,272,65797,1,8,0:0:0
416,304,65983,1,2,0:0:0
496,232,66169,1,0,0:0:0
416,152,66356,1,8,0:0:0
96,152,66728,1,8,0:0:0
184,88,66915,6,0,B|208:136|256:144|304:136|328:87,1,180,2|8,0:0|0:0,0:0:0
256,40,67474,2,0,B|256:224,1,180,2|8,0:0|0:0,0:0:0
256,328,68033,1,0,0:0:0
256,328,68219,1,8,0:0:0
360,296,68405,5,12,0:0:0
464,280,68592,1,0,0:0:0
440,176,68778,1,8,0:0:0
336,192,68964,1,0,0:0:0
152,296,69151,5,12,0:0:0
48,280,69337,1,0,0:0:0
72,176,69523,1,8,0:0:0
176,192,69710,1,0,0:0:0
296,80,69896,6,0,B|384:104|384:104|472:80,1,180,6|8,0:0|0:0,0:0:0
384,16,70455,2,0,B|384:208,1,180,2|8,0:0|0:0,0:0:0
456,272,71014,2,0,B|496:240|488:192,1,90,0|8,0:0|0:0,0:0:0
360,296,71387,6,0,B|296:360,1,90,2|0,0:0|0:0,0:0:0
224,280,71759,2,0,B|136:303,1,90,8|2,0:0|0:0,0:0:0
136,192,72132,2,0,B|48:168,1,90,0|8,0:0|0:0,0:0:0
104,80,72505,2,0,B|40:15,1,90,0|8,0:0|0:0,0:0:0
104,80,72877,6,0,B|192:120|280:80,1,180,4|8,0:0|0:0,0:0:0
376,32,73436,1,0,0:0:0
472,88,73623,2,0,B|512:176|472:264,1,180,4|8,0:0|0:0,0:0:0
376,312,74182,1,2,0:0:0
312,224,74368,5,4,0:0:0
200,224,74554,1,4,0:0:0
256,320,74741,1,4,0:0:0
320,136,74927,6,0,B|256:96|192:136,1,134.999995976687,4|2,0:0|0:0,0:0:0
136,192,75486,1,0,0:0:0
56,192,75672,1,0,0:0:0
80,320,75859,6,0,B|120:344|168:336,2,90,4|0|0,0:0|0:0|0:0,0:0:0
212,264,76418,2,0,B|242:249|266:249|298:265,2,90,4|0|0,0:0|0:0|0:0,0:0:0
432,320,76977,2,0,B|392:344|344:336,2,90,4|0|0,0:0|0:0|0:0,0:0:0
464,236,77536,1,4,0:0:0
464,148,77722,1,0,0:0:0
432,64,77908,2,0,B|392:40|344:40,2,90,0|4|0,0:0|0:0|0:0,0:0:0
256,104,78654,6,0,B|236:152|256:192|256:192|276:232|256:280,1,180,10|10,0:0|0:0,0:0:0
176,224,79213,2,0,B|128:232|96:264,2,90,0|8|0,0:0|0:0|0:0,0:0:0
336,160,79772,2,0,B|384:152|416:120,2,90,8|0|8,0:0|0:0|0:0,0:0:0
224,128,80331,5,4,0:0:0
288,256,80517,1,4,0:0:0
224,128,80703,1,4,0:0:0
256,192,81821,5,4,0:0:0
104,216,82567,5,0,0:0:0
56,224,82660,1,0,0:0:0
16,200,82753,1,0,0:0:0
8,152,82846,1,0,0:0:0
32,112,82939,1,0,0:0:0
104,48,83126,1,0,0:0:0
336,112,83312,6,0,B|296:152|256:152|216:152|176:112,1,180,4|8,0:0|0:0,0:0:0
256,48,83871,1,0,0:0:0
336,112,84057,1,0,0:0:0
424,160,84244,2,0,B|440:128|440:104|424:72,2,90,0|8|0,0:0|0:0|0:0,0:0:0
344,200,84803,5,0,0:0:0
256,224,84989,1,0,0:0:0
168,200,85175,1,8,0:0:0
256,224,85362,1,0,0:0:0
320,288,85548,2,0,B|360:312|408:312,1,90
192,288,85921,2,0,B|152:312|104:312,1,90,8|0,0:0|0:0,0:0:0
256,224,86293,5,4,0:0:0
256,192,86387,12,0,89275,0:0:0
