osu file format v10

[General]
AudioFilename: No Regret.mp3
AudioLeadIn: 500
PreviewTime: 51084
Countdown: 0
SampleSet: Soft
StackLeniency: 0.7
Mode: 0
LetterboxInBreaks: 0

[Editor]
DistanceSpacing: 1.1
BeatDivisor: 4
GridSize: 4
CurrentTime: 57382

[Metadata]
Title:No Regret (TV Size)
TitleUnicode:
Artist:Koda Kumi
ArtistUnicode:
Creator:bossandy
Version:Easy
Source:The Law Of Ueki
Tags:S_h_i_o_n Shion Darknessangel opening op2
BeatmapID:151160
BeatmapSetID:48824

[Difficulty]
HPDrainRate:2
CircleSize:3
OverallDifficulty:2
ApproachRate:3
SliderMultiplier:0.8
SliderTickRate:2

[Events]
//Background and Video events
0,0,"BG.jpg"
//Break Periods
//Storyboard Layer 0 (Background)
//Storyboard Layer 1 (Fail)
//Storyboard Layer 2 (Pass)
//Storyboard Layer 3 (Foreground)
//Storyboard Sound Samples
//Background Colour Transformations
3,100,163,162,255

[TimingPoints]
1325,372.670807453416,4,2,1,60,1,0
2815,-100,4,1,1,60,0,0
4306,-100,4,2,1,50,0,0
7287,-100,4,2,2,60,0,0
8778,-100,4,1,1,60,0,0
9710,-100,4,2,1,60,0,0
14741,-100,4,1,1,60,0,0
16231,-100,4,2,1,80,0,0
28157,-100,4,2,2,60,0,0
39523,-100,4,2,2,40,0,0
39710,-100,4,2,2,70,0,0
39896,-100,4,2,2,80,0,0
40082,-100,4,2,2,60,0,0
44554,-100,4,2,2,50,0,0
44927,-100,4,2,2,60,0,0
45300,-100,4,2,2,70,0,0
45672,-100,4,2,2,80,0,0
50144,-100,4,2,0,80,0,0
51635,-100,4,2,0,60,0,0
52008,-100,4,2,2,80,0,1
55175,-100,4,1,2,50,0,1
55362,-100,4,2,2,80,0,1
63002,-100,4,2,2,80,0,0
63561,-100,4,2,2,90,0,0
63933,-100,4,2,2,80,0,1
74927,-133.333333333333,4,2,2,80,0,1
75765,-133.333333333333,4,2,2,80,0,0
75859,-100,4,2,2,80,0,1
81821,-100,4,1,0,50,0,0
83318,-100,4,2,1,60,0,0
86293,-100,4,1,0,40,0,0
86666,-100,4,2,0,50,0,0
87039,-100,4,2,0,45,0,0
87411,-100,4,2,0,40,0,0
87784,-100,4,2,0,35,0,0
88157,-100,4,2,0,30,0,0
88529,-100,4,2,0,25,0,0
88902,-100,4,2,0,20,0,0
89275,-100,4,2,0,15,0,0

[Colours]
Combo1 : 255,255,77
Combo2 : 0,128,0
Combo3 : 37,128,218

[HitObjects]
112,84,2815,5,4,0:0
400,84,4306,1,2,0:0
256,336,5797,1,0,0:0
300,40,7287,6,0,B|300:120,1,80,8|8,0:0|0:0,0:0
212,120,8033,2,0,B|212:40,2,80,8|8|4,0:0|0:0|0:0,0:0
96,308,9710,5,0,0:0
176,276,10082,2,0,B|200:324|256:348|312:324|336:276,1,200,2|0,0:0|0:0,0:0
416,308,11387,1,2,0:0
488,260,11759,2,0,B|456:228|448:192|448:192|456:156|488:124,2,160,4|4|4,0:0|0:0|0:0,0:0
144,192,14741,5,4,0:0
292,88,15486,2,0,B|272:108|240:108|220:88,2,80,0|0|4,0:0|0:0|0:0,0:0
352,152,16604,6,0,B|384:184|392:220|392:220|384:256|352:288,2,160,8|8|8,0:0|0:0|0:0,0:0
296,220,18467,2,0,B|216:220,1,80,0|8,0:0|0:0,0:0
132,192,19213,5,0,0:0
44,192,19585,2,0,B|12:160|4:124|4:124|12:88|44:55,2,160,8|8|8,0:0|0:0|0:0,0:0
88,268,21449,2,0,B|88:296|110:318|138:318,1,80,0|8,0:0|0:0,0:0
187,244,22194,6,0,B|187:182|256:155|256:155|324:182|324:244,1,240,4|8,0:0|0:0,0:0
308,332,23685,2,0,B|280:368|232:368|204:332,2,120,0|0|8,0:0|0:0|0:0,0:0
256,192,25175,12,4,26666,0:0
220,80,28157,6,0,B|240:60|272:60|292:80,2,80,6|8|0,0:0|0:0|0:0,0:0
164,148,29275,1,8,0:0
188,232,29647,2,0,B|132:244|152:288|96:304,2,120,2|0|8,0:0|0:0|0:0,0:0
256,176,31138,5,2,0:0
340,144,31511,2,0,B|384:124|392:88,2,80,8|0|8,0:0|0:0|0:0,0:0
324,232,32629,2,0,B|328:272|368:300|412:288,2,120,2|0|8,0:0|0:0|0:0,0:0
256,288,34120,6,0,B|220:336|172:344|132:344|84:336|48:288,1,240,6|8,0:0|0:0,0:0
76,204,35610,2,0,B|80:152|44:120,2,80,2|8|0,0:0|0:0|0:0,0:0
152,248,36728,1,8,0:0
228,204,37101,6,0,B|264:156|312:148|352:148|400:156|436:204,1,240,6|8,0:0|0:0,0:0
436,292,38592,2,0,B|456:332|500:344,2,80,2|8|2,0:0|0:0|0:0,0:0
360,248,39710,1,2,0:0
280,288,40082,2,0,B|256:336|200:360|144:336|120:288,1,200,4|8,0:0|0:0,0:0
8,216,41573,5,4,0:0
96,192,41946,1,8,0:0
60,112,42318,1,0,0:0
124,52,42691,1,8,0:0
192,112,43064,6,0,B|228:160|276:168|316:168|364:160|400:112,1,240,6|8,0:0|0:0,0:0
444,36,44554,1,4,0:0
488,112,44927,1,8,0:0
444,188,45300,2,0,B|424:208|424:240|444:260,1,80,4|8,0:0|0:0,0:0
466,345,46045,6,0,B|426:361|394:325|394:325|362:361|322:345,1,160,4|4,0:0|0:0,0:0
190,345,47349,2,0,B|150:361|118:325|118:325|86:361|46:345,1,160,4|4,0:0|0:0,0:0
124,236,48654,5,8,0:0
152,152,49026,2,0,B|192:96|256:96|320:96|360:152,1,240,4|2,0:0|0:0,0:0
304,220,50517,2,0,B|336:244|384:244|416:220,1,120,6|6,0:0|0:0,0:0
424,352,51635,5,2,0:0
336,368,52008,2,0,B|280:356|256:286|256:286|232:356|176:368,1,240,4|8,0:0|0:0,0:0
88,352,53498,2,0,B|48:340|24:308,1,80,0|8,0:0|0:0,0:0
96,256,54244,2,0,B|116:216|96:180,1,80,0|8,0:0|0:0,0:0
36,116,54989,5,0,0:0
104,60,55362,2,0,B|144:72|184:60,1,80,8|0,0:0|0:0,0:0
256,112,56107,1,8,0:0
328,64,56480,2,0,B|488:64,2,160,4|4|4,0:0|0:0|0:0,0:0
256,112,58343,6,0,B|176:112,2,80,8|0|8,0:0|0:0|0:0,0:0
328,164,59461,2,0,B|400:196|400:196|388:256|428:316|504:308,1,240,0|8,0:0|0:0,0:0
484,220,60952,6,0,B|320:296,1,160,4|4,0:0|0:0,0:0
256,320,62070,1,0,0:0
173,287,62443,2,0,B|68:232,1,120,4|4,0:0|0:0,0:0
68,100,63561,5,8,0:0
152,128,63933,2,0,B|192:72|256:68|320:72|360:128,1,240,4|8,0:0|0:0,0:0
292,188,65424,2,0,B|320:220|360:224,1,80,0|8,0:0|0:0,0:0
436,180,66169,1,0,0:0
472,260,66542,1,8,0:0
444,344,66915,6,0,B|404:360|372:324|372:324|340:360|300:344,1,160,0|0,0:0|0:0,0:0
256,268,68033,1,8,0:0
212,344,68405,2,0,B|172:360|140:324|140:324|108:360|68:344,2,160,4|4|4,0:0|0:0|0:0,0:0
256,268,70269,6,0,B|256:188,1,80,8|0,0:0|0:0,0:0
256,100,71014,1,8,0:0
180,60,71387,2,0,B|160:40|128:40|108:60,1,80,0|8,0:0|0:0,0:0
144,140,72132,2,0,B|115:140|93:162|93:190,1,80,0|8,0:0|0:0,0:0
160,248,72877,6,0,B|128:280|92:288|92:288|56:280|24:248,2,160,4|4|4,0:0|0:0|0:0,0:0
256,156,74927,1,4,0:0
352,248,75486,1,2,0:0
424,300,75859,6,0,B|448:284|456:248|448:216|424:196,1,120,4|4,0:0|0:0,0:0
308,132,76977,2,0,B|287:156|255:164|219:156|203:132,1,120,4|4,0:0|0:0,0:0
88,195,78095,2,0,B|64:216|56:248|64:284|88:300,1,120,4|4,0:0|0:0,0:0
220,304,79213,6,0,B|240:324|272:324|292:304,2,80,8|0|8,0:0|0:0|0:0,0:0
256,224,80331,2,0,B|256:180,2,40,4|4|4,0:0|0:0|0:0,0:0
52,56,81821,5,4,0:0
220,104,82567,2,0,B|240:124|272:124|292:104,1,80,0|0,0:0|0:0,0:0
364,52,83312,5,4,0:0
404,132,83685,1,8,0:0
368,212,84057,2,0,B|368:292,1,80,0|8,0:0|0:0,0:0
280,292,84803,2,0,B|223:348,1,80,0|8,0:0|0:0,0:0
160,288,85548,2,0,B|80:288,1,80,0|8,0:0|0:0,0:0
256,192,86293,12,0,89275,0:0
