osu file format v10

[General]
AudioFilename: Go to the top~2.mp3
AudioLeadIn: 2500
PreviewTime: 53258
Countdown: 0
SampleSet: Soft
StackLeniency: 0.7
Mode: 0
LetterboxInBreaks: 0

[Editor]
DistanceSpacing: 1
BeatDivisor: 4
GridSize: 4

[Metadata]
Title:Go to the top (TV Size)
TitleUnicode:Go to the top (TV Size)
Artist:Koda Kumi
ArtistUnicode:Koda Kumi
Creator:thou bad
Version:Snowy
Source:Muv-Luv Alternative Total Eclipse
Tags:opening CLARABELL RzC Snowy Dream
BeatmapID:169549
BeatmapSetID:54640

[Difficulty]
HPDrainRate:6
CircleSize:4
OverallDifficulty:6
ApproachRate:7
SliderMultiplier:1.5
SliderTickRate:1

[Events]
//Background and Video events
0,0,"BG.jpg"
Video,64,"op.flv"
//Break Periods
//Storyboard Layer 0 (Background)
//Storyboard Layer 1 (Fail)
//Storyboard Layer 2 (Pass)
//Storyboard Layer 3 (Foreground)
//Storyboard Sound Samples
//Background Colour Transformations
3,100,163,162,255

[TimingPoints]
124,379.746835443038,4,2,1,80,1,0
13794,-100,4,2,2,80,0,0
53288,-100,4,2,2,80,0,1
77592,-100,4,2,2,80,0,0

[Colours]
Combo1 : 0,128,192
Combo2 : 128,128,255
Combo3 : 128,64,64
Combo4 : 232,0,0

[HitObjects]
132,128,124,2,0,B|116:164|128:204,1,75,2|0,0:0|0:0,0:0:0
196,248,503,2,0,B|212:212|200:172,1,75,2|0,0:0|0:0,0:0:0
208,92,883,1,2,0:0:0
208,92,1073,1,0,0:0:0
276,140,1263,1,2,0:0:0
276,140,1453,1,0,0:0:0
332,80,1642,6,0,B|372:112|364:184|320:212,1,150,6|0,0:0|0:0,0:0:0
266,271,2212,2,0,B|226:239|234:167|278:139,1,150,0|0,0:0|0:0,0:0:0
256,60,2782,2,0,B|228:32|188:32,2,75,0|0|0,0:0|0:0|0:0,0:0:0
104,120,3541,2,0,B|64:188|104:272,1,150,0|0,0:0|0:0,0:0:0
408,264,4301,1,4,0:0:0
408,264,4680,6,0,B|448:196|408:112,1,150,2|0,0:0|0:0,0:0:0
332,100,5250,2,0,B|264:140|176:112,1,150
111,141,5820,2,0,B|100:104|116:68,2,75,0|0|2,0:0|0:0|0:0,0:0:0
196,284,6579,1,0,0:0:0
408,112,6959,1,0,0:0:0
408,112,7339,1,4,0:0:0
244,96,7718,6,0,B|196:160|112:160,1,150,2|0,0:0|0:0,0:0:0
144,84,8288,2,0,B|208:132|208:216,1,150
132,244,8858,2,0,B|120:280|136:320,2,75,0|0|2,0:0|0:0|0:0,0:0:0
284,184,9617,1,0,0:0:0
448,184,9997,2,0,B|468:152|460:112,2,75,0|0|4,0:0|0:0|0:0,0:0:0
388,336,10756,6,0,B|336:320|280:348|240:328,1,150,2|0,0:0|0:0,0:0:0
164,364,11326,2,0,B|136:324|164:248|228:244,1,150
300,256,11896,2,0,B|336:236|352:200,2,75,0|0|2,0:0|0:0|0:0,0:0:0
264,96,12655,1,0,0:0:0
188,64,12845,5,0,0:0:0
188,64,13035,2,0,B|148:140|208:208,1,150,2|2,0:0|0:0,0:0:0
348,124,13794,5,4,0:0:0
412,276,14174,1,0,0:0:0
412,276,14364,1,0,0:0:0
264,344,14744,1,0,0:0:0
264,344,14934,1,0,0:0:0
264,344,15124,1,0,0:0:0
264,344,15313,2,0,B|188:312|188:224,1,150,0|0,0:0|0:0,0:0:0
144,68,16073,1,8,0:0:0
116,144,16263,1,0,0:0:0
48,188,16453,1,0,0:0:0
204,132,16832,6,0,B|236:204|320:216,1,150,0|0,0:0|0:0,0:0:0
304,140,17402,2,0,B|232:172|220:256,1,150
292,296,17972,1,0,0:0:0
292,296,18161,1,0,0:0:0
292,296,18351,1,0,0:0:0
408,180,18731,1,0,0:0:0
160,40,19111,1,8,0:0:0
120,200,19491,1,0,0:0:0
260,116,19870,6,0,B|320:68|408:88,1,150,0|0,0:0|0:0,0:0:0
472,128,20440,2,0,B|516:192|488:276,1,150
416,308,21010,2,0,B|396:344|408:380,2,75,0|0|0,0:0|0:0|0:0,0:0:0
420,224,21579,1,0,0:0:0
420,224,21769,1,0,0:0:0
276,144,22149,1,8,0:0:0
116,188,22529,1,0,0:0:0
176,340,22908,6,0,B|196:180,1,150,0|0,0:0|0:0,0:0:0
258,293,23478,2,0,B|278:133,1,150
332,84,24048,2,0,B|392:32,2,75,0|0|0,0:0|0:0|0:0,0:0:0
252,68,24617,1,0,0:0:0
252,68,24807,1,0,0:0:0
88,64,25187,5,0,0:0:0
88,100,25377,1,0,0:0:0
88,136,25567,1,0,0:0:0
88,172,25756,1,0,0:0:0
88,208,25946,1,4,0:0:0
256,192,26136,12,0,28984,0:0:0
104,108,29364,5,2,0:0:0
88,188,29554,1,0,0:0:0
132,260,29744,2,0,B|148:296|144:336,2,75,8|0|2,0:0|0:0|0:0,0:0:0
264,164,30503,1,0,0:0:0
336,124,30693,6,0,B|372:108|392:76,2,75,0|2|0,0:0|0:0|0:0,0:0:0
332,208,31263,2,0,B|320:248|340:288,1,75,8|0,0:0|0:0,0:0:0
412,320,31642,2,0,B|424:280|404:240,1,75,2|0,0:0|0:0,0:0:0
404,164,32022,5,0,0:0:0
256,96,32402,1,2,0:0:0
200,156,32592,1,0,0:0:0
184,236,32782,2,0,B|192:276|176:312,2,75,8|0|2,0:0|0:0|0:0,0:0:0
68,120,33541,1,0,0:0:0
36,196,33731,5,0,0:0:0
36,196,33826,1,0,0:0:0
36,196,33921,1,2,0:0:0
72,272,34111,2,0,B|88:308|84:344,2,75,0|8|0,0:0|0:0|0:0,0:0:0
120,204,34680,1,2,0:0:0
120,204,34870,1,0,0:0:0
144,124,35060,6,0,B|136:76|204:32|252:56,1,150,0|2,0:0|0:0,0:0:0
228,136,35630,1,0,0:0:0
228,136,35820,2,0,B|274:159|342:115|334:67,1,150,8|2,0:0|0:0,0:0:0
476,148,36579,1,0,0:0:0
444,224,36769,6,0,B|432:260|448:300,2,75,0|2|0,0:0|0:0|0:0,0:0:0
388,164,37339,2,0,B|368:196|320:200,1,75,8|0,0:0|0:0,0:0:0
244,212,37718,1,2,0:0:0
112,308,38098,6,0,B|96:344|108:384,2,75,0|0|0,0:0|0:0|0:0,0:0:0
84,228,38668,2,0,B|48:212|8:224,2,75,0|0|0,0:0|0:0|0:0,0:0:0
164,204,39237,2,0,B|180:168|168:128,2,75,2|0|0,0:0|0:0|0:0,0:0:0
192,284,39807,2,0,B|228:300|268:288,2,75,0|2|0,0:0|0:0|0:0,0:0:0
240,216,40377,1,0,0:0:0
240,216,40756,1,0,0:0:0
240,216,41136,6,0,B|228:176|248:140,1,75,4|0,0:0|0:0,0:0:0
324,112,41516,2,0,B|336:152|316:188,1,75,8|0,0:0|0:0,0:0:0
312,268,41896,1,0,0:0:0
312,268,42086,1,0,0:0:0
312,268,42275,2,0,B|328:304|320:348,1,75,8|0,0:0|0:0,0:0:0
244,316,42655,2,0,B|208:332|164:324,1,75
104,276,43035,1,8,0:0:0
104,276,43225,1,0,0:0:0
168,124,43605,1,0,0:0:0
168,124,43794,1,8,0:0:0
332,96,44174,6,0,B|356:64|360:24,2,75,0|0|8,0:0|0:0|0:0,0:0:0
268,148,44744,1,0,0:0:0
204,200,44934,2,0,B|180:232|176:272,2,75,0|0|8,0:0|0:0|0:0,0:0:0
268,148,45503,1,0,0:0:0
332,200,45693,2,0,B|356:232|360:272,2,75,0|0|8,0:0|0:0|0:0,0:0:0
268,148,46263,1,0,0:0:0
204,96,46453,2,0,B|180:64|176:24,2,75,0|0|8,0:0|0:0|0:0,0:0:0
92,216,47212,5,0,0:0:0
76,136,47402,1,0,0:0:0
60,56,47592,1,0,0:0:0
204,240,47972,2,0,B|216:276|208:316,2,75,0|0|0,0:0|0:0|0:0,0:0:0
220,160,48541,1,0,0:0:0
296,132,48731,2,0,B|328:112|368:116,1,75
440,156,49111,1,0,0:0:0
448,240,49301,2,0,B|446:277|470:310,2,75
440,156,49870,1,0,0:0:0
296,240,50250,5,4,0:0:0
96,108,51199,1,0,0:0:0
76,188,51389,1,0,0:0:0
104,268,51579,1,0,0:0:0
180,304,51769,2,0,B|216:320|232:356,2,75,2|0|2,0:0|0:0|0:0,0:0:0
172,220,52339,1,0,0:0:0
220,156,52529,2,0,B|292:188|368:156,1,150,0|2,0:0|0:0,0:0:0
228,68,53288,6,0,B|168:112|84:92,1,150,4|0,0:0|0:0,0:0:0
136,28,53858,2,0,B|180:88|160:172,1,150
76,176,54427,2,0,B|60:212|72:248,2,75,0|0|0,0:0|0:0|0:0,0:0:0
212,272,55187,1,0,0:0:0
348,180,55567,1,8,0:0:0
348,180,55756,1,0,0:0:0
348,180,55946,1,0,0:0:0
248,48,56326,6,0,B|192:100|212:188,1,150,0|0,0:0|0:0,0:0:0
277,148,56896,2,0,B|225:92|137:112,1,150
132,192,57465,1,0,0:0:0
132,192,57655,1,0,0:0:0
132,192,57845,1,0,0:0:0
172,352,58225,1,0,0:0:0
328,300,58605,2,0,B|368:304|400:280,2,75,8|0|0,0:0|0:0|0:0,0:0:0
344,136,59364,5,0,0:0:0
188,84,59744,1,0,0:0:0
188,84,59934,2,0,B|148:152|204:232,1,150
276,256,60503,2,0,B|296:288|292:332,2,75,0|0|0,0:0|0:0|0:0,0:0:0
268,172,61073,1,0,0:0:0
268,172,61263,1,0,0:0:0
400,72,61642,1,8,0:0:0
444,232,62022,1,0,0:0:0
332,108,62402,6,0,B|272:60|188:80,1,150,0|0,0:0|0:0,0:0:0
184,164,62972,2,0,B|132:220|48:216,1,150
4,148,63541,2,0,B|-8:112|4:72,2,75,0|0|0,0:0|0:0|0:0,0:0:0
84,128,64111,1,0,0:0:0
84,128,64301,1,0,0:0:0
184,260,64680,5,0,0:0:0
220,260,64870,1,0,0:0:0
256,260,65060,1,0,0:0:0
292,260,65250,1,0,0:0:0
328,260,65440,1,4,0:0:0
424,128,65820,5,0,0:0:0
424,128,66010,1,0,0:0:0
272,68,66389,1,0,0:0:0
272,68,66579,1,0,0:0:0
272,68,66769,1,0,0:0:0
272,68,66959,2,0,B|252:100|264:140,2,75,0|0|0,0:0|0:0|0:0,0:0:0
372,200,67718,1,8,0:0:0
436,352,68098,1,0,0:0:0
280,300,68478,5,0,0:0:0
120,268,68858,1,0,0:0:0
120,268,69048,1,0,0:0:0
116,104,69427,1,0,0:0:0
116,104,69617,1,0,0:0:0
116,104,69807,1,0,0:0:0
116,104,69997,2,0,B|100:68|116:28,2,75,0|0|0,0:0|0:0|0:0,0:0:0
276,64,70756,1,8,0:0:0
408,160,71136,1,0,0:0:0
244,192,71516,6,0,B|184:168|128:200|120:252,1,150,0|0,0:0|0:0,0:0:0
80,316,72086,2,0,B|140:340|196:308|204:256,1,150
284,264,72655,2,0,B|304:300|292:348,2,75,0|0|0,0:0|0:0|0:0,0:0:0
324,192,73225,1,0,0:0:0
324,192,73415,1,0,0:0:0
216,68,73794,1,8,0:0:0
72,148,74174,1,0,0:0:0
268,192,74554,6,0,B|328:216|384:184|392:132,1,150,0|0,0:0|0:0,0:0:0
432,68,75123,2,0,B|372:44|316:76|308:128,1,150
228,120,75693,2,0,B|208:84|220:36,2,75,0|0|0,0:0|0:0|0:0,0:0:0
188,192,76263,1,0,0:0:0
188,192,76453,1,0,0:0:0
56,96,76832,5,0,0:0:0
60,132,77022,1,0,0:0:0
64,168,77212,1,0,0:0:0
68,204,77402,1,0,0:0:0
72,240,77592,1,4,0:0:0
216,316,77972,5,2,0:0:0
332,200,78351,1,8,0:0:0
420,340,78731,1,2,0:0:0
476,184,79111,6,0,B|488:220|476:260,2,75,2|0|0,0:0|0:0|0:0,0:0:0
412,132,79680,1,0,0:0:0
348,80,79870,2,0,B|336:44|348:4,2,75,10|0|0,0:0|0:0|0:0,0:0:0
412,132,80440,1,0,0:0:0
412,132,80630,5,4,0:0:0
248,108,81010,1,2,0:0:0
92,164,81389,1,8,0:0:0
248,108,81769,1,2,0:0:0
220,272,82149,6,0,B|240:348,1,75,2|0,0:0|0:0,0:0:0
320,352,82529,2,0,B|300:276,1,75
268,204,82908,2,0,B|292:176|336:172,1,75,10|0,0:0|0:0,0:0:0
432,208,83288,2,0,B|408:236|364:240,1,75
404,140,83668,5,4,0:0:0
268,44,84048,1,2,0:0:0
108,88,84427,1,8,0:0:0
60,252,84807,1,2,0:0:0
224,236,85187,6,0,B|216:276|232:308,1,75,2|0,0:0|0:0,0:0:0
300,264,85567,1,0,0:0:0
300,264,85756,1,0,0:0:0
376,292,85946,2,0,B|384:252|368:220,1,75,10|0,0:0|0:0,0:0:0
292,108,86326,2,0,B|284:148|300:180,1,75
376,144,86706,5,4,0:0:0
136,144,87086,1,2,0:0:0
68,188,87275,1,0,0:0:0
48,268,87465,2,0,B|40:304|56:348,2,75,8|0|2,0:0|0:0|0:0,0:0:0
212,280,88225,5,2,0:0:0
212,280,88415,1,0,0:0:0
212,280,88605,1,0,0:0:0
212,280,88794,1,0,0:0:0
288,308,88984,2,0,B|324:324|364:308,2,75,10|0|0,0:0|0:0|0:0,0:0:0
