osu file format v10

[General]
AudioFilename: Go to the top~2.mp3
AudioLeadIn: 2500
PreviewTime: 53258
Countdown: 0
SampleSet: Soft
StackLeniency: 0.7
Mode: 0
LetterboxInBreaks: 0

[Editor]
DistanceSpacing: 1
BeatDivisor: 4
GridSize: 4

[Metadata]
Title:Go to the top (TV Size)
TitleUnicode:Go to the top (TV Size)
Artist:Koda Kumi
ArtistUnicode:Koda Kumi
Creator:thou bad
Version:Normal
Source:Muv-Luv Alternative Total Eclipse
Tags:opening CLARABELL RzC Snowy Dream
BeatmapID:166562
BeatmapSetID:54640

[Difficulty]
HPDrainRate:4
CircleSize:3
OverallDifficulty:4
ApproachRate:5
SliderMultiplier:1.12
SliderTickRate:1

[Events]
//Background and Video events
0,0,"BG.jpg"
Video,64,"op.flv"
//Break Periods
//Storyboard Layer 0 (Background)
//Storyboard Layer 1 (Fail)
//Storyboard Layer 2 (Pass)
//Storyboard Layer 3 (Foreground)
//Storyboard Sound Samples
//Background Colour Transformations
3,100,163,162,255

[TimingPoints]
124,379.746835443038,4,2,1,80,1,0
13794,-100,4,2,2,80,0,0
29744,-100,4,2,0,50,0,0
29791,-100,4,2,1,80,0,0
31263,-100,4,2,0,50,0,0
31310,-100,4,2,1,80,0,0
32782,-100,4,2,0,50,0,0
32829,-100,4,2,1,80,0,0
34301,-100,4,2,0,50,0,0
34348,-100,4,2,1,80,0,0
35820,-100,4,2,0,50,0,0
35867,-100,4,2,1,80,0,0
37339,-100,4,2,0,50,0,0
37386,-100,4,2,1,80,0,0
38098,-100,4,2,1,70,0,0
40377,-100,4,2,1,80,0,0
41136,-100,4,2,1,65,0,0
42655,-100,4,2,1,70,0,0
44174,-100,4,2,1,75,0,0
47212,-100,4,2,1,65,0,0
47972,-100,4,2,1,70,0,0
48731,-100,4,2,1,75,0,0
49491,-100,4,2,2,80,0,0
53288,-100,4,2,2,80,0,1
77592,-100,4,2,2,70,0,0
77972,-100,4,2,2,80,0,0
80630,-100,4,2,2,70,0,0
81010,-100,4,2,2,80,0,0
83668,-100,4,2,2,70,0,0
84048,-100,4,2,2,80,0,0
86706,-100,4,2,2,70,0,0
87086,-100,4,2,2,80,0,0

[Colours]
Combo1 : 0,128,192
Combo2 : 128,128,255
Combo3 : 128,64,64
Combo4 : 232,0,0

[HitObjects]
256,40,124,6,0,B|201:59|165:105,1,112,2|2,0:0|0:0,0:0:0
276,128,883,2,0,B|330:147|366:193,1,112
376,304,1642,5,0,0:0:0
264,304,2022,2,0,B|205:303|205:303|156:273,2,112,8|0|8,0:0|0:0|0:0,0:0:0
276,192,3161,1,0,0:0:0
260,80,3541,5,10,0:0:0
152,108,3921,2,0,B|98:131|67:180,1,112,2|12,0:0|0:0,0:0:0
179,197,4680,6,0,B|235:211|275:253,1,112,0|8,0:0|0:0,0:0:0
341,344,5440,1,0,0:0:0
341,344,5820,1,8,0:0:0
392,244,6199,1,0,0:0:0
468,160,6579,6,0,B|497:207,2,56,10|0|2,0:0|0:0|0:0,0:0:0
408,65,7339,1,12,0:0:0
300,44,7718,5,2,0:0:0
192,72,8098,1,8,0:0:0
128,164,8478,2,0,B|159:212|212:236,1,112,2|10,0:0|0:0,0:0:0
320,204,9237,1,0,0:0:0
416,144,9617,5,8,0:0:0
420,256,9997,2,0,B|393:307|342:337,1,112,2|14,0:0|0:0,0:0:0
232,336,10756,6,0,B|120:336,1,112,2|8,0:0|0:0,0:0:0
116,224,11516,2,0,B|15:174,1,112,2|8,0:0|0:0,0:0:0
148,72,12465,6,0,B|96:44,2,56,2|2|2,0:0|0:0|0:0,0:0:0
200,96,13035,2,0,B|256:116|312:96,1,112,2|2,0:0|0:0,0:0:0
404,36,13794,6,0,B|451:68|467:125,1,112,6|0,0:0|0:0,0:0:0
480,236,14554,2,0,B|485:295|453:342,1,112,8|0,0:0|0:0,0:0:0
360,280,15313,2,0,B|303:282|252:310,1,112,2|2,0:0|0:0,0:0:0
148,348,16073,2,0,B|91:346|40:318,1,112,8|0,0:0|0:0,0:0:0
76,212,16832,6,0,B|44:164|35:107,1,112,6|0,0:0|0:0,0:0:0
140,148,17592,2,0,B|133:90|151:35,1,112,8|0,0:0|0:0,0:0:0
256,76,18351,1,2,0:0:0
256,76,18731,1,2,0:0:0
356,24,19111,2,0,B|409:47|433:102,1,112,8|0,0:0|0:0,0:0:0
452,212,19870,6,0,B|450:271|408:314,2,112,6|0|8,0:0|0:0|0:0,0:0:0
340,224,21010,1,0,0:0:0
256,300,21389,1,2,0:0:0
144,292,21769,2,0,B|164:344,2,56,2|0|8,0:0|0:0|0:0,0:0:0
52,228,22529,1,0,0:0:0
152,180,22908,5,6,0:0:0
60,116,23288,1,0,0:0:0
124,24,23668,2,0,B|181:32|218:78,1,112,8|0,0:0|0:0,0:0:0
268,180,24427,2,0,B|316:147|330:90,1,112,2|0,0:0|0:0,0:0:0
444,80,25187,6,0,B|469:129,1,56,10|2,0:0|0:0,0:0:0
448,184,25567,2,0,B|422:233,2,56,2|2|6,0:0|0:0|0:0,0:0:0
256,192,26136,12,0,28605,0:0:0
232,60,28984,6,0,B|183:92|158:144,1,112,2|0,0:0|0:0,0:0:0
135,194,29554,1,0,0:0:0
156,248,29744,2,0,B|255:298,1,112,8|0,0:0|0:0,0:0:0
424,280,30693,6,0,B|448:332,2,56,2|0|2,0:0|0:0|0:0,0:0:0
400,228,31263,2,0,B|380:174|328:144,1,112,8|0,0:0|0:0,0:0:0
224,108,32022,5,2,0:0:0
112,92,32402,1,0,0:0:0
112,92,32592,1,0,0:0:0
112,92,32782,2,0,B|58:115|58:115|26:163,1,112,8|0,0:0|0:0,0:0:0
128,296,33731,6,0,B|76:280,2,56,2|0|2,0:0|0:0|0:0,0:0:0
184,296,34301,2,0,B|236:280,1,56,8|0,0:0|0:0,0:0:0
292,280,34680,2,0,B|344:296,1,56
400,296,35060,6,0,B|446:259|467:206,1,112,2|0,0:0|0:0,0:0:0
468,152,35630,1,0,0:0:0
448,100,35820,2,0,B|412:55|357:34,1,112,8|0,0:0|0:0,0:0:0
200,88,36769,6,0,B|227:39,2,56,2|0|2,0:0|0:0|0:0,0:0:0
151,115,37339,2,0,B|94:115,2,56,8|0|0,0:0|0:0|0:0,0:0:0
124,224,38098,6,0,B|157:270|157:270|212:292,1,112,2|2,0:0|0:0,0:0:0
320,292,38858,1,0,0:0:0
412,228,39237,1,0,0:0:0
416,116,39617,2,0,B|382:69|382:69|331:48,2,112
200,60,41136,6,0,B|150:85|109:125,2,112,2|0|2,0:0|0:0|0:0,0:0:0
207,172,42275,1,0,0:0:0
224,284,42655,2,0,B|273:258|314:218,2,112,2|0|2,0:0|0:0|0:0,0:0:0
224,284,43794,1,0,0:0:0
121,328,44174,5,2,0:0:0
121,328,44554,1,0,0:0:0
32,260,44934,1,2,0:0:0
32,260,45313,1,0,0:0:0
4,152,45693,2,0,B|38:104|94:88,1,112,2|0,0:0|0:0,0:0:0
200,52,46453,2,0,B|256:72|310:52,1,112,2|0,0:0|0:0,0:0:0
416,80,47212,6,0,B|463:53,2,56,2|0|2,0:0|0:0|0:0,0:0:0
428,192,47972,2,0,B|484:192,2,56,2|0|2,0:0|0:0|0:0,0:0:0
416,304,48731,2,0,B|463:331,2,56,2|0|2,0:0|0:0|0:0,0:0:0
312,348,49491,2,0,B|256:368|200:348,2,112,2|0|4,0:0|0:0|0:0,0:0:0
76,96,51959,6,0,B|76:40,2,56,2|2|2,0:0|0:0|0:0,0:0:0
120,132,52529,2,0,B|120:188,1,56,2|0,0:0|0:0,0:0:0
164,224,52908,2,0,B|164:280,1,56,2|0,0:0|0:0,0:0:0
200,324,53288,6,0,B|256:336|312:324,1,112,6|0,0:0|0:0,0:0:0
364,308,53858,2,0,B|416:284,1,56,0|8,0:0|0:0,0:0:0
360,188,54427,1,0,0:0:0
360,76,54807,2,0,B|412:53|470:57,2,112,2|0|8,0:0|0:0|0:0,0:0:0
256,116,55946,1,0,0:0:0
152,76,56326,6,0,B|98:53|40:57,2,112,6|0|8,0:0|0:0|0:0,0:0:0
152,188,57465,1,0,0:0:0
168,300,57845,2,0,B|277:323,1,112,2|2,0:0|0:0,0:0:0
344,232,58605,2,0,B|234:208,1,112,8|0,0:0|0:0,0:0:0
124,188,59364,5,6,0:0:0
124,188,59744,2,0,B|78:155,1,56,2|2,0:0|0:0,0:0:0
67,98,60124,2,0,B|101:54|157:33,1,112,8|0,0:0|0:0,0:0:0
256,88,60883,1,0,0:0:0
354,33,61263,2,0,B|410:54|445:98,1,112,2|8,0:0|0:0,0:0:0
433,155,61832,2,0,B|388:188,1,56,2|2,0:0|0:0,0:0:0
440,288,62402,5,6,0:0:0
440,288,62782,2,0,B|480:328,2,56,0|0|8,0:0|0:0|0:0,0:0:0
312,264,63541,2,0,B|256:248|200:264,1,112,0|2,0:0|0:0,0:0:0
112,332,64301,5,0,0:0:0
48,240,64680,2,0,B|4:276,2,56
136,172,65440,5,6,0:0:0
204,84,65820,1,0,0:0:0
256,64,66010,1,0,0:0:0
308,84,66199,2,0,B|342:132|396:155,1,112,8|0,0:0|0:0,0:0:0
500,192,66959,5,2,0:0:0
416,268,67339,1,0,0:0:0
364,288,67529,1,0,0:0:0
312,308,67718,2,0,B|256:328|200:308,1,112,8|0,0:0|0:0,0:0:0
96,268,68478,5,6,0:0:0
68,160,68858,2,0,B|12:148,2,56,0|0|8,0:0|0:0|0:0,0:0:0
132,68,69617,1,0,0:0:0
240,40,69997,2,0,B|296:16|352:40,1,112,2|2,0:0|0:0,0:0:0
416,128,70756,2,0,B|363:150|307:126,1,112,8|0,0:0|0:0,0:0:0
208,180,71516,5,6,0:0:0
148,276,71896,2,0,B|200:292,1,56
256,296,72275,2,0,B|313:293|362:261,1,112,8|0,0:0|0:0,0:0:0
464,216,73035,1,0,0:0:0
436,108,73415,2,0,B|389:72|332:66,1,112,0|8,0:0|0:0,0:0:0
277,65,73984,2,0,B|222:77,1,56
132,144,74554,5,6,0:0:0
132,144,74934,2,0,B|76:132,2,56,0|0|8,0:0|0:0|0:0,0:0:0
224,208,75693,2,0,B|259:256|252:316,1,112
144,288,76453,1,0,0:0:0
76,192,76832,6,0,B|100:140,1,56,2|2,0:0|0:0,0:0:0
140,104,77212,2,0,B|188:72,1,56,2|2,0:0|0:0,0:0:0
236,48,77592,6,0,B|348:28,1,112,6|0,0:0|0:0,0:0:0
288,124,78351,2,0,B|400:124,1,112,10|0,0:0|0:0,0:0:0
326,207,79111,2,0,B|438:226,1,112,2|0,0:0|0:0,0:0:0
347,296,79870,2,0,B|400:316,2,56,10|0|2,0:0|0:0|0:0,0:0:0
236,316,80630,6,0,B|182:333|125:335,1,112,6|0,0:0|0:0,0:0:0
184,240,81389,2,0,B|128:248|72:240,1,112,10|0,0:0|0:0,0:0:0
146,157,82149,2,0,B|89:155|35:137,1,112,2|0,0:0|0:0,0:0:0
125,68,82908,2,0,B|72:48,2,56,10|2|2,0:0|0:0|0:0,0:0:0
236,52,83668,6,0,B|291:72|321:123,1,112,6|0,0:0|0:0,0:0:0
220,172,84427,2,0,B|248:221|304:241,1,112,10|0,0:0|0:0,0:0:0
416,264,85187,1,2,0:0:0
416,264,85567,1,0,0:0:0
416,264,85946,2,0,B|472:272,2,56,10|0|2,0:0|0:0|0:0,0:0:0
304,260,86706,6,0,B|263:304|205:313,2,112,6|0|10,0:0|0:0|0:0,0:0:0
342,153,87845,1,0,0:0:0
232,125,88225,2,0,B|172:133|132:176,1,112,2|0,0:0|0:0,0:0:0
80,274,88984,2,0,B|64:328,2,56,10|2|2,0:0|0:0|0:0,0:0:0
