osu file format v10

[General]
AudioFilename: Go to the top~2.mp3
AudioLeadIn: 2500
PreviewTime: 53258
Countdown: 0
SampleSet: Soft
StackLeniency: 0.7
Mode: 0
LetterboxInBreaks: 0

[Editor]
DistanceSpacing: 1
BeatDivisor: 4
GridSize: 4

[Metadata]
Title:Go to the top (TV Size)
TitleUnicode:Go to the top (TV Size)
Artist:Koda Kumi
ArtistUnicode:Koda Kumi
Creator:thou bad
Version:Easy
Source:Muv-Luv Alternative Total Eclipse
Tags:opening CLARABELL RzC Snowy Dream
BeatmapID:166349
BeatmapSetID:54640

[Difficulty]
HPDrainRate:2
CircleSize:3
OverallDifficulty:2
ApproachRate:3
SliderMultiplier:0.9
SliderTickRate:1

[Events]
//Background and Video events
0,0,"BG.jpg"
Video,64,"op.flv"
//Break Periods
2,26145,27544
2,50450,51848
//Storyboard Layer 0 (Background)
//Storyboard Layer 1 (Fail)
//Storyboard Layer 2 (Pass)
//Storyboard Layer 3 (Foreground)
//Storyboard Sound Samples
//Background Colour Transformations
3,100,163,162,255

[TimingPoints]
124,379.746835443038,4,2,1,80,1,0
13794,-100,4,2,2,80,0,0
29744,-100,4,2,0,50,0,0
29791,-100,4,2,1,80,0,0
31263,-100,4,2,0,50,0,0
31310,-100,4,2,1,80,0,0
32782,-100,4,2,0,50,0,0
32829,-100,4,2,1,80,0,0
34301,-100,4,2,0,50,0,0
34348,-100,4,2,1,80,0,0
35820,-100,4,2,0,50,0,0
35867,-100,4,2,1,80,0,0
37339,-100,4,2,0,50,0,0
37386,-100,4,2,1,80,0,0
38098,-100,4,2,1,70,0,0
40377,-100,4,2,1,80,0,0
41136,-100,4,2,1,65,0,0
42655,-100,4,2,1,70,0,0
44174,-100,4,2,1,75,0,0
47212,-100,4,2,1,65,0,0
47972,-100,4,2,1,70,0,0
48731,-100,4,2,1,75,0,0
49491,-100,4,2,2,80,0,0
53288,-100,4,2,2,80,0,1
77592,-100,4,2,2,70,0,0
78351,-100,4,2,2,80,0,0
80630,-100,4,2,2,70,0,0
81389,-100,4,2,2,80,0,0
83668,-100,4,2,2,70,0,0
84048,-100,4,2,2,80,0,0
86706,-100,4,2,2,70,0,0
87086,-100,4,2,2,80,0,0

[Colours]
Combo1 : 0,128,192
Combo2 : 128,128,255
Combo3 : 128,64,64
Combo4 : 232,0,0

[HitObjects]
212,144,124,2,0,B|256:128|300:144,1,90,2|2,0:0|0:0,0:0:0
300,236,883,2,0,B|256:252|212:236,1,90,0|0,0:0|0:0,0:0:0
132,192,1642,5,0,0:0:0
108,104,2022,2,0,B|65:123|45:166,2,90,8|0|8,0:0|0:0|0:0,0:0:0
194,77,3161,1,0,0:0:0
284,68,3541,2,0,B|357:115|357:115|398:199,1,180,8|12,0:0|0:0,0:0:0
428,284,4680,6,0,B|472:284|472:284|500:248,2,90,0|8|0,0:0|0:0|0:0,0:0:0
336,284,5820,1,8,0:0:0
248,284,6199,1,0,0:0:0
168,240,6579,2,0,B|152:284|168:328,2,90,8|0|12,0:0|0:0|0:0,0:0:0
188,152,7718,5,2,0:0:0
168,64,8098,2,0,B|80:36,2,90,8|0|8,0:0|0:0|0:0,0:0:0
256,48,9237,1,0,0:0:0
344,64,9617,2,0,B|431:35,2,90,8|0|12,0:0|0:0|0:0,0:0:0
282,129,10756,1,0,0:0:0
208,180,11136,2,0,B|254:267|354:257,1,180,8|8,0:0|0:0,0:0:0
412,184,12275,1,0,0:0:0
386,97,12655,2,0,B|352:62|306:59,1,90,2|0,0:0|0:0,0:0:0
216,60,13415,1,0,0:0:0
132,92,13794,6,0,B|49:135|14:222,1,180,6|8,0:0|0:0,0:0:0
28,312,14934,1,0,0:0:0
108,352,15313,2,0,B|154:360|194:336,2,90,0|0|8,0:0|0:0|0:0,0:0:0
280,296,16832,6,0,B|362:252|397:165,1,180,6|8,0:0|0:0,0:0:0
428,80,17972,1,0,0:0:0
340,56,18351,2,0,B|300:136,1,90,2|0,0:0|0:0,0:0:0
212,136,19111,2,0,B|172:56,1,90,8|0,0:0|0:0,0:0:0
96,108,19870,6,0,B|40:192|96:276,1,180,6|8,0:0|0:0,0:0:0
256,192,21389,2,0,B|208:268,1,90,2|0,0:0|0:0,0:0:0
296,292,22149,2,0,B|344:216,1,90,8|0,0:0|0:0,0:0:0
432,192,22908,6,0,B|436:90|345:47,1,180,6|8,0:0|0:0,0:0:0
166,47,24427,2,0,B|75:90|80:192,2,180,2|8|6,0:0|0:0|0:0,0:0:0
168,124,28984,6,0,B|256:92|344:124,1,180,2|8,0:0|0:0,0:0:0
404,192,30123,1,0,0:0:0
324,300,30693,2,0,B|255:315|188:300,1,135,2|8,0:0|0:0,0:0:0
112,256,31642,1,0,0:0:0
64,180,32022,6,0,B|98:97|98:97|166:36,1,180,2|8,0:0|0:0,0:0:0
256,28,33161,1,0,0:0:0
368,104,33731,2,0,B|397:166|397:166|403:235,1,135,2|8,0:0|0:0,0:0:0
384,320,34680,1,0,0:0:0
300,288,35060,6,0,B|268:201|255:112,1,180,2|8,0:0|0:0,0:0:0
256,24,36199,1,0,0:0:0
144,104,36769,2,0,B|115:166|115:166|109:235,1,135,2|8,0:0|0:0,0:0:0
128,320,37718,1,0,0:0:0
208,276,38098,6,0,B|296:276,1,90,2|2,0:0|0:0,0:0:0
376,320,38858,2,0,B|396:276|376:232,1,90
344,148,39617,2,0,B|256:116|168:148,1,180,2|0,0:0|0:0,0:0:0
256,304,41136,5,2,0:0:0
400,192,41896,1,0,0:0:0
256,84,42655,1,2,0:0:0
112,192,43415,1,0,0:0:0
256,300,44174,6,0,B|338:263|338:263|396:194,1,180,2|2,0:0|0:0,0:0:0
256,80,45693,2,0,B|175:119|175:119|119:190,1,180,2|2,0:0|0:0,0:0:0
224,336,47212,6,0,B|304:376,1,90,2|0,0:0|0:0,0:0:0
316,288,47972,2,0,B|404:298,1,90,2|0,0:0|0:0,0:0:0
386,211,48731,2,0,B|472:190,1,90,2|0,0:0|0:0,0:0:0
423,115,49491,2,0,B|497:65,2,90,2|0|4,0:0|0:0|0:0,0:0:0
176,104,53288,6,0,B|208:68|256:56|304:68|336:104,1,180,6|8,0:0|0:0,0:0:0
316,192,54427,1,0,0:0:0
348,276,54807,2,0,B|425:320,2,90,0|0|8,0:0|0:0|0:0,0:0:0
164,276,56326,6,0,B|86:320,2,90,6|0|8,0:0|0:0|0:0,0:0:0
196,192,57465,1,0,0:0:0
176,104,57845,2,0,B|208:68|256:56|304:68|336:104,1,180,0|8,0:0|0:0,0:0:0
344,284,59364,6,0,B|300:284|256:300|256:300|212:284|164:284,1,180,6|8,0:0|0:0,0:0:0
108,216,60503,1,0,0:0:0
172,152,60883,2,0,B|211:71,1,90
300,71,61642,2,0,B|340:152,1,90,8|0,0:0|0:0,0:0:0
420,192,62402,6,0,B|387:279|306:326,1,180,6|8,0:0|0:0,0:0:0
256,152,63921,1,0,0:0:0
112,268,64680,2,0,B|76:237|68:191,1,90
88,104,65440,6,0,B|4:68,2,90,6|0|8,0:0|0:0|0:0,0:0:0
172,140,66579,1,0,0:0:0
256,104,66959,2,0,B|348:87|429:134,1,180,0|8,0:0|0:0,0:0:0
472,308,68478,6,0,B|392:268,1,90,6|0,0:0|0:0,0:0:0
304,268,69237,2,0,B|224:308,1,90,10|0,0:0|0:0,0:0:0
132,308,69997,2,0,B|88:287|63:244|62:194|87:154,1,180,0|8,0:0|0:0,0:0:0
256,92,71516,6,0,B|302:99|332:136,2,90,6|0|8,0:0|0:0|0:0,0:0:0
184,144,72655,1,0,0:0:0
172,232,73035,2,0,B|201:268|248:276,1,90
336,296,73794,1,8,0:0:0
420,264,74174,1,0,0:0:0
468,188,74554,6,0,B|429:102|345:61,1,180,6|8,0:0|0:0,0:0:0
165,61,76073,2,0,B|116:61|85:98,1,90,0|2,0:0|0:0,0:0:0
136,172,76832,2,0,B|184:172|215:209,1,90,2|2,0:0|0:0,0:0:0
256,288,77592,5,4,0:0:0
256,288,78351,1,10,0:0:0
408,192,79111,1,0,0:0:0
408,192,79870,2,0,B|380:156|337:139,1,90,10|2,0:0|0:0,0:0:0
256,96,80630,5,4,0:0:0
256,96,81389,1,10,0:0:0
104,192,82149,1,0,0:0:0
104,192,82908,2,0,B|131:227|174:244,1,90,10|2,0:0|0:0,0:0:0
220,324,83668,6,0,B|251:293|264:248,1,90,4|0,0:0|0:0,0:0:0
352,269,84427,2,0,B|370:229|368:182,1,90,10|2,0:0|0:0,0:0:0
458,180,85187,2,0,B|462:135|442:93,1,90,0|0,0:0|0:0,0:0:0
364,48,85946,2,0,B|345:91,2,45,10|0|2,0:0|0:0|0:0,0:0:0
276,28,86706,6,0,B|244:58|231:103,1,90,4|0,0:0|0:0,0:0:0
144,83,87465,2,0,B|125:122|127:169,1,90,10|2,0:0|0:0,0:0:0
38,172,88225,2,0,B|33:216|53:258,1,90,0|0,0:0|0:0,0:0:0
132,304,88984,2,0,B|151:261,2,45,10|0|2,0:0|0:0|0:0,0:0:0
