osu file format v5

[General]
AudioFilename: Kobukuro - .mp3
AudioLeadIn: 0
PreviewTime: -1
Countdown: 1
SampleSet: Normal
StackLeniency: 0.7
Mode: 0
LetterboxInBreaks: 1
EditorBookmarks: 24511,65111,76661,122261,132611

[Metadata]
Title:Footstep at time
Artist:Kobukuro
Creator:TOM2Y
Version:Normal
Source:
Tags:

[Difficulty]
HPDrainRate:5
CircleSize:5
OverallDifficulty:5
SliderMultiplier:0.999999999999999
SliderTickRate:1

[Events]
//Background and Video events
0,0,"61PPQzwAdKL._SS500_.jpg"
//Break Periods
2,65011,75611
//Storyboard Layer 0 (Background)
//Storyboard Layer 1 (Failing)
//Storyboard Layer 2 (Passing)
//Storyboard Layer 3 (Foreground)
//Storyboard Sound Samples
//Background Colour Transformations
3,100,163,162,255

[TimingPoints]
25511,150,4,1,0,100,1,0

[HitObjects]
224,128,24461,1,8
288,160,24911,1,8
416,160,25511,1,12
128,128,26711,5,8
160,128,26861,1,8
192,160,27161,1,8
224,192,27461,1,8
256,160,27761,1,8
288,160,28061,1,8
320,192,28361,1,4
384,288,30461,5,8
320,288,30801,1,8
320,224,31211,1,8
320,160,31361,1,8
160,160,32261,1,8
160,224,32561,1,8
160,288,33011,1,8
416,128,34021,2,8,B|160:320|160:320|64:0,1,599.999999999999
128,32,36321,5,0
160,64,36611,1,0
192,64,36911,1,0
224,64,37211,1,4
96,192,38111,5,0
128,224,38411,1,0
192,288,38861,1,0
256,192,39761,1,0
288,160,40061,1,0
320,128,40361,1,4
96,32,41411,5,0
128,64,41561,1,0
64,128,42161,1,0
160,96,42911,1,0
192,128,43061,1,0
160,192,43661,1,4
320,64,44411,5,0
256,64,44861,1,0
192,64,45161,1,0
224,128,45311,1,4
160,96,48011,5,8
192,96,48461,1,8
192,256,49061,1,8
320,96,50711,1,8
352,160,51011,1,8
288,192,51761,2,4,B|128:320,1,200
96,160,54011,5,8
160,160,54311,1,8
224,160,54911,1,8
288,160,55361,1,8
128,224,55661,1,8
192,224,56111,1,8
256,224,56861,2,4,B|448:128,4,200
128,128,59861,5,8
192,64,60161,1,8
224,128,60911,1,8
160,192,61211,1,8
288,256,61511,1,8
384,224,62111,5,8
320,160,62411,1,8
192,128,63161,1,8
128,192,63461,1,8
192,256,63911,1,8
224,288,64661,2,8,B|352:288,1,99.9999999999999
288,128,77111,5,0
352,128,77561,1,0
416,128,77861,1,0
416,192,78161,1,0
352,192,78461,1,0
160,192,78911,5,0
224,224,79361,1,0
256,224,79511,1,0
352,224,80111,1,0
320,224,81161,2,0,B|192:224,1,99.9999999999999
96,96,82961,5,0
192,96,83411,1,0
288,96,83711,1,0
288,192,85061,1,0
192,192,85511,1,0
96,192,85811,1,0
96,32,88511,6,0,B|96:160,1,99.9999999999999
160,128,89261,1,0
224,128,89561,1,0
288,128,91061,1,0
352,128,91361,1,0
384,128,91811,2,8,B|384:352,4,200
448,160,93311,1,0
64,32,94511,5,0
128,32,94811,1,0
192,128,95561,1,0
256,128,96011,1,0
256,256,96611,1,0
320,256,97061,1,0
160,192,98411,1,0
160,128,98711,1,0
160,64,99161,1,0
32,192,100661,5,8
64,160,100961,1,8
192,160,101411,1,8
224,160,101711,1,8
320,160,102161,1,8
224,256,102611,1,8
384,320,103811,2,8,B|384:64,5,200
128,320,106211,5,8
160,320,106361,1,8
256,320,106661,1,8
384,320,107261,1,8
384,192,107861,1,8
384,128,108161,2,8,B|32:128|32:128|32:384,2,599.999999999999
416,32,111761,5,8
416,96,112961,1,8
416,128,113111,1,8
288,128,113711,1,8
224,128,113861,1,8
96,64,115061,5,8
128,64,115211,1,8
192,192,116111,1,8
224,192,116561,1,8
256,192,116711,1,8
448,64,118361,5,8
448,128,118661,1,8
448,192,119861,1,8
448,256,120161,1,8
384,256,120761,2,8,B|32:256|32:256|416:0,1,799.999999999999
