osu file format v14

[General]
AudioFilename: Hana Hana x Mekurumeku.mp3
AudioLeadIn: 1624
PreviewTime: 63487
Countdown: 0
SampleSet: Soft
StackLeniency: 0.7
Mode: 0
LetterboxInBreaks: 0
WidescreenStoryboard: 0

[Editor]
DistanceSpacing: 1
BeatDivisor: 4
GridSize: 4
TimelineZoom: 1

[Metadata]
Title:Hana Hana x Mekurumeku
TitleUnicode:花花×メクルメク
Artist:Kobory(Mikami Shiori)from BRILLIANT4
ArtistUnicode:コボリー(三上枝織)from BRILLIANT4
Creator:Setz
Version:Normal
Source:Amagi Brilliant Park
Tags:甘城ブリリアントパーク Character song A_Mystery kakeru kobori 甘ブリ A Mystery amaburi
BeatmapID:697106
BeatmapSetID:311347

[Difficulty]
HPDrainRate:4
CircleSize:3.5
OverallDifficulty:3
ApproachRate:4
SliderMultiplier:1.2
SliderTickRate:2

[Events]
//Background and Video events
0,0,"ABG.jpg",0,0
//Break Periods
//Storyboard Layer 0 (Background)
//Storyboard Layer 1 (Fail)
//Storyboard Layer 2 (Pass)
//Storyboard Layer 3 (Foreground)
//Storyboard Sound Samples

[TimingPoints]
376,444.444444444444,4,2,4,30,1,0
1264,-100,4,2,4,40,0,0
2153,-100,4,2,4,50,0,0
3042,-100,4,2,4,60,0,0
3487,-100,4,2,4,70,0,0
5264,-100,4,2,5,50,0,0
5487,-100,4,2,4,70,0,0
8820,-100,4,2,5,50,0,0
9042,-100,4,2,4,70,0,0
9709,-100,4,2,5,50,0,0
9820,-100,4,2,4,45,0,0
10487,-100,4,2,4,70,0,0
12375,-100,4,2,5,50,0,0
12598,-100,4,2,4,70,0,0
15931,-100,4,2,5,50,0,0
16153,-100,4,2,4,70,0,0
19487,-100,4,2,5,50,0,0
19709,-100,4,2,4,70,0,0
23042,-100,4,2,5,50,0,0
23264,-100,4,2,4,70,0,0
26598,-100,4,2,5,50,0,0
26820,-100,4,2,4,70,0,0
30153,-100,4,2,5,50,0,0
30375,-100,4,2,4,70,0,0
33709,-100,4,2,5,50,0,0
33931,-100,4,2,4,70,0,0
37264,-100,4,2,5,50,0,0
37487,-100,4,2,4,70,0,0
40820,-100,4,2,5,50,0,0
41042,-100,4,2,4,70,0,0
44375,-100,4,2,5,50,0,0
44598,-100,4,2,4,70,0,0
47931,-100,4,2,5,50,0,0
48153,-100,4,2,4,70,0,0
50153,-100,4,2,4,40,0,0
50264,-100,4,2,4,70,0,0
51487,-100,4,2,5,50,0,0
51709,-100,4,2,4,70,0,0
55042,-100,4,2,5,50,0,0
55264,-100,4,2,4,70,0,0
56820,-100,4,2,5,50,0,0
57042,-100,4,2,4,70,0,0
58598,-100,4,2,5,50,0,0
58820,-100,4,2,4,70,0,0
60375,-100,4,2,4,60,0,0
60820,-100,4,2,4,60,0,0
61042,-100,4,2,4,55,0,0
61264,-100,4,2,4,70,0,0
62153,-100,4,2,5,50,0,0
62375,-100,4,2,4,70,0,0
64375,-100,4,2,4,70,0,1
65709,-100,4,2,5,50,0,1
65931,-100,4,2,4,70,0,1
67487,-100,4,2,5,50,0,1
67709,-100,4,2,4,70,0,1
69264,-100,4,2,5,50,0,1
69487,-100,4,2,4,70,0,1
72820,-100,4,2,5,50,0,1
73042,-100,4,2,4,70,0,1
76375,-100,4,2,5,50,0,1
76598,-100,4,2,4,70,0,1
78487,-100,4,2,4,70,0,0
78598,-100,4,2,4,70,0,1
79931,-100,4,2,5,50,0,1
80153,-100,4,2,4,70,0,1
81709,-100,4,2,5,50,0,1
81931,-100,4,2,4,70,0,1
83487,-100,4,2,5,50,0,1
83709,-100,4,2,4,70,0,1
85264,-100,4,2,5,50,0,1
85487,-100,4,2,4,70,0,1
87042,-100,4,2,5,50,0,1
87264,-100,4,2,4,70,0,1
92820,-100,4,2,4,70,0,0
94153,-100,4,2,5,50,0,0
94375,-100,4,2,4,70,0,0
97709,-100,4,2,5,50,0,0
97931,-100,4,2,4,70,0,0
98598,-100,4,2,5,50,0,0
98709,-100,4,2,4,70,0,0
101264,-100,4,2,5,50,0,0
101487,-100,4,2,4,70,0,0
104820,-100,4,2,5,50,0,0
105042,-100,4,2,4,70,0,0

[Colours]
Combo1 : 244,62,89
Combo2 : 0,202,0
Combo3 : 32,133,255
Combo4 : 70,140,140

[HitObjects]
256,192,376,12,0,3042,0:0:0:0:
283,135,3931,6,0,P|305:194|281:250,1,120,4|10,0:0|0:0,0:0:0:0:
168,271,4820,2,0,P|125:254|73:256,2,90,2|10|2,0:0|0:1|0:0,0:0:0:0:
271,335,5931,2,0,L|335:345,1,60,0|8,0:0|0:0,0:0:0:0:
388,330,6375,1,8,0:1:0:0:
451,228,6820,2,0,L|513:225,2,60,10|10|2,0:1|0:0|0:0,0:0:0:0:
403,190,7487,6,0,P|360:157|293:165,1,120,2|8,0:0|0:0,0:0:0:0:
183,200,8375,2,0,P|140:212|70:206,2,90,2|10|2,0:0|0:1|0:0,0:0:0:0:
216,84,9487,2,0,P|271:57|345:59,1,120,2|8,0:0|0:1,0:0:0:0:
380,86,10153,2,0,L|389:148,1,60,10|8,0:1|0:1,0:0:0:0:
368,202,10598,2,0,L|377:264,1,60,10|2,0:0|0:0,0:0:0:0:
346,313,11042,6,0,P|291:340|217:338,1,120,4|10,0:0|0:0,0:0:0:0:
113,329,11931,2,0,P|68:330|23:355,2,90,2|8|2,0:0|0:1|0:0,0:0:0:0:
214,264,13042,2,0,L|206:194,1,60,2|8,0:0|0:0,0:0:0:0:
203,144,13487,1,8,0:1:0:0:
291,63,13931,2,0,L|286:3,2,60,10|10|2,0:1|0:0|0:0,0:0:0:0:
314,118,14598,6,0,P|327:175|309:232,1,120,2|10,0:0|0:0,0:0:0:0:
265,347,15487,2,0,P|311:362|356:358,2,90,2|8|6,0:0|0:1|0:0,0:0:0:0:
152,303,16598,2,0,L|146:362,2,60,2|8|2,0:0|0:0|0:0,0:0:0:0:
117,253,17264,2,0,L|122:185,1,60,2|2,0:0|0:0,0:0:0:0:
90,141,17709,2,0,L|94:78,1,60,8|10,0:0|0:1,0:0:0:0:
137,39,18153,6,0,P|197:28|252:54,1,120,4|8,0:0|0:0,0:0:0:0:
299,160,19042,2,0,P|291:206|298:258,2,90,8|8|2,0:1|0:1|0:0,0:0:0:0:
356,54,20153,2,0,P|391:56|421:65,1,60,2|8,0:0|0:0,0:0:0:0:
457,104,20598,1,8,0:1:0:0:
437,222,21042,2,0,P|475:225|509:237,2,60,8|8|0,0:1|0:0|0:0,0:0:0:0:
387,255,21709,6,0,P|330:284|264:280,1,120,2|8,0:0|0:0,0:0:0:0:
186,201,22598,2,0,P|193:157|192:110,2,90,8|8|2,0:1|0:1|0:0,0:0:0:0:
96,279,23709,2,0,P|66:280|23:295,2,60,0|8|8,0:0|0:0|0:1,0:0:0:0:
151,302,24375,2,0,P|202:324|285:315,1,120,2|8,0:0|0:0,0:0:0:0:
324,310,25042,1,0,0:0:0:0:
324,310,25264,6,0,P|317:246|320:186,1,120,2|8,0:0|0:0,0:0:0:0:
398,102,26153,2,0,P|434:102|488:93,2,90,8|8|2,0:1|0:1|0:0,0:0:0:0:
289,51,27264,2,0,P|259:49|214:57,1,60,2|8,0:0|0:0,0:0:0:0:
173,75,27709,2,0,L|182:209,1,120,8|2,0:1|0:0,0:0:0:0:
220,239,28375,2,0,L|224:319,1,60,10|0,0:0|0:0,0:0:0:0:
262,344,28820,6,0,P|304:356|386:331,1,120,10|8,0:1|0:0,0:0:0:0:
461,252,29709,2,0,P|476:210|470:152,2,90,8|8|2,0:1|0:1|0:0,0:0:0:0:
375,337,30820,2,0,L|315:342,1,60,0|8,0:0|0:0,0:0:0:0:
259,322,31264,1,10,0:1:0:0:
193,221,31709,2,0,P|162:215|133:216,2,60,8|8|0,0:1|0:0|0:0,0:0:0:0:
240,185,32375,6,0,L|232:57,1,120,4|8,0:0|0:0,0:0:0:0:
119,27,33264,2,0,P|72:21|27:36,2,90,8|8|2,0:1|0:1|0:0,0:0:0:0:
84,142,34375,2,0,L|89:205,1,60,0|8,0:0|0:0,0:0:0:0:
125,249,34820,1,8,0:1:0:0:
225,314,35264,2,0,L|229:373,2,60,10|10|0,0:1|0:0|0:0,0:0:0:0:
263,267,35931,6,0,P|317:250|391:263,1,120,2|10,0:0|0:0,0:0:0:0:
493,294,36820,2,0,P|505:336|495:380,2,90,10|8|2,0:1|0:1|0:0,0:0:0:0:
440,185,37931,2,0,L|443:116,2,60,0|8|8,0:0|0:0|0:1,0:0:0:0:
394,224,38598,2,0,P|334:228|282:201,1,120,2|10,0:0|0:0,0:0:0:0:
232,167,39264,1,0,0:0:0:0:
231,166,39487,6,0,P|174:150|117:166,1,120,2|8,0:0|0:0,0:0:0:0:
88,282,40375,2,0,P|132:284|175:270,2,90,10|10|2,0:1|0:1|0:0,0:0:0:0:
3,196,41487,2,0,P|1:166|9:121,1,60,0|8,0:0|0:0,0:0:0:0:
27,80,41932,2,0,L|146:88,1,120,8|2,0:1|0:0,0:0:0:0:
191,127,42598,2,0,L|271:131,1,60,10|0,0:0|0:0,0:0:0:0:
296,169,43043,6,0,P|308:211|283:293,1,120,10|8,0:1|0:0,0:0:0:0:
185,342,43931,2,0,P|141:358|83:345,2,90,10|10|2,0:1|0:1|0:0,0:0:0:0:
289,283,45042,2,0,P|320:284|349:283,1,60,2|8,0:0|0:0,0:0:0:0:
406,264,45487,1,10,0:1:0:0:
451,153,45931,2,0,P|482:151|510:152,2,60,8|8|0,0:1|0:0|0:0,0:0:0:0:
415,104,46598,6,0,P|366:74|291:75,1,120,4|8,0:0|0:0,0:0:0:0:
202,134,47487,2,0,L|214:241,2,90,8|8|6,0:1|0:1|0:0,0:0:0:0:
126,40,48598,1,0,0:0:0:0:
61,271,49487,2,0,P|31:276|1:278,2,60,10|10|2,0:1|0:0|0:0,0:0:0:0:
118,254,50153,6,0,P|176:233|233:244,1,120,6|10,0:0|0:0,0:0:0:0:
344,285,51042,2,0,P|381:293|441:289,2,90,10|10|4,0:1|0:1|0:0,0:0:0:0:
277,185,52153,1,2,0:0:0:0:
165,140,52598,1,10,0:1:0:0:
75,219,53042,2,0,L|71:293,2,60,10|10|2,0:1|0:0|0:0,0:0:0:0:
42,168,53709,6,0,P|35:112|70:56,1,120,2|10,0:0|0:0,0:0:0:0:
182,29,54598,2,0,P|225:14|283:23,2,90,10|10|2,0:1|0:1|0:0,0:0:0:0:
78,85,55709,2,0,P|50:83|14:88,2,60,2|10|8,0:0|0:0|0:1,0:0:0:0:
133,108,56375,2,0,P|178:109|231:102,2,90,2|0|0,0:1|0:0|0:0,0:0:0:0:
79,133,57264,6,0,P|74:193|79:253,1,120,2|8,0:0|0:0,0:0:0:0:
143,355,58153,2,0,P|99:371|49:369,2,90,10|8|6,0:1|0:1|0:0,0:0:0:0:
273,230,59487,1,10,0:0:0:0:
196,137,59931,1,2,0:0:0:0:
303,84,60375,1,10,0:0:0:0:
380,175,60820,6,0,P|410:171|455:169,2,60,10|2|8,0:1|0:0|0:0,0:0:0:0:
273,230,61709,2,0,P|226:239|170:242,2,90,8|8|2,0:1|0:1|0:0,0:0:0:0:
383,277,62820,2,0,P|413:273|458:271,1,60,2|10,0:0|0:0,0:0:0:0:
495,242,63264,1,10,0:1:0:0:
427,142,63709,2,0,L|436:79,2,60,8|10|2,0:1|0:0|0:0,0:0:0:0:
390,189,64375,6,0,P|322:202|271:182,1,120,4|8,0:0|0:0,0:0:0:0:
175,117,65264,2,0,P|150:105|69:112,2,90,10|10|10,0:1|0:1|0:1,0:0:0:0:
288,77,66375,2,0,L|292:14,2,60,0|8|0,0:0|0:0|0:1,0:0:0:0:
313,131,67042,2,0,L|310:240,2,90,2|2|2,0:0|0:0|0:0,0:0:0:0:
364,100,67931,6,0,P|419:91|485:116,1,120,8|8,0:1|0:1,0:0:0:0:
412,212,68820,2,0,L|409:316,2,90,8|8|10,0:1|0:1|0:1,0:0:0:0:
364,100,69931,2,0,P|331:94|297:84,1,60,0|8,0:0|0:0,0:0:0:0:
246,74,70375,1,10,0:1:0:0:
246,74,70598,2,0,P|187:63|108:94,1,120,2|8,0:0|0:0,0:0:0:0:
63,178,71487,6,0,P|37:181|0:181,2,60,10|0|10,0:1|0:0|0:0,0:0:0:0:
170,231,72375,2,0,P|165:277|166:343,2,90,10|10|8,0:1|0:1|0:1,0:0:0:0:
263,155,73487,2,0,P|292:155|322:151,1,60,0|8,0:0|0:0,0:0:0:0:
381,138,73931,2,0,P|403:198|389:266,1,120,0|8,0:0|0:1,0:0:0:0:
353,295,74598,1,8,0:0:0:0:
240,252,75042,6,0,L|232:185,1,60,8|8,0:0|0:1,0:0:0:0:
192,147,75487,2,0,L|184:80,1,60,8|8,0:0|0:1,0:0:0:0:
149,39,75931,2,0,P|100:24|43:35,2,90,8|8|8,0:0|0:1|0:1,0:0:0:0:
264,73,77042,2,0,P|295:74|332:68,1,60,0|8,0:0|0:0,0:0:0:0:
382,81,77487,1,8,0:1:0:0:
429,190,77931,2,0,P|458:185|487:178,2,60,0|8|0,0:0|0:0|0:0,0:0:0:0:
377,221,78598,6,0,P|326:244|263:239,1,120,4|8,0:0|0:0,0:0:0:0:
305,127,79487,2,0,L|316:33,2,90,8|8|10,0:1|0:1|0:1,0:0:0:0:
263,239,80598,2,0,L|267:319,2,60,0|8|8,0:0|0:0|0:1,0:0:0:0:
223,194,81264,2,0,P|180:187|124:207,2,90,2|2|2,0:0|0:0|0:0,0:0:0:0:
263,149,82153,6,0,P|326:142|386:141,1,120,8|8,0:1|0:0,0:0:0:0:
493,95,83042,2,0,P|504:49|495:5,2,90,8|8|10,0:1|0:1|0:1,0:0:0:0:
382,140,84153,2,0,L|305:145,1,60,0|8,0:0|0:0,0:0:0:0:
263,149,84598,1,2,0:0:0:0:
213,183,84820,2,0,P|212:228|215:294,2,90,2|2|0,0:0|0:0|0:0,0:0:0:0:
163,146,85709,6,0,P|106:134|49:152,1,120,10|8,0:1|0:0,0:0:0:0:
111,254,86598,2,0,P|64:270|19:267,2,90,10|8|8,0:1|0:1|0:1,0:0:0:0:
228,231,87709,2,0,P|259:228|309:234,1,60,0|8,0:0|0:0,0:0:0:0:
345,245,88153,2,0,P|400:253|461:231,1,120,8|0,0:1|0:0,0:0:0:0:
499,187,88820,1,8,0:0:0:0:
441,81,89264,6,0,P|407:73|371:70,1,60,10|10,0:0|0:1,0:0:0:0:
321,70,89709,1,10,0:0:0:0:
225,141,90153,1,8,0:0:0:0:
282,246,90598,1,8,0:0:0:0:
282,246,90820,2,0,P|332:270|392:250,1,120,8|0,0:1|0:0,0:0:0:0:
441,219,91487,2,0,P|450:154|441:89,1,120,8|10,0:0|0:1,0:0:0:0:
356,17,92375,1,10,0:0:0:0:
269,99,92820,6,0,B|211:123|212:71|145:99,1,120,4|10,0:0|0:0,0:0:0:0:
38,133,93709,2,0,P|25:176|32:233,2,90,2|8|2,0:0|0:1|0:0,0:0:0:0:
152,95,94820,2,0,P|191:91|217:92,1,60,0|8,0:0|0:0,0:0:0:0:
268,109,95264,1,8,0:1:0:0:
386,123,95709,2,0,L|401:63,2,60,10|10|2,0:1|0:0|0:0,0:0:0:0:
419,173,96375,6,0,P|427:231|401:292,1,120,2|10,0:0|0:0,0:0:0:0:
310,212,97264,2,0,P|266:223|222:219,2,90,2|8|0,0:0|0:1|0:0,0:0:0:0:
257,104,98375,2,0,P|198:100|139:133,1,120,0|8,0:0|0:1,0:0:0:0:
97,163,99042,2,0,L|108:237,1,60,8|8,0:1|0:1,0:0:0:0:
152,260,99487,2,0,L|163:334,1,60,10|10,0:0|0:1,0:0:0:0:
204,359,99931,6,0,P|263:360|319:333,1,120,4|10,0:0|0:0,0:0:0:0:
397,244,100820,2,0,P|445:238|491:223,2,90,2|8|2,0:0|0:1|0:0,0:0:0:0:
354,131,101931,2,0,P|324:125|287:122,1,60,2|8,0:0|0:0,0:0:0:0:
235,133,102375,1,8,0:1:0:0:
136,201,102820,2,0,P|106:198|76:192,2,60,10|10|2,0:1|0:0|0:0,0:0:0:0:
190,227,103487,6,0,P|233:260|300:252,1,120,2|8,0:0|0:0,0:0:0:0:
409,217,104375,2,0,P|452:205|522:211,2,90,2|8|6,0:0|0:1|0:0,0:0:0:0:
317,295,105487,2,0,L|327:362,2,60,2|8|2,0:0|0:0|0:0,0:0:0:0:
262,269,106153,2,0,L|253:207,1,60,2|2,0:0|0:0,0:0:0:0:
212,165,106598,2,0,L|203:103,1,60,10|2,0:0|0:0,0:0:0:0:
241,59,107042,5,10,0:0:0:0:
359,39,107487,1,10,0:0:0:0:
445,121,107931,2,0,P|457:164|467:214,2,90,10|10|4,0:0|0:0|0:0,0:0:0:0:
