osu file format v13

[General]
AudioFilename: 78 Trim.mp3
AudioLeadIn: 0
PreviewTime: 25395
Countdown: 0
SampleSet: Normal
StackLeniency: 0.7
Mode: 0
LetterboxInBreaks: 0
WidescreenStoryboard: 1

[Editor]
Bookmarks: 49379
DistanceSpacing: 0.8
BeatDivisor: 4
GridSize: 8
TimelineZoom: 1

[Metadata]
Title:Trim
TitleUnicode:Trim
Artist:Kobo
ArtistUnicode:Kobo
Creator:Malikil
Version:Normal
Source:Dance Dance Revolution SuperNOVA 2
Tags:DDR
BeatmapID:470848
BeatmapSetID:198459

[Difficulty]
HPDrainRate:4
CircleSize:4
OverallDifficulty:3
ApproachRate:5
SliderMultiplier:1
SliderTickRate:1

[Events]
//Background and Video events
0,0,"kobotrim.jpg",0,0
//Break Periods
2,59477,63725
//Storyboard Layer 0 (Background)
//Storyboard Layer 1 (Fail)
//Storyboard Layer 2 (Pass)
//Storyboard Layer 3 (Foreground)
//Storyboard Sound Samples
//Background Colour Transformations
3,100,163,162,255

[TimingPoints]
1396,352.941176470588,4,1,0,50,1,0
70572,-90.9090909090909,4,1,0,50,0,1
93160,-133.333333333333,4,1,0,50,0,0

[Colours]
Combo1 : 0,255,255
Combo2 : 0,255,0
Combo3 : 0,0,255
Combo4 : 255,255,0

[HitObjects]
80,192,2807,6,0,P|256:112|440:192,1,400,4|2,2:1|2:0,0:0:0:0:
344,320,4925,2,0,P|256:352|152:304,1,200,2|2,2:0|2:0,0:0:0:0:
256,184,6338,1,4,2:0:0:0:
256,32,7044,5,2,3:0:0:0:
336,32,7395,2,0,P|416:48|472:96,2,150,2|2|2,3:0|2:0|3:0,0:0:0:0:
312,112,8807,6,0,P|248:152|176:144,1,150,2|2,3:0|2:0,0:0:0:0:
96,232,9866,2,0,P|176:312|272:320,1,200,2|2,2:0|2:0,0:0:0:0:
392,240,11278,2,0,P|344:104|112:104,1,400,2|2,2:0|2:0,0:0:0:0:
80,168,13043,6,0,P|131:220|204:231,2,150,2|2|4,3:0|3:0|3:1,0:0:0:0:
77,90,14454,2,0,P|128:38|201:27,1,150,2|2,3:0|2:0,0:0:0:0:
320,40,15513,2,0,P|368:144|320:216,2,200,2|2|2,2:0|2:0|2:0,0:0:0:0:
192,128,17631,1,4,2:0:0:0:
192,288,18337,5,2,3:0:0:0:
128,248,18690,2,0,P|168:216|256:248,2,150,2|2|2,3:0|3:0|3:0,0:0:0:0:
60,208,20101,6,0,P|124:152|200:136,1,150,2|2,2:0|2:0,0:0:0:0:
308,156,21160,2,0,P|388:196|492:172,2,200,2|2|2,2:0|2:0|2:0,0:0:0:0:
228,168,22925,2,0,P|204:248|228:320,1,150,2|2,3:0|3:0,0:0:0:0:
340,308,23984,5,0,0:0:0:0:
356,232,24337,1,0,0:0:0:0:
416,284,24690,2,0,L|440:332,2,50
424,204,25395,6,0,P|384:168|328:164,1,100,4|2,0:0|0:3,0:0:0:0:
352,240,26101,2,0,P|300:228|268:192,1,100,0|2,0:0|0:3,0:0:0:0:
196,224,26807,2,0,P|144:188|136:136,1,100,0|2,0:0|0:3,0:0:0:0:
212,148,27513,2,0,L|244:92,2,50,0|0|2,0:0|0:0|0:3,0:0:0:0:
264,212,28219,6,0,P|328:192|352:148,1,100,0|2,0:0|0:3,0:0:0:0:
360,88,28925,2,0,P|308:96|272:144,1,100,0|2,0:0|0:3,0:0:0:0:
204,160,29631,1,0,0:0:0:0:
128,132,29984,1,2,0:3:0:0:
128,252,30513,2,0,L|176:284,1,50,8|8,3:2|3:2,0:0:0:0:
248,272,31043,6,0,P|288:224|288:176,1,100,0|2,0:0|0:3,0:0:0:0:
368,212,31748,2,0,P|368:156|336:108,1,100,0|2,0:0|0:3,0:0:0:0:
272,104,32454,2,0,P|232:128|208:184,1,100,0|2,0:0|0:3,0:0:0:0:
288,188,33160,2,0,L|270:248,2,50,0|0|4,0:0|0:0|0:2,0:0:0:0:
268,112,33866,6,0,P|317:112|356:144,1,100,0|2,0:0|0:3,0:0:0:0:
388,68,34572,2,0,P|340:40|276:36,1,100,0|2,0:0|0:3,0:0:0:0:
220,56,35278,1,0,0:0:0:0:
164,116,35631,2,0,P|116:164|28:172,2,150,2|2|4,3:0|3:0|0:0,0:0:0:0:
244,116,37043,5,0,0:0:0:0:
204,188,37395,2,0,P|260:196|304:168,1,100,0|2,0:0|0:3,0:0:0:0:
376,188,38101,1,0,0:0:0:0:
416,120,38454,1,2,0:3:0:0:
452,192,38807,2,0,P|436:240|380:264,1,100,0|2,0:0|0:3,0:0:0:0:
316,268,39513,6,0,P|268:228|220:228,1,100,0|2,0:0|0:3,0:0:0:0:
152,240,40219,2,0,L|120:280,2,50,0|0|2,0:0|0:0|0:3,0:0:0:0:
180,164,40925,2,0,P|220:104|300:64,2,150,2|2|2,3:0|3:0|3:0,0:0:0:0:
256,184,42337,6,0,P|292:144|336:140,1,100,0|2,0:0|0:3,0:0:0:0:
408,172,43043,2,0,P|364:216|312:212,1,100,0|2,0:0|0:3,0:0:0:0:
268,272,43748,2,0,P|236:304|168:304,1,100,0|2,0:0|0:3,0:0:0:0:
200,236,44454,2,0,L|168:192,2,50,0|0|4,0:0|0:0|0:2,0:0:0:0:
268,196,45160,6,0,P|324:172|344:136,1,100,0|2,0:0|0:3,0:0:0:0:
264,112,45866,2,0,P|208:136|188:168,1,100,0|2,0:0|0:3,0:0:0:0:
196,248,46572,2,0,P|252:280|300:272,2,100,0|2|0,0:0|0:3|3:0,0:0:0:0:
156,256,47454,2,0,L|132:304,2,50,2|2|2,3:0|3:0|3:0,0:0:0:0:
148,216,47984,6,0,P|92:208|52:168,1,100,4|2,0:0|0:3,0:0:0:0:
72,100,48690,2,0,P|136:84|184:108,1,100,0|2,0:0|0:3,0:0:0:0:
208,164,49395,2,0,P|328:172|360:156,2,150,0|0|0,3:0|0:0|3:0,0:0:0:0:
224,84,50807,6,0,P|288:60|336:76,1,100,0|2,0:0|0:3,0:0:0:0:
392,96,51513,2,0,P|440:144|448:192,1,100,0|2,0:0|0:3,0:0:0:0:
400,236,52219,1,0,0:0:0:0:
324,256,52572,2,0,L|268:240,1,50,0|2,0:0|0:3,0:0:0:0:
196,248,53101,2,0,L|132:280,1,50,8|8,0:2|0:2,0:0:0:0:
100,208,53631,6,0,P|156:176|180:136,1,100,0|2,0:0|0:3,0:0:0:0:
256,152,54337,2,0,P|286:190|331:212,1,100,0|2,0:0|0:3,0:0:0:0:
380,148,55043,2,0,P|340:100|292:84,1,100,0|2,0:0|0:3,0:0:0:0:
228,72,55748,2,0,L|196:16,2,50,0|0|4,0:0|0:0|0:2,0:0:0:0:
176,132,56454,6,0,P|148:180|160:236,1,100,0|2,0:0|0:3,0:0:0:0:
228,192,57160,2,0,P|268:216|292:280,1,100,0|2,0:0|0:3,0:0:0:0:
372,264,57866,1,0,0:0:0:0:
400,188,58219,5,2,0:3:0:0:
360,120,58572,2,0,P|320:80|272:72,2,100,0|2|4,0:0|0:3|0:0,0:0:0:0:
256,192,64925,12,0,69160,0:0:0:0:
188,168,70219,6,0,P|208:116|252:92,1,100,0|8,0:0|0:2,0:0:0:0:
266,174,70925,5,8,0:0:0:0:
302,256,71278,2,0,P|248:260|202:231,1,110.000003356934,0|8,0:0|0:0,0:0:0:0:
126,267,71984,1,0,0:0:0:0:
94,184,72337,1,8,0:0:0:0:
151,116,72690,2,0,L|151:58,2,55.0000016784668,0|0|8,0:0|0:0|0:0,0:0:0:0:
184,200,73395,5,0,0:0:0:0:
263,156,73748,1,8,0:0:0:0:
344,112,74101,2,0,L|344:54,2,55.0000016784668,0|0|8,0:0|0:0|0:0,0:0:0:0:
342,199,74807,1,0,0:0:0:0:
270,253,75160,1,8,0:0:0:0:
194,303,75513,2,0,L|122:303,2,55.0000016784668,8|8|8,0:2|0:2|0:2,0:0:0:0:
272,344,76219,5,4,0:2:0:0:
356,307,76572,1,8,0:0:0:0:
403,231,76925,2,0,P|403:174|368:136,1,110.000003356934,0|8,0:0|0:0,0:0:0:0:
288,168,77631,2,0,P|241:214|198:218,1,110.000003356934,0|8,0:0|0:0,0:0:0:0:
208,128,78337,2,0,L|179:77,2,55.0000016784668,0|0|8,0:0|0:0|0:0,0:0:0:0:
152,192,79043,6,0,P|145:254|176:301,2,110.000003356934,0|8|0,0:0|0:0|0:0,0:0:0:0:
223,231,80101,1,8,0:0:0:0:
232,144,80454,2,0,P|296:179|307:223,1,110.000003356934,0|8,0:0|0:0,0:0:0:0:
304,296,81160,2,0,L|257:339,1,55.0000016784668,8|8,0:2|0:2,0:0:0:0:
224,312,81513,2,0,L|177:355,1,55.0000016784668,8|8,0:2|0:2,0:0:0:0:
136,344,81866,6,0,P|89:306|78:257,1,110.000003356934,4|8,0:0|0:0,0:0:0:0:
120,184,82572,2,0,P|163:148|221:141,1,110.000003356934,0|8,0:0|0:0,0:0:0:0:
200,224,83278,1,0,0:0:0:0:
288,224,83631,1,8,0:0:0:0:
376,208,83984,2,0,L|376:273,2,55.0000016784668,0|0|8,0:0|0:0|0:0,0:0:0:0:
335,130,84690,6,0,P|291:116|227:145,1,110.000003356934,0|8,0:0|0:0,0:0:0:0:
284,209,85395,2,0,P|234:224|176:200,1,110.000003356934,0|8,0:0|0:0,0:0:0:0:
104,168,86101,1,0,0:0:0:0:
112,256,86454,1,8,0:0:0:0:
184,312,86807,2,0,L|248:319,2,55.0000016784668,0|0|8,0:0|0:0|0:0,0:0:0:0:
191,224,87513,6,0,P|248:181|291:174,1,110.000003356934,0|8,0:0|0:0,0:0:0:0:
291,263,88219,2,0,P|360:263|399:235,1,110.000003356934,0|8,0:0|0:0,0:0:0:0:
368,160,88925,2,0,P|377:102|351:52,1,110.000003356934,0|8,0:0|0:0,0:0:0:0:
288,120,89631,2,0,L|223:134,2,55.0000016784668,0|0|8,0:0|0:0|0:0,0:0:0:0:
252,202,90337,6,0,P|216:231|144:231,1,110.000003356934,0|8,0:0|0:0,0:0:0:0:
184,148,91043,2,0,L|162:98,2,55.0000016784668,0|0|8,0:0|0:0|0:0,0:0:0:0:
104,188,91748,2,0,P|86:249|104:288,1,110.000003356934,0|8,0:0|0:0,0:0:0:0:
192,312,92454,2,0,L|263:319,1,55.0000016784668,8|8,0:2|0:0,0:0:0:0:
256,272,92807,2,0,L|327:279,1,55.0000016784668,8|8,0:2|0:0,0:0:0:0:
336,296,93160,6,0,P|408:232|304:96,1,300.000011444092,4|2,0:0|2:0,0:0:0:0:
192,128,95278,2,0,P|216:200|168:264,2,150.000005722046,2|2|2,2:0|2:0|2:0,0:0:0:0:
88,184,97395,6,0,P|88:240|104:264,1,75.0000028610231
120,312,98101,1,0,0:0:0:0:
176,336,98454,1,0,0:0:0:0:
240,336,98807,6,0,P|312:312|376:104,1,300.000011444092,0|2,0:0|2:0,0:0:0:0:
264,152,100925,1,2,2:0:0:0:
152,192,101631,2,0,P|192:64|348:76,1,300.000011444092,2|2,2:0|2:3,0:0:0:0:
334,131,103395,2,0,P|386:107|398:43,2,112.500004291535,0|0|0,0:0|0:0|0:0,0:0:0:0:
