osu file format v13

[General]
AudioFilename: 78 Trim.mp3
AudioLeadIn: 0
PreviewTime: 25395
Countdown: 0
SampleSet: Normal
StackLeniency: 0.7
Mode: 0
LetterboxInBreaks: 0
WidescreenStoryboard: 1

[Editor]
Bookmarks: 2807,14101,25395,36690,47984,59278,70572,81850,93144
DistanceSpacing: 1
BeatDivisor: 4
GridSize: 8
TimelineZoom: 1.3

[Metadata]
Title:Trim
TitleUnicode:Trim
Artist:Kobo
ArtistUnicode:Kobo
Creator:Malikil
Version:Insane
Source:Dance Dance Revolution SuperNOVA 2
Tags:DDR
BeatmapID:470847
BeatmapSetID:198459

[Difficulty]
HPDrainRate:7
CircleSize:5
OverallDifficulty:7
ApproachRate:8
SliderMultiplier:1.4
SliderTickRate:1

[Events]
//Background and Video events
0,0,"kobotrim.jpg",0,0
//Break Periods
2,59477,61175
//Storyboard Layer 0 (Background)
//Storyboard Layer 1 (Fail)
//Storyboard Layer 2 (Pass)
//Storyboard Layer 3 (Foreground)
//Storyboard Sound Samples
//Background Colour Transformations
3,100,163,162,255

[TimingPoints]
1396,352.941176470588,4,1,0,50,1,0
23984,-90.9090909090909,4,1,0,70,0,0
59278,-133.333333333333,4,1,0,70,0,0
69160,-200,4,1,0,80,0,0
70572,-83.3333333333333,4,1,0,90,0,1
93160,-133.333333333333,4,1,0,60,0,0

[Colours]
Combo1 : 0,255,255
Combo2 : 0,255,0
Combo3 : 0,0,255
Combo4 : 255,255,0

[HitObjects]
224,224,1396,6,0,L|208:232,32,17.5,0|0|0|0|0|0|0|0|0|0|0|0|0|0|0|0|0|0|0|0|0|0|0|0|0|0|0|0|0|0|0|0|4,2:0|2:0|2:0|2:0|2:0|2:0|2:0|2:0|2:0|2:0|2:0|2:0|2:0|2:0|2:0|2:0|2:0|2:0|2:0|2:0|2:0|2:0|2:0|2:0|2:0|2:0|2:0|2:0|2:0|2:0|2:0|2:0|2:0,2:0:0:0:
344,296,3160,1,2,3:0:0:0:
360,264,3248,1,2,3:0:0:0:
368,232,3337,1,2,3:0:0:0:
368,200,3425,2,0,P|360:144|136:104,1,315,2|2,3:0|2:0,0:0:0:0:
72,288,4925,2,0,P|144:344|240:224,1,280,0|2,2:0|2:0,0:0:0:0:
104,64,6337,6,0,P|152:40|240:48,1,140,0|0,3:0|2:0,0:0:0:0:
320,152,7043,1,2,2:0:0:0:
184,168,7395,1,2,2:0:0:0:
184,168,7572,1,2,2:0:0:0:
128,296,7925,2,0,L|200:296,1,70,2|2,2:0|2:0,0:0:0:0:
304,192,8454,5,0,3:0:0:0:
376,184,8631,1,0,3:0:0:0:
344,248,8807,2,0,L|376:288,2,35,2|2|2,3:0|3:0|3:0,0:0:0:0:
312,256,9072,1,2,3:0:0:0:
208,272,9337,2,0,P|184:296|112:312,1,105,2|2,2:0|2:0,0:0:0:0:
167,222,9866,2,0,P|133:225|68:191,1,105,2|2,2:0|2:0,0:0:0:0:
168,158,10395,2,0,P|141:139|112:71,1,105,2|2,2:0|2:0,0:0:0:0:
216,64,10925,2,0,P|248:48|280:48,1,52.5,2|0,2:0|2:0,0:0:0:0:
320,56,11190,2,0,P|344:80|352:112,1,52.5,2|0,2:0|2:0,0:0:0:0:
304,120,11454,2,0,P|304:144|328:176,1,52.5,2|0,2:0|2:0,0:0:0:0:
368,152,11719,2,0,P|376:200|368:216,1,52.5,2|0,2:0|2:0,0:0:0:0:
328,224,11984,2,0,P|344:264|360:272,1,52.5,2|0,2:0|2:0,0:0:0:0:
432,224,12337,6,0,P|424:168|384:144,2,105,2|2|2,2:0|2:0|2:0,0:0:0:0:
368,208,13043,2,0,P|312:176|296:104,1,140,2|2,3:0|2:0,0:0:0:0:
304,40,13572,2,0,P|232:80|240:144,1,140,2|0,3:0|0:0,0:0:0:0:
200,192,14101,1,4,0:0:0:0:
208,328,14454,5,2,3:0:0:0:
240,312,14543,1,2,3:0:0:0:
256,280,14631,1,2,3:0:0:0:
264,248,14719,2,0,P|328:176|480:256,1,280,2|0,3:0|2:0,0:0:0:0:
480,280,15513,2,0,P|440:328|264:328,1,245,2|0,2:0|2:0,0:0:0:0:
256,296,16219,2,0,P|200:224|80:296,1,245,2|0,2:0|2:0,0:0:0:0:
80,320,16925,2,0,P|16:304|56:160,1,245,2|0,2:0|2:0,0:0:0:0:
80,168,17631,6,0,P|128:192|200:144,1,140,2|0,3:0|2:0,0:0:0:0:
320,88,18337,1,0,0:0:0:0:
360,224,18690,2,0,L|400:288,1,70,0|4,0:0|2:0,0:0:0:0:
328,288,19043,1,8,2:0:0:0:
296,224,19219,2,0,L|256:288,1,70,0|4,0:0|2:0,0:0:0:0:
120,256,19748,6,0,P|112:200|136:120,1,140,2|2,3:0|3:0,0:0:0:0:
152,88,20190,1,2,3:0:0:0:
176,64,20278,1,2,3:0:0:0:
208,48,20366,2,0,P|280:40|408:184,1,280,2|0,3:0|2:0,0:0:0:0:
416,216,21160,2,0,P|408:288|256:328,1,245,2|0,2:0|2:0,0:0:0:0:
224,336,21866,2,0,P|128:328|64:168,1,280,2|0,2:0|2:0,0:0:0:0:
200,200,22925,2,0,P|264:152|376:208,2,210,2|2|4,3:0|3:0|3:0,0:0:0:0:
128,64,24337,5,4,3:0:0:0:
200,88,24513,2,0,L|280:112,1,77.0000023498536,0|0,0:0|0:0,0:0:0:0:
320,48,24866,5,4,3:0:0:0:
384,88,25043,1,4,3:0:0:0:
384,240,25395,6,0,P|336:280|240:256,1,154.000004699707,4|8,3:1|2:0,0:0:0:0:
256,192,25925,1,0,0:0:0:0:
224,176,26013,1,0,0:0:0:0:
184,184,26101,1,0,0:0:0:0:
168,216,26190,1,0,0:0:0:0:
176,256,26278,1,4,3:0:0:0:
104,280,26454,2,0,P|120:312|168:331,1,77.0000023498536,8|2,2:0|2:0,0:0:0:0:
224,288,26807,6,0,P|256:272|304:280,2,77.0000023498536,4|0|8,3:0|2:0|2:0,0:0:0:0:
264,352,27337,1,0,0:0:0:0:
304,352,27425,1,0,0:0:0:0:
344,344,27513,1,0,0:0:0:0:
376,320,27601,1,0,0:0:0:0:
400,288,27690,1,4,3:0:0:0:
408,208,27866,1,8,2:0:0:0:
336,176,28043,1,0,0:0:0:0:
384,120,28219,6,0,P|368:88|320:64,1,77.0000023498536,4|2,3:0|2:0,0:0:0:0:
256,56,28572,1,8,2:0:0:0:
232,128,28748,1,0,0:0:0:0:
200,144,28837,1,0,0:0:0:0:
168,160,28925,1,0,0:0:0:0:
136,176,29013,1,0,0:0:0:0:
104,192,29101,1,4,3:0:0:0:
112,272,29278,2,0,P|138:279|184:264,1,77.0000023498536,8|4,2:0|3:0,0:0:0:0:
248,224,29631,1,4,3:0:0:0:
336,96,29984,6,0,L|320:136,1,38.5000011749268,8|0,3:2|2:0,0:0:0:0:
360,128,30160,2,0,L|344:168,1,38.5000011749268,4|0,3:0|2:0,0:0:0:0:
344,280,30513,6,0,L|360:240,1,38.5000011749268,12|0,3:2|2:0,0:0:0:0:
320,248,30689,2,0,L|336:208,1,38.5000011749268,8|0,3:2|2:0,0:0:0:0:
296,216,30866,1,4,3:2:0:0:
232,256,31043,6,0,P|168:272|128:200,1,154.000004699707,4|8,3:1|3:2,0:0:0:0:
160,184,31484,2,0,L|184:136,2,38.5000011749268,0|0|0,0:0|0:0|0:0,0:0:0:0:
128,160,31748,1,0,0:0:0:0:
96,136,31837,1,0,0:0:0:0:
64,112,31925,1,4,3:0:0:0:
128,64,32101,2,0,P|160:56|216:64,1,77.0000023498536,8|0,2:0|0:0,0:0:0:0:
264,120,32454,5,4,3:0:0:0:
304,184,32631,1,0,0:0:0:0:
344,120,32807,1,8,2:0:0:0:
424,128,32984,1,0,0:0:0:0:
440,160,33072,1,0,0:0:0:0:
440,200,33160,1,0,0:0:0:0:
424,232,33248,1,0,0:0:0:0:
392,248,33337,1,4,3:0:0:0:
320,232,33513,2,0,P|288:248|248:248,1,77.0000023498536,12|2,2:0|2:0,0:0:0:0:
168,248,33866,6,0,P|136:256|104:296,2,77.0000023498536,4|0|8,3:0|2:0|2:0,0:0:0:0:
240,216,34395,1,0,0:0:0:0:
276,204,34483,1,0,0:0:0:0:
302,177,34571,1,0,0:0:0:0:
313,140,34659,1,0,0:0:0:0:
304,103,34747,1,4,3:0:0:0:
256,48,34925,1,8,2:0:0:0:
224,120,35101,1,0,0:0:0:0:
224,120,35278,2,0,P|184:96|144:96,1,77.0000023498536,8|0,3:0|2:0,0:0:0:0:
112,32,35631,2,0,P|88:56|80:104,1,77.0000023498536,8|0,3:0|0:0,0:0:0:0:
80,136,35895,1,0,0:0:0:0:
80,176,35984,1,0,0:0:0:0:
80,216,36072,1,0,0:0:0:0:
80,256,36160,2,0,L|64:272,11,19.2500005874634,4|0|0|0|0|0|0|0|0|0|0|0,3:0|3:0|3:0|3:0|3:0|3:0|3:0|3:0|3:0|3:0|3:0|3:0,0:0:0:0:
112,240,36690,6,0,P|144:232|192:240,1,77.0000023498536,4|0,3:1|0:0,0:0:0:0:
256,280,37043,1,8,2:0:0:0:
296,216,37219,1,0,0:0:0:0:
328,232,37307,1,0,0:0:0:0:
360,248,37395,1,0,0:0:0:0:
392,264,37484,1,0,0:0:0:0:
424,280,37572,1,4,3:0:0:0:
456,208,37748,1,8,2:0:0:0:
416,144,37925,1,0,0:0:0:0:
352,184,38101,6,0,P|320:168|296:128,1,77.0000023498536,4|2,3:0|2:0,0:0:0:0:
264,64,38454,1,8,2:0:0:0:
208,112,38631,1,0,0:0:0:0:
184,136,38719,1,0,0:0:0:0:
160,160,38807,1,0,0:0:0:0:
136,184,38895,1,0,0:0:0:0:
112,208,38984,1,4,3:0:0:0:
72,272,39160,1,8,2:0:0:0:
152,272,39337,2,0,L|200:256,1,38.5000011749268,0|0,0:0|3:0,0:0:0:0:
224,256,39513,2,0,P|248:272|272:328,2,77.0000023498536,4|0|8,3:0|2:0|2:0,0:0:0:0:
208,176,40043,5,0,0:0:0:0:
224,144,40131,1,0,0:0:0:0:
256,120,40219,1,0,0:0:0:0:
296,120,40307,1,0,0:0:0:0:
328,136,40395,1,4,3:0:0:0:
280,192,40572,1,8,2:0:0:0:
344,232,40748,1,0,0:0:0:0:
400,176,40925,5,0,0:0:0:0:
336,312,41278,1,4,3:0:0:0:
304,240,41454,1,4,3:0:0:0:
160,304,41807,1,0,0:0:0:0:
160,224,41984,2,0,P|184:152|256:120,1,154.000004699707,4|4,1:0|3:0,0:0:0:0:
392,56,42690,5,8,2:0:0:0:
368,128,42866,1,0,0:0:0:0:
376,168,42954,1,0,0:0:0:0:
384,208,43043,1,0,0:0:0:0:
392,248,43131,1,0,0:0:0:0:
400,288,43219,1,4,3:0:0:0:
432,360,43395,2,0,P|392:368|352:344,1,77.0000023498536,8|0,2:0|0:0,0:0:0:0:
312,288,43748,1,4,3:2:0:0:
240,152,44101,5,8,2:0:0:0:
160,160,44278,1,0,0:0:0:0:
136,192,44366,1,0,0:0:0:0:
128,232,44454,1,0,0:0:0:0:
136,272,44543,1,0,0:0:0:0:
160,304,44631,1,4,3:0:0:0:
240,312,44807,1,8,2:0:0:0:
288,248,44984,2,0,L|304:208,1,38.5000011749268,0|0,0:0|3:0,0:0:0:0:
328,184,45160,2,0,P|352:136|304:56,1,154.000004699707,4|8,3:0|2:0,0:0:0:0:
280,127,45690,5,0,0:0:0:0:
253,155,45778,1,0,0:0:0:0:
217,165,45866,1,0,0:0:0:0:
180,156,45954,1,0,0:0:0:0:
153,129,46042,1,4,3:0:0:0:
216,88,46219,1,8,2:0:0:0:
280,48,46395,1,0,0:0:0:0:
280,48,46572,2,0,P|320:40|360:64,2,77.0000023498536,4|0|8,3:0|2:0|2:0,0:0:0:0:
200,48,47101,5,0,0:0:0:0:
168,64,47190,1,0,0:0:0:0:
144,88,47278,1,0,0:0:0:0:
128,120,47366,1,0,0:0:0:0:
120,160,47454,1,4,3:0:0:0:
168,224,47631,2,0,L|160:248,2,19.2500005874634,2|0|2,3:0|3:0|3:0,0:0:0:0:
200,208,47807,2,0,L|248:224,1,38.5000011749268
264,248,47984,6,0,P|296:288|400:280,1,154.000004699707,4|8,0:0|2:0,0:0:0:0:
384,208,48513,1,0,0:0:0:0:
360,176,48601,1,0,0:0:0:0:
328,160,48690,1,0,0:0:0:0:
288,152,48778,1,0,0:0:0:0:
248,160,48866,1,4,3:0:0:0:
208,224,49043,2,0,P|176:256|144:264,1,77.0000023498536,8|0,2:0|0:0,0:0:0:0:
104,200,49395,5,4,3:0:0:0:
176,64,49748,1,8,2:0:0:0:
256,72,49925,1,0,0:0:0:0:
289,54,50013,1,0,0:0:0:0:
327,48,50101,1,0,0:0:0:0:
365,54,50189,1,0,0:0:0:0:
399,71,50277,1,4,3:0:0:0:
424,144,50454,2,0,P|408:176|368:192,1,77.0000023498536,8|2,2:0|2:0,0:0:0:0:
296,168,50807,5,4,3:0:0:0:
144,176,51160,2,0,P|152:216|192:240,1,77.0000023498536,8|0,2:0|0:0,0:0:0:0:
216,256,51425,1,0,0:0:0:0:
256,256,51513,1,0,0:0:0:0:
288,240,51601,1,0,0:0:0:0:
312,208,51690,1,4,3:0:0:0:
368,152,51866,1,8,2:0:0:0:
392,224,52043,1,0,3:0:0:0:
392,224,52219,2,0,P|376:280|288:328,1,154.000004699707,4|8,3:0|2:0,0:0:0:0:
224,328,52748,1,4,3:0:0:0:
160,184,53101,5,0,0:0:0:0:
160,184,53278,2,0,L|136:168,4,19.2500005874634,2|0|2|0|2,3:0|3:0|3:0|3:0|3:0,0:0:0:0:
184,256,53631,6,0,P|152:296|128:304,1,77.0000023498536,4|0,3:0|3:0,0:0:0:0:
56,312,53984,1,8,2:0:0:0:
48,232,54160,1,0,0:0:0:0:
64,200,54248,1,0,0:0:0:0:
80,168,54337,1,0,0:0:0:0:
96,136,54425,1,0,0:0:0:0:
112,104,54513,1,4,3:0:0:0:
168,48,54690,2,0,P|192:32|248:40,1,77.0000023498536,8|0,2:0|0:0,0:0:0:0:
216,104,55043,5,4,3:0:0:0:
232,176,55219,1,0,3:0:0:0:
288,120,55395,1,8,2:0:0:0:
360,144,55572,1,0,0:0:0:0:
376,184,55660,1,0,0:0:0:0:
368,224,55748,1,0,0:0:0:0:
344,248,55837,1,0,0:0:0:0:
312,264,55925,1,4,3:0:0:0:
256,208,56101,1,8,2:0:0:0:
184,240,56278,1,0,0:0:0:0:
232,304,56454,2,0,P|256:344|360:344,1,154.000004699707,4|8,3:0|2:0,0:0:0:0:
400,288,56984,5,0,0:0:0:0:
408,248,57072,1,0,0:0:0:0:
416,208,57160,1,0,0:0:0:0:
424,168,57248,1,0,0:0:0:0:
432,128,57337,1,4,3:0:0:0:
376,80,57513,1,8,2:0:0:0:
304,120,57690,1,0,0:0:0:0:
248,72,57866,2,0,P|208:80|176:112,1,77.0000023498536,8|0,3:0|3:0,0:0:0:0:
248,152,58219,2,0,P|224:176|168:184,1,77.0000023498536,8|0,3:0|0:0,0:0:0:0:
144,192,58484,1,0,0:0:0:0:
112,208,58572,1,0,0:0:0:0:
96,240,58660,1,0,0:0:0:0:
88,280,58748,2,0,L|64:296,4,19.2500005874634,8|0|0|0|0,3:0|3:0|3:0|3:0|3:0,0:0:0:0:
128,288,59013,5,0,0:0:0:0:
160,304,59101,2,0,L|200:336,2,38.5000011749268,0|2|4,3:0|3:0|3:0,0:0:0:0:
136,184,61925,5,0,0:0:0:0:
136,184,62278,2,0,P|176:152|232:152,1,105.000004005432
280,160,62807,2,0,P|328:176|312:312,1,210.000008010865,0|2,0:0|2:0,0:0:0:0:
216,328,63866,5,2,2:0:0:0:
272,128,64219,1,2,3:0:0:0:
400,296,64572,1,2,2:0:0:0:
208,216,64925,2,0,P|128:240|104:312,2,157.500006008148,0|0|2,0:0|0:0|2:0,0:0:0:0:
336,312,66337,5,2,2:0:0:0:
416,176,66690,1,2,2:0:0:0:
312,64,67043,1,2,2:0:0:0:
224,192,67395,1,2,2:0:0:0:
272,208,67572,5,0,0:0:0:0:
232,304,67925,2,0,P|176:304|136:264,1,105.000004005432
120,224,68454,1,0,0:0:0:0:
136,120,68807,1,2,2:0:0:0:
256,48,69160,5,0,3:0:0:0:
208,176,69513,5,2,3:0:0:0:
208,248,69690,1,0,3:0:0:0:
336,304,70043,5,2,3:0:0:0:
336,232,70219,2,0,B|324:209|336:198|347:187|336:160,1,70,0|4,0:0|0:0,3:0:0:0:
256,64,70925,5,8,2:0:0:0:
176,88,71101,1,0,0:0:0:0:
160,128,71190,1,0,0:0:0:0:
144,168,71278,1,0,0:0:0:0:
128,208,71366,1,0,0:0:0:0:
112,248,71454,1,4,3:0:0:0:
184,288,71631,1,8,2:0:0:0:
224,288,71719,2,0,L|248:320,2,20.9999993591309,0|0|0,0:0|0:0|0:0,0:0:0:0:
240,248,71895,1,0,0:0:0:0:
280,240,71984,6,0,L|320:256,3,41.9999987182618,4|0|0|0,3:0|0:0|0:0|0:0,0:0:0:0:
312,216,72337,2,0,L|352:200,3,41.9999987182618,8|0|2|2,3:2|3:0|3:0|3:0,0:0:0:0:
312,184,72690,2,0,P|320:152|320:128,1,41.9999987182618
320,104,72866,1,4,3:0:0:0:
248,64,73043,2,0,P|232:48|208:40,1,41.9999987182618,8|0,2:0|0:0,0:0:0:0:
176,48,73219,2,0,L|176:80,3,20.9999993591309,2|2|2|2,3:0|3:0|3:0|3:0,0:0:0:0:
136,40,73395,2,0,P|112:48|80:96,1,83.9999974365235,4|0,3:0|0:0,0:0:0:0:
96,176,73748,1,8,2:0:0:0:
176,192,73925,5,0,0:0:0:0:
152,232,74013,1,0,0:0:0:0:
128,264,74101,2,0,L|72:272,2,41.9999987182618,0|0|4,0:0|0:0|3:0,0:0:0:0:
192,320,74454,2,0,L|200:368,2,41.9999987182618,8|0|0,2:0|0:0|0:0,0:0:0:0:
224,288,74719,1,0,0:0:0:0:
256,256,74807,1,4,3:0:0:0:
336,232,74984,6,0,L|336:184,1,41.9999987182618
376,176,75160,2,0,L|376:128,1,41.9999987182618,4|0,3:0|0:0,0:0:0:0:
384,88,75337,2,0,L|400:72,2,20.9999993591309,0|0|0,0:0|0:0|0:0,0:0:0:0:
344,80,75513,1,2,3:0:0:0:
216,80,75690,1,2,3:0:0:0:
280,184,75866,1,2,3:0:0:0:
200,160,76043,2,0,L|176:136,4,20.9999993591309,2|2|2|2|4,3:0|3:0|3:0|3:0|0:0,0:0:0:0:
200,200,76307,5,0,0:0:0:0:
176,240,76395,1,0,0:0:0:0:
176,280,76484,1,0,0:0:0:0:
200,312,76572,2,0,P|232:336|288:336,1,83.9999974365235,8|0,2:0|0:0,0:0:0:0:
312,320,76837,1,0,0:0:0:0:
328,280,76925,2,0,L|304:232,2,41.9999987182618,0|0|4,0:0|0:0|3:0,0:0:0:0:
408,296,77278,5,8,2:0:0:0:
424,256,77366,1,0,0:0:0:0:
424,216,77454,1,0,0:0:0:0:
408,176,77543,1,0,0:0:0:0:
424,136,77631,2,0,P|464:104|456:56,1,83.9999974365235,4|0,3:0|0:0,0:0:0:0:
432,48,77895,1,0,0:0:0:0:
392,56,77984,2,0,L|344:24,2,41.9999987182618,8|0|0,2:0|0:0|0:0,0:0:0:0:
368,96,78248,1,0,0:0:0:0:
328,88,78337,1,0,0:0:0:0:
288,80,78425,1,0,0:0:0:0:
248,72,78513,1,4,3:0:0:0:
168,64,78690,1,8,2:0:0:0:
96,104,78866,6,0,P|80:120|72:144,1,41.9999987182618
96,176,79043,2,0,P|120:208|120:264,1,83.9999974365235,4|0,3:0|0:0,0:0:0:0:
168,320,79395,1,8,2:0:0:0:
248,288,79572,2,0,L|264:328,2,41.9999987182618,0|0|0,0:0|0:0|0:0,0:0:0:0:
280,256,79837,1,0,0:0:0:0:
312,224,79925,1,4,3:0:0:0:
360,152,80101,2,0,L|400:168,2,41.9999987182618,8|0|0,2:0|0:0|0:0,0:0:0:0:
328,128,80366,1,0,0:0:0:0:
296,104,80454,1,4,3:0:0:0:
224,64,80631,2,0,P|184:64|144:96,1,83.9999974365235,0|4,0:0|3:0,0:0:0:0:
120,112,80895,2,0,L|80:88,2,41.9999987182618,2|2|2,3:0|3:0|3:0,0:0:0:0:
128,152,81160,2,0,P|136:184|176:216,1,83.9999974365235,2|4,3:0|0:0,0:0:0:0:
248,160,81513,6,0,L|248:128,4,20.9999993591309,0|0|0|0|2,3:0|3:0|3:0|3:0|3:0,3:0:0:0:
248,200,81778,1,2,3:0:0:0:
248,240,81866,2,0,P|264:272|376:256,1,167.999994873047,4|8,0:0|2:0,0:0:0:0:
400,176,82395,1,0,0:0:0:0:
368,144,82484,1,0,0:0:0:0:
344,112,82572,1,0,0:0:0:0:
312,80,82660,1,0,0:0:0:0:
280,48,82748,1,4,3:0:0:0:
192,40,82925,5,8,2:0:0:0:
160,72,83013,1,0,0:0:0:0:
128,104,83101,1,0,0:0:0:0:
96,136,83190,1,0,0:0:0:0:
64,168,83278,1,4,3:0:0:0:
128,224,83454,2,0,L|160:264,1,41.9999987182618
200,256,83631,2,0,L|216:240,2,20.9999993591309,8|0|0,2:0|0:0|0:0,0:0:0:0:
200,296,83807,2,0,L|216:344,1,41.9999987182618
256,336,83984,1,0,0:0:0:0:
296,336,84072,1,0,0:0:0:0:
336,336,84160,1,8,2:0:0:0:
336,248,84337,1,8,2:0:0:0:
360,168,84513,6,0,L|392:120,1,41.9999987182618
408,96,84690,2,0,P|432:64|480:48,2,83.9999974365235,4|0|8,3:0|0:0|2:0,0:0:0:0:
328,72,85219,1,0,0:0:0:0:
288,72,85307,1,0,0:0:0:0:
248,88,85395,1,0,0:0:0:0:
216,120,85484,1,0,0:0:0:0:
200,160,85572,1,4,3:0:0:0:
152,232,85748,2,0,L|120:264,1,41.9999987182618,8|0,2:0|0:0,0:0:0:0:
160,272,85925,2,0,L|152:320,1,41.9999987182618
192,304,86101,2,0,P|224:328|272:336,1,83.9999974365235,4|0,3:0|0:0,0:0:0:0:
304,328,86366,1,0,0:0:0:0:
344,312,86454,2,0,L|368:312,2,20.9999993591309,4|0|0,3:0|3:0|3:0,0:0:0:0:
328,272,86631,2,0,P|312:256|304:232,1,41.9999987182618
304,200,86807,1,2,3:0:0:0:
304,160,86895,1,2,3:0:0:0:
288,120,86984,5,2,3:0:0:0:
208,112,87160,1,2,3:0:0:0:
240,192,87337,1,2,3:0:0:0:
160,184,87513,6,0,P|136:208|120:264,2,83.9999974365235,4|0|8,0:0|0:0|2:0,0:0:0:0:
224,240,88043,1,0,0:0:0:0:
256,264,88131,1,0,0:0:0:0:
296,280,88219,1,0,0:0:0:0:
336,280,88307,1,0,0:0:0:0:
376,256,88395,1,4,3:0:0:0:
376,168,88572,2,0,L|400:128,1,41.9999987182618,8|0,2:0|0:0,0:0:0:0:
360,120,88748,2,0,L|384:80,1,41.9999987182618,0|0,0:0|0:0,0:0:0:0:
352,56,88925,6,0,P|320:56|272:96,1,83.9999974365235,4|0,3:0|0:0,0:0:0:0:
240,96,89190,1,0,0:0:0:0:
200,104,89278,2,0,L|176:88,2,20.9999993591309,8|2|0,3:2|3:0|3:0,0:0:0:0:
192,144,89454,2,0,L|184:200,1,41.9999987182618
200,224,89631,2,0,L|256:240,2,41.9999987182618,0|0|4,0:0|0:0|3:0,0:0:0:0:
136,280,89984,1,8,2:0:0:0:
208,312,90160,6,0,L|248:296,1,41.9999987182618
288,280,90337,1,4,3:0:0:0:
352,224,90513,1,0,0:0:0:0:
352,136,90690,2,0,P|328:96|296:80,1,83.9999974365235,8|0,2:0|0:0,0:0:0:0:
256,72,90954,1,0,0:0:0:0:
216,88,91043,1,0,0:0:0:0:
192,128,91131,1,0,0:0:0:0:
184,168,91219,1,4,3:0:0:0:
216,248,91395,2,0,L|248:280,2,41.9999987182618,8|0|0,2:0|0:0|0:0,0:0:0:0:
176,256,91660,1,0,0:0:0:0:
144,280,91748,6,0,P|96:272|72:248,1,83.9999974365235,4|0,3:0|0:0,0:0:0:0:
72,208,92013,1,0,0:0:0:0:
88,168,92101,2,0,L|112:128,1,41.9999987182618,8|0,2:0|0:0,0:0:0:0:
136,104,92278,1,0,0:0:0:0:
177,102,92366,1,0,0:0:0:0:
217,115,92454,1,0,0:0:0:0:
250,140,92542,1,0,0:0:0:0:
272,176,92630,1,8,0:2:0:0:
288,256,92807,2,0,L|288:280,2,20.9999993591309,8|2|2,2:0|3:0|3:0,0:0:0:0:
328,240,92984,1,2,3:0:0:0:
360,216,93072,1,2,3:0:0:0:
384,176,93160,6,0,P|376:136|240:48,2,210.000008010865,4|2|2,2:0|2:0|2:0,0:0:0:0:
320,184,95278,2,0,P|296:128|184:176,2,210.000008010865,2|2|2,2:0|2:0|2:0,0:0:0:0:
252,181,97043,5,2,2:0:0:0:
192,264,97395,2,0,L|152:304,1,52.5000020027161
104,296,97748,2,0,P|80:280|72:256,1,52.5000020027162,0|0,0:0|2:0,0:0:0:0:
80,208,98101,1,8,0:0:0:0:
120,176,98278,2,0,P|160:176|192:232,1,105.000004005432,0|0,0:0|2:0,0:0:0:0:
240,240,98807,6,0,P|272:272|336:272,1,105.000004005432,0|2,0:0|3:0,0:0:0:0:
352,256,99248,2,0,L|384:272,2,26.2500010013581,2|2|2,3:0|3:0|3:0,0:0:0:0:
344,232,99513,2,0,P|360:136|464:136,2,210.000008010865,0|2|2,2:0|2:0|2:0,0:0:0:0:
304,264,101101,6,0,P|248:296|208:288,1,105.000004005432
184,240,101631,2,0,L|168:184,1,52.5000020027161
120,192,101984,2,0,P|64:192|32:152,2,105.000004005432,0|0|0,0:0|0:0|0:0,0:0:0:0:
160,152,102866,1,0,0:0:0:0:
184,104,103043,6,0,P|232:80|248:80,1,65.6250025033952,0|0,0:0|2:0,0:0:0:0:
280,80,103395,2,0,P|336:88|400:160,2,157.500006008148,2|2|2,2:0|2:0|2:0,0:0:0:0:
