osu file format v14

[General]
AudioFilename: Runrunriru Ranranrara Cut.mp3
AudioLeadIn: 0
PreviewTime: 7045
Countdown: 0
SampleSet: Normal
StackLeniency: 0.7
Mode: 0
LetterboxInBreaks: 1
WidescreenStoryboard: 0

[Editor]
DistanceSpacing: 1.06
BeatDivisor: 4
GridSize: 4
TimelineZoom: 1

[Metadata]
Title:Runrunriru Ranranrara (TV Size)
TitleUnicode:るんるんりる らんらんらら (TV Size)
Artist:Kobayashi Yuu
ArtistUnicode:小林ゆう
Creator:Lanturn
Version:osu!holic
Source:まりあ†ほりっく あらいぶ
Tags:Maria Holic Alive Opening Yu Anime Japanese
BeatmapID:713473
BeatmapSetID:320645

[Difficulty]
HPDrainRate:6
CircleSize:4.2
OverallDifficulty:8
ApproachRate:9
SliderMultiplier:1.8
SliderTickRate:2

[Events]
//Background and Video events
0,0,"RRRRRR.png",0,0
Video,-10,"RUNRUNRIRU.avi"
//Break Periods
//Storyboard Layer 0 (Background)
//Storyboard Layer 1 (Fail)
//Storyboard Layer 2 (Pass)
//Storyboard Layer 3 (Foreground)
//Storyboard Sound Samples

[TimingPoints]
523,413.793103448276,4,2,0,40,1,0
5488,-100,4,1,1,45,0,0
6316,-100,4,1,1,50,0,0
7143,-66.6666666666667,4,1,1,50,0,0
20385,-57.1428571428571,4,1,1,70,0,0
30316,-133.333333333333,4,1,1,70,0,0
31764,-133.333333333333,4,1,1,50,0,0
33626,-100,4,1,1,50,0,0
46867,-66.6666666666667,4,1,1,70,0,0
50178,-50,4,1,1,70,0,0
50488,-50,4,1,1,5,0,0
50591,-50,4,1,1,70,0,0
50902,-50,4,1,1,5,0,0
51005,-50,4,1,1,70,0,0
51316,-50,4,1,1,5,0,0
51419,-50,4,1,1,70,0,0
51729,-50,4,1,1,5,0,0
51833,-66.6666666666667,4,1,1,70,0,0
59488,-66.6666666666667,4,1,1,60,0,0
59695,-66.6666666666667,4,1,1,50,0,0
59902,-66.6666666666667,4,1,1,40,0,0
60109,-200,4,1,1,70,0,0
60316,-200,4,1,1,50,0,0
60936,-200,4,2,0,5,0,0
61350,-50,4,1,1,70,0,0
61764,-57.1428571428571,4,1,1,70,0,1
79764,-57.1428571428571,4,1,1,50,0,1
81626,-66.6666666666667,4,1,1,50,0,0
93316,-57.1428571428571,4,2,0,5,0,0
93729,-57.1428571428571,4,1,1,30,0,0

[Colours]
Combo1 : 235,234,216
Combo2 : 222,172,184
Combo3 : 127,63,54
Combo4 : 225,184,152

[HitObjects]
504,108,7143,6,0,P|508:176|464:244,1,135.000005149842,6|0,0:0|0:0,0:0:0:0:
229,152,7557,2,0,L|381:152,1,135.000005149842,2|0,0:0|0:0,0:0:0:0:
300,248,7971,1,2,0:0:0:0:
164,96,8178,2,0,B|96:96|96:96|32:124,1,135.000005149842,2|0,0:0|0:0,0:0:0:0:
104,296,8591,6,0,P|136:232|113:168,1,135.000005149842,2|0,0:0|0:0,0:0:0:0:
36,228,9005,1,2,0:0:0:0:
196,352,9212,2,0,B|260:376|260:316|328:344,1,135.000005149842,2|0,0:0|0:0,0:0:0:0:
415,274,9626,1,2,0:0:0:0:
230,196,9833,1,0,0:0:0:0:
396,80,10040,1,2,0:0:0:0:
423,52,10454,6,0,L|423:212,1,135.000005149842,2|0,0:0|0:0,0:0:0:0:
256,96,10867,2,0,B|268:128|248:156|248:156|256:156|256:156|240:188|251:217,1,135.000005149842,2|0,0:0|0:0,0:0:0:0:
68,160,11281,1,2,0:0:0:0:
188,328,11488,2,0,B|239:273|239:273|263:241|251:218,1,135.000005149842,2|0,0:0|0:0,0:0:0:0:
28,100,11902,6,0,P|-4:164|24:216,1,135.000005149842,2|0,0:0|0:0,0:0:0:0:
152,128,12316,1,0,0:0:0:0:
108,44,12523,1,2,0:0:0:0:
204,212,12729,1,2,0:0:0:0:
248,128,12936,5,2,0:0:0:0:
273,106,13039,1,0,0:0:0:0:
305,98,13142,1,2,0:0:0:0:
338,106,13246,1,0,0:0:0:0:
363,127,13349,1,2,0:0:0:0:
376,158,13453,1,0,0:0:0:0:
374,192,13556,1,2,0:0:0:0:
357,220,13660,1,0,0:0:0:0:
328,238,13764,6,0,P|328:320|368:388,1,135.000005149842,2|0,0:0|0:0,0:0:0:0:
184,238,14178,2,0,P|184:320|144:388,1,135.000005149842,2|0,0:0|0:0,0:0:0:0:
136,176,14591,1,2,0:0:0:0:
376,176,14798,1,2,0:0:0:0:
376,176,14902,1,0,0:0:0:0:
376,176,15005,1,2,0:0:0:0:
256,56,15212,6,0,B|228:120|288:120|256:192,1,135.000005149842,2|0,0:0|0:0,0:0:0:0:
112,304,15626,1,0,0:0:0:0:
164,88,15833,1,2,0:0:0:0:
216,268,16040,1,0,0:0:0:0:
38,210,16247,1,2,0:0:0:0:
112,36,16454,1,2,0:0:0:0:
147,16,16557,1,0,0:0:0:0:
187,18,16660,1,2,0:0:0:0:
220,40,16764,1,0,0:0:0:0:
236,76,16867,1,2,0:0:0:0:
163,190,17074,6,0,P|183:264|280:284,1,135.000005149842,2|0,0:0|0:0,0:0:0:0:
346,108,17488,2,0,L|240:206,1,135.000005149842,2|0,0:0|0:0,0:0:0:0:
236,76,17902,1,2,0:0:0:0:
456,140,18109,2,0,L|330:257,1,135.000005149842,2|0,0:0|0:0,0:0:0:0:
346,108,18523,1,2,0:0:0:0:
413,316,18729,5,0,0:0:0:0:
237,187,18936,1,0,0:0:0:0:
455,187,19143,1,0,0:0:0:0:
279,316,19350,1,2,0:0:0:0:
346,108,19557,5,0,0:0:0:0:
373,77,19660,1,0,0:0:0:0:
401,47,19764,1,0,0:0:0:0:
423,22,19867,1,0,0:0:0:0:
439,52,19971,2,0,L|515:45,1,67.5000025749208
328,73,20178,2,0,L|252:80,1,67.5000025749208
432,140,20385,5,4,0:0:0:0:
404,344,20591,1,0,0:0:0:0:
276,224,20798,1,10,0:0:0:0:
259,207,20902,1,0,0:0:0:0:
68,172,21109,1,0,0:0:0:0:
84,155,21212,1,0,0:0:0:0:
176,280,21419,2,0,B|164:320|176:364|176:364|108:340,1,157.500001502037,2|8,0:0|0:0,0:0:0:0:
68,172,21833,1,0,0:0:0:0:
256,324,22040,6,0,P|332:292|360:220,1,157.500001502037,2|0,0:0|0:0,0:0:0:0:
360,188,22350,1,0,0:0:0:0:
360,188,22454,1,8,0:0:0:0:
232,52,22660,1,0,0:0:0:0:
232,52,22764,1,0,0:0:0:0:
232,52,22867,6,0,L|232:152,1,78.7500007510185,8|0,0:0|0:0,0:0:0:0:
157,349,23074,2,0,L|97:269,1,78.7500007510185,8|0,0:0|0:0,0:0:0:0:
8,80,23281,2,0,B|88:80|88:80|176:152,1,157.500001502037,12|0,0:0|0:0,0:0:0:0:
388,303,23695,6,0,P|442:222|423:148,1,157.500001502037,2|0,0:0|0:0,0:0:0:0:
331,51,24109,1,8,0:0:0:0:
284,47,24212,1,0,0:0:0:0:
236,43,24316,1,0,0:0:0:0:
189,39,24419,1,0,0:0:0:0:
141,35,24523,1,2,0:0:0:0:
7,80,24729,2,0,L|72:227,1,157.500001502037,2|8,0:0|0:0,0:0:0:0:
156,113,25143,1,0,0:0:0:0:
156,113,25350,6,0,L|221:260,1,157.500001502037,2|0,0:0|0:0,0:0:0:0:
333,288,25660,1,0,0:0:0:0:
333,288,25764,2,0,L|268:141,1,157.500001502037,10|0,0:0|0:0,0:0:0:0:
376,192,26074,1,0,0:0:0:0:
376,192,26178,6,0,P|416:200|468:184,1,78.7500007510185,8|0,0:0|0:0,0:0:0:0:
236,70,26385,2,0,P|198:102|190:134,1,78.7500007510185,8|0,0:0|0:0,0:0:0:0:
273,348,26591,2,0,P|357:368|429:336,1,157.500001502037,4|0,0:0|0:0,0:0:0:0:
488,103,27005,6,0,P|353:54|269:108,1,236.250002253056,2|0,0:0|0:0,0:0:0:0:
207,192,27419,1,8,0:0:0:0:
207,192,27626,1,0,0:0:0:0:
24,103,27833,6,0,P|159:54|243:108,1,236.250002253056,2|0,0:0|0:0,0:0:0:0:
305,192,28247,1,8,0:0:0:0:
305,192,28454,2,0,P|302:285|256:322,1,157.500001502037
91,273,28867,5,2,0:0:0:0:
23,103,29074,1,8,0:0:0:0:
203,129,29281,1,0,0:0:0:0:
421,273,29488,1,10,0:0:0:0:
489,103,29695,1,0,0:0:0:0:
309,129,29902,2,0,L|221:162,1,78.7500007510185,10|8,0:0|0:0,0:0:0:0:
251,55,30109,2,0,L|333:27,1,78.7500007510185,8|8,0:0|0:0,0:0:0:0:
390,98,30316,5,4,0:0:0:0:
261,279,30729,1,4,0:0:0:0:
251,55,31143,1,4,0:0:0:0:
416,179,31350,1,4,0:0:0:0:
413,222,31764,6,0,P|345:302|261:279,1,202.500007724762,4|0,0:0|0:0,0:0:0:0:
202,215,32591,1,0,0:0:0:0:
171,133,32798,2,0,L|171:84,1,33.7500012874604,2|0,0:0|0:0,0:0:0:0:
66,146,33109,1,0,0:0:0:0:
66,146,33212,2,0,L|67:197,1,33.7500012874604,2|0,0:0|0:0,0:0:0:0:
3,251,33419,2,0,L|3:195,1,33.7500012874604,2|0,0:0|0:0,0:0:0:0:
67,283,33626,6,0,P|145:241|176:158,1,180,4|0,0:0|0:0,0:0:0:0:
256,112,34247,1,0,0:0:0:0:
335,158,34454,2,0,P|366:241|444:283,1,180,2|0,0:0|0:0,0:0:0:0:
356,356,35074,1,0,0:0:0:0:
256,280,35281,6,0,P|180:304|80:256,1,180,2|0,0:0|0:0,0:0:0:0:
256,280,35902,1,2,0:0:0:0:
256,280,36316,1,0,0:0:0:0:
356,356,36523,1,0,0:0:0:0:
464,292,36729,1,0,0:0:0:0:
436,168,36936,6,0,B|388:132|376:88|376:88|332:88|304:60,1,180,2|0,0:0|0:0,0:0:0:0:
256,176,37557,1,0,0:0:0:0:
207,60,37764,2,0,B|180:88|136:88|136:88|124:132|76:168,1,180,2|0,0:0|0:0,0:0:0:0:
192,304,38591,6,0,L|192:199,1,90,2|0,0:0|0:0,0:0:0:0:
100,264,39005,2,0,L|100:368,1,90,2|0,0:0|0:0,0:0:0:0:
268,332,39419,6,0,L|316:292,1,45,2|0,0:0|0:0,0:0:0:0:
390,328,39626,2,0,L|418:248,1,45
476,228,39833,1,2,0:0:0:0:
464,192,39936,1,0,0:0:0:0:
452,156,40040,1,0,0:0:0:0:
440,120,40143,1,0,0:0:0:0:
428,84,40247,1,2,0:0:0:0:
308,36,40454,5,0,0:0:0:0:
256,120,40660,1,0,0:0:0:0:
204,36,40867,1,0,0:0:0:0:
332,164,41074,2,0,P|256:208|180:164,1,180,2|0,0:0|0:0,0:0:0:0:
256,120,41695,1,0,0:0:0:0:
374,246,41902,6,0,B|342:302|342:302|294:314|294:314|256:368,1,180,2|0,0:0|0:0,0:0:0:0:
137,246,42523,2,0,B|169:302|169:302|217:314|217:314|256:368,1,180,2|0,0:0|0:0,0:0:0:0:
256,200,43143,1,0,0:0:0:0:
256,164,43247,1,0,0:0:0:0:
256,128,43350,1,0,0:0:0:0:
256,92,43454,1,0,0:0:0:0:
256,56,43557,5,2,0:0:0:0:
180,260,43971,1,0,0:0:0:0:
332,260,44178,1,0,0:0:0:0:
256,128,44385,1,2,0:0:0:0:
256,360,44798,1,0,0:0:0:0:
180,260,45212,6,0,P|144:183|188:104,1,180,2|0,0:0|0:0,0:0:0:0:
356,164,45833,1,0,0:0:0:0:
352,280,46040,1,2,0:0:0:0:
256,360,46247,1,0,0:0:0:0:
256,360,46350,1,0,0:0:0:0:
256,360,46454,1,0,0:0:0:0:
128,316,46660,1,0,0:0:0:0:
128,316,46867,6,0,L|68:268,3,67.5000025749208,4|0|0|0,0:0|0:0|0:0|0:0,0:0:0:0:
100,172,47281,2,0,L|160:220,3,67.5000025749208,8|0|0|0,0:0|0:0|0:0|0:0,0:0:0:0:
224,288,47695,1,0,0:0:0:0:
244,181,47902,1,0,0:0:0:0:
224,288,48109,1,10,0:0:0:0:
326,246,48316,1,0,0:0:0:0:
224,288,48523,6,0,P|258:343|322:357,1,135.000005149842,2|0,0:0|0:0,0:0:0:0:
244,181,48936,2,0,P|178:182|134:231,1,135.000005149842,10|0,0:0|0:0,0:0:0:0:
326,246,49350,2,0,P|357:188|336:125,1,135.000005149842,2|0,0:0|0:0,0:0:0:0:
204,292,49764,1,10,0:0:0:0:
180,297,50178,6,0,B|180:159|180:159|236:111|232:43,1,270,4|0,0:0|0:0,0:0:0:0:
304,44,50591,6,0,B|300:112|356:160|356:160|356:297,1,270,4|0,0:0|0:0,0:0:0:0:
308,349,51004,6,0,P|364:229|392:357,1,270,4|0,0:0|0:0,0:0:0:0:
356,298,51418,6,0,B|314:263|267:275|238:311|238:347|238:347|202:359|158:355|129:309,1,270,4|0,0:0|0:0,0:0:0:0:
35,236,51833,5,4,0:0:0:0:
90,62,52040,1,0,0:0:0:0:
90,62,52143,1,0,0:0:0:0:
90,62,52247,2,0,P|106:157|162:216,1,135.000005149842,8|0,0:0|0:0,0:0:0:0:
127,187,52660,5,0,0:0:0:0:
182,13,52868,1,0,0:0:0:0:
182,13,52971,1,0,0:0:0:0:
182,13,53074,2,0,P|198:108|254:167,1,135.000005149842,8|0,0:0|0:0,0:0:0:0:
415,30,53488,6,0,L|428:125,1,67.5000025749208,2|0,0:0|0:0,0:0:0:0:
354,146,53695,1,0,0:0:0:0:
323,146,53798,1,0,0:0:0:0:
292,146,53902,6,0,L|305:241,1,67.5000025749208,10|0,0:0|0:0,0:0:0:0:
231,262,54109,1,0,0:0:0:0:
200,262,54212,1,0,0:0:0:0:
169,262,54316,6,0,L|182:357,1,67.5000025749208,2|0,0:0|0:0,0:0:0:0:
108,378,54523,1,0,0:0:0:0:
77,378,54626,1,0,0:0:0:0:
46,378,54729,1,8,0:0:0:0:
76,152,54936,6,0,P|124:192|76:232,1,135.000005149842,2|0,0:0|0:0,0:0:0:0:
39,40,55350,1,0,0:0:0:0:
71,35,55454,1,0,0:0:0:0:
104,30,55557,6,0,L|129:92,1,67.5000025749208,10|0,0:0|0:0,0:0:0:0:
215,148,55764,1,0,0:0:0:0:
247,143,55868,1,0,0:0:0:0:
280,138,55971,6,0,L|305:200,1,67.5000025749208,2|0,0:0|0:0,0:0:0:0:
392,256,56178,1,0,0:0:0:0:
423,251,56282,1,0,0:0:0:0:
456,246,56385,2,0,P|468:320|432:368,1,135.000005149842,8|2,0:0|0:0,0:0:0:0:
293,315,56798,6,0,P|230:295|167:315,1,135.000005149842
333,378,57212,2,0,P|367:318|324:247,1,135.000005149842,10|0,0:0|0:0,0:0:0:0:
245,189,57626,2,0,B|201:98|247:64|247:64|276:101|324:98,1,202.500007724762,2|0,0:0|0:0,0:0:0:0:
311,23,58040,1,8,0:0:0:0:
328,176,58247,1,0,0:0:0:0:
124,77,58454,5,10,0:0:0:0:
262,318,58660,1,8,0:0:0:0:
369,60,58867,1,8,0:0:0:0:
102,103,59074,1,8,0:0:0:0:
386,250,59281,1,8,0:0:0:0:
104,203,59488,5,8,0:0:0:0:
77,205,59591,1,8,0:0:0:0:
52,216,59694,1,8,0:0:0:0:
33,235,59798,1,8,0:0:0:0:
20,258,59901,1,8,0:0:0:0:
16,285,60005,1,8,0:0:0:0:
17,315,60109,6,0,P|88:352|96:280,1,180,6|0,0:0|0:0,0:0:0:0:
96,280,61350,6,0,P|208:356|326:246,1,270,2|0,0:0|0:0,0:0:0:0:
252,88,61764,5,4,0:0:0:0:
208,236,61971,1,0,0:0:0:0:
384,60,62178,1,10,0:0:0:0:
388,44,62281,1,0,0:0:0:0:
388,224,62488,1,0,0:0:0:0:
384,240,62591,2,0,B|340:312|340:312|240:360,1,157.500001502037,0|2,0:0|0:0,0:0:0:0:
260,188,63005,1,8,0:0:0:0:
440,352,63212,1,0,0:0:0:0:
240,279,63419,6,0,P|172:267|92:339,1,157.500001502037,2|0,0:0|0:0,0:0:0:0:
60,371,63729,1,2,0:0:0:0:
60,371,63833,2,0,P|91:309|45:211,1,157.500001502037,8|0,0:0|0:0,0:0:0:0:
367,86,64247,6,0,P|396:111|403:149,1,78.7500007510185,8|0,0:0|0:0,0:0:0:0:
110,149,64454,2,0,P|117:111|146:86,1,78.7500007510185,8|0,0:0|0:0,0:0:0:0:
316,332,64660,2,0,P|256:376|196:332,1,157.500001502037,12|0,0:0|0:0,0:0:0:0:
256,68,65074,5,2,0:0:0:0:
376,272,65281,1,0,0:0:0:0:
256,108,65488,1,10,0:0:0:0:
136,304,65695,1,0,0:0:0:0:
136,304,65798,1,0,0:0:0:0:
136,304,65902,1,0,0:0:0:0:
256,148,66109,1,2,0:0:0:0:
376,336,66316,1,8,0:0:0:0:
136,368,66523,1,0,0:0:0:0:
256,192,66729,5,2,0:0:0:0:
106,138,66936,1,0,0:0:0:0:
84,159,67040,1,0,0:0:0:0:
62,181,67143,1,10,0:0:0:0:
154,290,67350,1,0,0:0:0:0:
132,311,67454,1,0,0:0:0:0:
110,333,67557,6,0,L|22:334,1,78.7500007510185,8|0,0:0|0:0,0:0:0:0:
160,104,67764,2,0,L|238:104,1,78.7500007510185,8|0,0:0|0:0,0:0:0:0:
426,290,67971,2,0,P|328:348|256:292,1,157.500001502037,12|0,0:0|0:0,0:0:0:0:
177,192,68385,5,2,0:0:0:0:
296,80,68591,1,0,0:0:0:0:
152,44,68798,2,0,L|68:44,1,78.7500007510185,10|0,0:0|0:0,0:0:0:0:
288,168,69005,2,0,L|396:168,1,78.7500007510185
456,100,69212,1,0,0:0:0:0:
308,284,69419,1,2,0:0:0:0:
244,56,69626,1,8,0:0:0:0:
428,204,69833,1,0,0:0:0:0:
192,192,70040,6,0,P|132:248|124:332,1,157.500001502037,2|0,0:0|0:0,0:0:0:0:
121,319,70350,1,0,0:0:0:0:
121,319,70454,1,10,0:0:0:0:
256,96,70660,1,0,0:0:0:0:
344,352,70867,6,0,P|376:342|352:320,1,78.7500007510185,8|0,0:0|0:0,0:0:0:0:
28,262,71074,2,0,P|20:294|51:284,1,78.7500007510185,8|0,0:0|0:0,0:0:0:0:
263,33,71281,2,0,P|238:10|232:80,1,157.500001502037,12|0,0:0|0:0,0:0:0:0:
484,122,71695,6,0,P|481:199|436:279,1,157.500001502037,2|0,0:0|0:0,0:0:0:0:
294,200,72109,2,0,B|218:209|218:209|154:266,1,157.500001502037,10|0,0:0|0:0,0:0:0:0:
256,292,72419,1,0,0:0:0:0:
256,292,72523,1,0,0:0:0:0:
207,108,72729,2,0,B|126:133|126:86|48:103,1,157.500001502037,2|8,0:0|0:0,0:0:0:0:
169,24,73143,1,0,0:0:0:0:
318,127,73350,6,0,P|260:205|191:213,1,157.500001502037,2|2,0:0|0:0,0:0:0:0:
110,175,73660,1,2,0:0:0:0:
110,175,73764,2,0,P|72:273|130:333,1,157.500001502037,8|2,0:0|0:0,0:0:0:0:
192,351,74074,1,0,0:0:0:0:
192,351,74178,2,0,B|196:308|196:308|212:260,1,78.7500007510185,8|0,0:0|0:0,0:0:0:0:
445,126,74385,2,0,B|441:169|441:169|425:217,1,78.7500007510185,8|0,0:0|0:0,0:0:0:0:
118,50,74591,1,4,0:0:0:0:
118,50,75005,6,0,P|88:166|162:267,1,236.250002253056,2|0,0:0|0:0,0:0:0:0:
256,192,75419,1,8,0:0:0:0:
256,192,75626,1,0,0:0:0:0:
394,50,75833,6,0,P|424:166|350:267,1,236.250002253056,2|0,0:0|0:0,0:0:0:0:
256,192,76247,1,8,0:0:0:0:
256,192,76454,2,0,P|220:116|256:60,1,157.500001502037,0|8,0:0|0:0,0:0:0:0:
316,128,76867,5,8,0:0:0:0:
212,297,77074,1,10,0:0:0:0:
395,258,77281,1,8,0:0:0:0:
145,227,77488,1,8,0:0:0:0:
127,203,77591,1,8,0:0:0:0:
118,175,77694,1,8,0:0:0:0:
116,145,77798,1,8,0:0:0:0:
123,117,77901,1,8,0:0:0:0:
137,91,78005,1,8,0:0:0:0:
158,70,78108,1,8,0:0:0:0:
184,57,78212,1,8,0:0:0:0:
213,50,78315,5,4,0:0:0:0:
448,64,78729,1,4,0:0:0:0:
348,280,79143,1,4,0:0:0:0:
448,64,79350,1,4,0:0:0:0:
192,64,79764,6,0,P|140:184|264:160,1,315.000003004074,4|0,0:0|0:0,0:0:0:0:
266,144,80281,1,0,0:0:0:0:
265,128,80385,1,0,0:0:0:0:
100,24,80591,1,0,0:0:0:0:
10,155,80798,2,0,L|10:245,1,78.7500007510185,2|0,0:0|0:0,0:0:0:0:
180,370,81109,1,0,0:0:0:0:
180,370,81212,2,0,L|180:287,1,78.7500007510185,2|0,0:0|0:0,0:0:0:0:
196,137,81419,2,0,L|256:212,1,78.7500007510185,2|0,0:0|0:0,0:0:0:0:
335,343,81626,6,0,P|404:316|459:255,1,135.000005149842,2|0,0:0|0:0,0:0:0:0:
245,198,82040,2,0,P|176:225|121:286,1,135.000005149842,2|0,0:0|0:0,0:0:0:0:
335,343,82454,1,2,0:0:0:0:
428,160,82660,2,0,L|364:40,1,135.000005149842,2|0,0:0|0:0,0:0:0:0:
352,244,83074,6,0,P|413:270|479:262,1,135.000005149842,2|0,0:0|0:0,0:0:0:0:
428,160,83488,1,0,0:0:0:0:
312,72,83695,1,2,0:0:0:0:
428,160,83902,1,0,0:0:0:0:
240,156,84109,1,2,0:0:0:0:
428,160,84316,1,0,0:0:0:0:
196,264,84523,1,2,0:0:0:0:
168,284,84936,6,0,B|124:236|144:184|144:184|200:208,1,135.000005149842,2|0,0:0|0:0,0:0:0:0:
320,256,85350,2,0,B|416:256|416:256|396:220,1,135.000005149842,2|0,0:0|0:0,0:0:0:0:
316,76,85764,1,2,0:0:0:0:
244,324,85971,2,0,P|160:364|120:356,1,135.000005149842,2|0,0:0|0:0,0:0:0:0:
32,164,86385,6,0,P|24:256|48:288,1,135.000005149842,2|0,0:0|0:0,0:0:0:0:
238,144,86798,1,0,0:0:0:0:
201,310,87005,2,0,B|141:274|141:274|109:210,1,135.000005149842,2|0,0:0|0:0,0:0:0:0:
149,50,87419,2,0,B|209:86|209:86|241:150,1,135.000005149842,2|0,0:0|0:0,0:0:0:0:
267,278,87833,1,2,0:0:0:0:
292,304,88247,6,0,B|384:280|384:280|456:328,1,135.000005149842,2|0,0:0|0:0,0:0:0:0:
216,240,88660,2,0,B|124:264|124:264|52:216,1,135.000005149842,2|0,0:0|0:0,0:0:0:0:
152,168,89074,1,2,0:0:0:0:
180,340,89281,1,2,0:0:0:0:
180,340,89385,1,0,0:0:0:0:
180,340,89488,1,2,0:0:0:0:
304,196,89695,6,0,P|334:123|316:68,1,135.000005149842,2|0,0:0|0:0,0:0:0:0:
359,247,90109,1,0,0:0:0:0:
240,124,90316,1,2,0:0:0:0:
372,12,90523,1,0,0:0:0:0:
143,63,90729,1,2,0:0:0:0:
160,220,90936,1,2,0:0:0:0:
141,263,91040,1,0,0:0:0:0:
109,297,91143,1,2,0:0:0:0:
63,309,91247,1,0,0:0:0:0:
17,298,91350,1,2,0:0:0:0:
135,143,91557,6,0,L|254:242,1,135.000005149842,2|0,0:0|0:0,0:0:0:0:
377,241,91971,2,0,L|258:142,1,135.000005149842,2|0,0:0|0:0,0:0:0:0:
252,37,92385,1,2,0:0:0:0:
395,156,92591,1,2,0:0:0:0:
88,100,93005,6,0,P|56:180|168:279,1,202.500007724762,2|0,0:0|0:0,0:0:0:0:
256,76,93729,5,0,0:0:0:0:
256,100,93833,1,2,0:0:0:0:
