osu file format v14

[General]
AudioFilename: Runrunriru Ranranrara Cut.mp3
AudioLeadIn: 0
PreviewTime: 7045
Countdown: 0
SampleSet: Normal
StackLeniency: 0.7
Mode: 0
LetterboxInBreaks: 1
WidescreenStoryboard: 1

[Editor]
DistanceSpacing: 1.3
BeatDivisor: 4
GridSize: 4
TimelineZoom: 1

[Metadata]
Title:Runrunriru Ranranrara (TV Size)
TitleUnicode:るんるんりる らんらんらら (TV Size)
Artist:Kobayashi Yuu
ArtistUnicode:小林ゆう
Creator:Lanturn
Version:Easyholic
Source:まりあ†ほりっく あらいぶ
Tags:Maria Holic Alive Opening Yu Anime Japanese
BeatmapID:726303
BeatmapSetID:320645

[Difficulty]
HPDrainRate:2
CircleSize:3
OverallDifficulty:2
ApproachRate:3
SliderMultiplier:0.689999999999999
SliderTickRate:2

[Events]
//Background and Video events
0,0,"RRRRRR.png",0,0
Video,-10,"RUNRUNRIRU.avi"
//Break Periods
//Storyboard Layer 0 (Background)
//Storyboard Layer 1 (Fail)
//Storyboard Layer 2 (Pass)
//Storyboard Layer 3 (Foreground)
//Storyboard Sound Samples

[TimingPoints]
523,413.793103448276,4,1,1,40,1,0
5488,-100,4,1,1,45,0,0
6316,-100,4,1,1,50,0,0
20385,-100,4,1,1,70,0,0
31764,-100,4,1,1,50,0,0
33626,-100,4,1,1,50,0,0
46867,-100,4,1,1,70,0,0
59488,-100,4,1,1,60,0,0
59695,-100,4,1,1,50,0,0
59902,-100,4,1,1,40,0,0
60109,-100,4,1,1,70,0,0
61764,-100,4,1,1,70,0,1
79764,-100,4,1,1,50,0,1
81626,-100,4,1,1,50,0,0
93729,-100,4,1,1,30,0,0

[Colours]
Combo1 : 235,234,216
Combo2 : 222,172,184
Combo3 : 127,63,54
Combo4 : 225,184,152

[HitObjects]
212,120,7143,6,0,P|149:149|81:119,1,138,6|2,0:0|0:0,0:0:0:0:
148,60,8385,1,0,0:0:0:0:
212,120,8798,2,0,L|312:236,1,138,0|2,0:0|0:0,0:0:0:0:
380,268,10040,1,2,0:0:0:0:
464,304,10454,6,0,B|488:248|444:224|468:168,1,138,2|2,0:0|0:0,0:0:0:0:
404,105,11695,1,0,0:0:0:0:
340,168,12109,2,0,L|256:168,1,68.9999999999999,0|2,0:0|0:0,0:0:0:0:
200,224,12936,2,0,L|125:198,1,68.9999999999999,2|2,0:0|0:0,0:0:0:0:
88,124,13764,6,0,B|124:76|124:76|228:76,1,138,2|2,0:0|0:0,0:0:0:0:
256,148,15005,1,2,0:0:0:0:
308,75,15419,2,0,B|386:75|386:75|422:123,1,138,0|2,0:0|0:0,0:0:0:0:
476,194,16660,1,2,0:0:0:0:
408,252,17074,6,0,P|340:280|280:252,1,138,2|2,0:0|0:0,0:0:0:0:
218,194,18316,1,0,0:0:0:0:
283,131,18729,2,0,P|351:103|411:131,1,138
504,280,20385,6,0,L|504:368,1,68.9999999999999,4|10,0:0|0:0,0:0:0:0:
414,349,21212,2,0,L|414:257,1,68.9999999999999,0|8,0:0|0:0,0:0:0:0:
350,216,22040,2,0,L|278:216,1,68.9999999999999,2|8,0:0|0:0,0:0:0:0:
217,152,22867,2,0,L|184:116,2,34.5,8|8|12,0:0|0:0|0:0,0:0:0:0:
196,240,23695,6,0,P|172:304|200:365,1,138,2|2,0:0|0:0,0:0:0:0:
260,300,24936,1,8,0:0:0:0:
344,336,25350,2,0,L|428:336,1,68.9999999999999,2|10,0:0|0:0,0:0:0:0:
476,272,26178,2,0,L|512:236,2,34.5,8|8|4,0:0|0:0|0:0,0:0:0:0:
388,248,27005,6,0,B|352:224|352:176,1,68.9999999999999,2|8,0:0|0:0,0:0:0:0:
320,108,27833,2,0,P|252:124|184:108,1,138,2|2,0:0|0:0,0:0:0:0:
116,52,29074,2,0,P|84:40|48:44,2,68.9999999999999,10|8|10,0:0|0:0|0:0,0:0:0:0:
72,132,30316,6,0,L|72:216,1,68.9999999999999,4|4,0:0|0:0,0:0:0:0:
28,280,31143,2,0,P|36:332|80:372,2,103.5,4|4|0,0:0|0:0|0:0,0:0:0:0:
196,72,33626,6,0,L|304:72,2,103.5,4|0|0,0:0|0:0|0:0,0:0:0:0:
132,135,35281,2,0,L|24:135,2,103.5,2|2|0,0:0|0:0|0:0,0:0:0:0:
195,198,36936,6,0,L|280:198,1,68.9999999999999,2|0,0:0|0:0,0:0:0:0:
327,263,37764,2,0,L|403:263,1,68.9999999999999,2|0,0:0|0:0,0:0:0:0:
459,199,38591,2,0,P|447:147|455:99,2,103.5,2|0|2,0:0|0:0|0:0,0:0:0:0:
476,288,40247,6,0,P|376:340|336:320,1,138,2|2,0:0|0:0,0:0:0:0:
280,296,41488,1,0,0:0:0:0:
200,256,41902,2,0,P|136:248|72:268,2,103.5,2|2|0,0:0|0:0|0:0,0:0:0:0:
280,296,43557,6,0,L|320:216,1,68.9999999999999,2|0,0:0|0:0,0:0:0:0:
256,160,44385,2,0,L|296:80,1,68.9999999999999,2|0,0:0|0:0,0:0:0:0:
223,34,45212,2,0,B|156:52|156:52|108:110,1,138,2|2,0:0|0:0,0:0:0:0:
172,272,46867,6,0,L|172:328,2,34.5,4|0|8,0:0|0:0|0:0,0:0:0:0:
235,208,47695,2,0,L|235:154,2,34.5,0|0|10,0:0|0:0|0:0,0:0:0:0:
288,280,48523,2,0,P|308:320|352:344,1,68.9999999999999,2|10,0:0|0:0,0:0:0:0:
372,260,49350,2,0,P|416:262|459:236,1,68.9999999999999,2|10,0:0|0:0,0:0:0:0:
396,176,50178,5,4,0:0:0:0:
312,104,50591,1,4,0:0:0:0:
200,104,51005,1,4,0:0:0:0:
116,176,51419,1,4,0:0:0:0:
73,252,51833,6,0,P|105:263|139:260,1,68.9999999999999,4|8,0:0|0:0,0:0:0:0:
185,334,52660,2,0,P|210:311|224:280,1,68.9999999999999,0|8,0:0|0:0,0:0:0:0:
277,208,53488,6,0,L|277:173,2,34.5,2|0|10,0:0|0:0|0:0,0:0:0:0:
340,272,54316,2,0,L|340:306,2,34.5,2|0|8,0:0|0:0|0:0,0:0:0:0:
408,212,55143,2,0,L|480:164,1,68.9999999999999,0|10,0:0|0:0,0:0:0:0:
444,88,55971,2,0,L|372:136,1,68.9999999999999,2|8,0:0|0:0,0:0:0:0:
308,80,56798,6,0,P|244:60|176:80,1,138,0|2,0:0|0:0,0:0:0:0:
256,192,58454,12,6,60109,0:0:0:0:
216,148,61764,6,0,P|168:160|136:152,1,68.9999999999999,4|10,0:0|0:0,0:0:0:0:
176,72,62591,2,0,P|224:60|256:68,1,68.9999999999999,0|8,0:0|0:0,0:0:0:0:
304,132,63419,1,2,0:0:0:0:
276,216,63833,1,8,0:0:0:0:
216,284,64247,2,0,L|216:344,2,34.5,8|8|12,0:0|0:0|0:0,0:0:0:0:
152,220,65074,6,0,B|108:220|108:220|60:196|60:196|-8:196,1,138,2|0,0:0|0:0,0:0:0:0:
19,285,66316,1,8,0:0:0:0:
82,348,66729,2,0,L|170:348,1,68.9999999999999,2|10,0:0|0:0,0:0:0:0:
216,284,67557,2,0,L|280:284,2,34.5,8|8|12,0:0|0:0|0:0,0:0:0:0:
152,220,68385,6,0,P|156:164|144:128,1,68.9999999999999,2|10,0:0|0:0,0:0:0:0:
72,184,69212,2,0,P|68:240|80:276,1,68.9999999999999,0|8,0:0|0:0,0:0:0:0:
100,336,70040,1,2,0:0:0:0:
184,368,70454,1,10,0:0:0:0:
216,284,70867,2,0,L|216:224,2,34.5,8|8|12,0:0|0:0|0:0,0:0:0:0:
270,355,71695,6,0,P|342:372|409:352,1,138,2|0,0:0|0:0,0:0:0:0:
460,287,72936,1,8,0:0:0:0:
370,282,73350,2,0,P|337:293|297:277,1,68.9999999999999,2|8,0:0|0:0,0:0:0:0:
216,284,74178,2,0,L|160:284,2,34.5,8|8|4,0:0|0:0|0:0,0:0:0:0:
256,204,75005,6,0,B|280:180|280:180|280:144,1,68.9999999999999,2|8,0:0|0:0,0:0:0:0:
343,81,75833,2,0,B|367:105|367:105|367:218,1,138,2|2,0:0|0:0,0:0:0:0:
328,292,77074,2,0,L|328:364,2,68.9999999999999,10|10|10,0:0|0:0|0:0,0:0:0:0:
272,220,78316,6,0,L|180:220,1,68.9999999999999,4|4,0:0|0:0,0:0:0:0:
136,160,79143,2,0,B|68:160|68:160|40:136,2,103.5,4|4|0,0:0|0:0|0:0,0:0:0:0:
380,44,81626,6,0,B|404:108|356:108|384:180,1,138,2|2,0:0|0:0,0:0:0:0:
319,241,82867,1,0,0:0:0:0:
248,296,83281,2,0,L|160:296,1,68.9999999999999,0|2,0:0|0:0,0:0:0:0:
116,232,84109,2,0,L|32:276,1,68.9999999999999,2|2,0:0|0:0,0:0:0:0:
0,192,84936,6,0,L|76:52,1,138,2|2,0:0|0:0,0:0:0:0:
148,36,86178,1,0,0:0:0:0:
208,104,86591,2,0,P|242:109|288:136,1,68.9999999999999,0|2,0:0|0:0,0:0:0:0:
332,191,87419,2,0,P|363:206|397:211,1,68.9999999999999,2|2,0:0|0:0,0:0:0:0:
472,164,88247,6,0,P|483:234|443:288,1,138,2|2,0:0|0:0,0:0:0:0:
364,328,89488,1,2,0:0:0:0:
300,264,89902,2,0,L|300:172,2,68.9999999999999,0|2|2,0:0|0:0|0:0,0:0:0:0:
236,327,91143,1,2,0:0:0:0:
172,263,91557,6,0,L|80:263,1,68.9999999999999,2|2,0:0|0:0,0:0:0:0:
39,199,92385,2,0,P|20:144|44:100,1,103.5,2|2,0:0|0:0,0:0:0:0:
204,32,93833,1,2,0:0:0:0:
