osu file format v14

[General]
AudioFilename: [J-Core Speedcore #84] Kobaryo - Kick To The Sky.mp3
AudioLeadIn: 0
PreviewTime: 30307
Countdown: 1
SampleSet: Soft
StackLeniency: 0.7
Mode: 0
LetterboxInBreaks: 1
WidescreenStoryboard: 1

[Editor]
Bookmarks: 25784,56804,63335,95988
DistanceSpacing: 0.5
BeatDivisor: 4
GridSize: 4
TimelineZoom: 1

[Metadata]
Title:Kick To The Sky
TitleUnicode:Kick To The Sky
Artist:Kobaryo
ArtistUnicode:Kobaryo
Creator:Kyshiro
Version:You Are Not Ready
Source:
Tags:
BeatmapID:875188
BeatmapSetID:402426

[Difficulty]
HPDrainRate:5
CircleSize:4
OverallDifficulty:9.5
ApproachRate:10
SliderMultiplier:1.8
SliderTickRate:1

[Events]
//Background and Video events
0,0,"wallhaven-218491.jpg",0,0
//Break Periods
2,57038,62919
//Storyboard Layer 0 (Background)
//Storyboard Layer 1 (Fail)
//Storyboard Layer 2 (Pass)
//Storyboard Layer 3 (Foreground)
//Storyboard Sound Samples

[TimingPoints]
512,204.081632653061,4,2,0,100,1,0
25818,-200,4,2,0,100,0,0
30716,-100,4,2,0,100,0,1
42144,-133.333333333333,4,2,0,100,0,1
43777,-100,4,2,0,100,0,0
50307,-86.9565217391304,4,2,0,100,0,1
56226,-133.333333333333,4,2,0,100,0,1
56838,-86.9565217391304,4,2,0,100,0,0
63369,-133.333333333333,4,2,0,100,0,0
69899,-100,4,2,0,100,0,0
76430,-83.3333333333333,4,2,0,100,0,1
82960,-133.333333333333,4,2,0,100,0,0

[Colours]
Combo1 : 233,181,238
Combo2 : 179,223,222
Combo3 : 140,192,255
Combo4 : 250,160,174

[HitObjects]
48,132,25818,6,0,P|105:138|180:114,1,135
253,171,26226,2,0,P|319:165|383:187,1,135
435,260,26634,1,0,0:0:0:0:
180,223,26838,1,0,0:0:0:0:
334,48,27042,1,0,0:0:0:0:
299,306,27246,1,0,0:0:0:0:
37,244,27450,5,0,0:0:0:0:
191,189,27654,1,0,0:0:0:0:
83,133,27858,1,0,0:0:0:0:
146,298,28063,2,0,P|186:307|220:306,1,67.5
245,299,28267,6,0,L|274:198,1,90
393,209,28573,2,0,L|364:108,1,90
214,114,28879,2,0,L|262:121,1,45
295,18,29083,5,0,0:0:0:0:
264,24,29185,1,0,0:0:0:0:
233,30,29287,1,0,0:0:0:0:
202,36,29389,1,0,0:0:0:0:
171,42,29491,1,0,0:0:0:0:
140,48,29593,1,0,0:0:0:0:
109,54,29695,1,0,0:0:0:0:
78,60,29797,1,0,0:0:0:0:
161,140,29899,5,0,0:0:0:0:
192,146,30001,1,0,0:0:0:0:
223,152,30103,1,0,0:0:0:0:
254,158,30205,1,0,0:0:0:0:
81,203,30307,5,0,0:0:0:0:
81,203,30716,5,0,0:0:0:0:
309,245,30818,1,0,0:0:0:0:
176,305,30920,1,0,0:0:0:0:
227,71,31022,1,0,0:0:0:0:
330,266,31124,2,0,P|337:320|333:362,1,90
411,144,31328,2,0,P|465:137|507:141,1,90
470,264,31532,5,0,0:0:0:0:
293,159,31634,1,0,0:0:0:0:
470,65,31736,1,0,0:0:0:0:
357,250,31838,1,0,0:0:0:0:
187,108,31940,2,0,L|172:11,1,90
370,162,32144,1,0,0:0:0:0:
367,184,32195,1,0,0:0:0:0:
364,206,32246,1,0,0:0:0:0:
361,228,32297,1,0,0:0:0:0:
357,250,32348,6,0,L|344:342,1,90
212,254,32552,1,0,0:0:0:0:
484,186,32654,1,0,0:0:0:0:
311,25,32756,2,0,P|312:88|325:125,1,90
203,342,32960,2,0,P|213:298|211:253,1,90
110,74,33165,5,0,0:0:0:0:
71,292,33267,2,0,L|64:342,2,45
266,215,33471,1,0,0:0:0:0:
48,176,33573,2,0,L|-2:169,2,45
305,318,33777,2,0,L|408:311,1,90
463,111,33981,5,0,0:0:0:0:
233,63,34083,1,0,0:0:0:0:
309,240,34185,1,0,0:0:0:0:
360,37,34287,1,0,0:0:0:0:
215,181,34389,2,0,P|153:178|120:165,1,90
424,226,34593,2,0,P|466:213|511:213,1,90
301,355,34797,5,0,0:0:0:0:
281,132,34899,1,0,0:0:0:0:
416,312,35001,1,0,0:0:0:0:
194,289,35103,1,0,0:0:0:0:
396,161,35205,2,0,L|419:47,1,90
113,204,35409,1,0,0:0:0:0:
106,225,35460,1,0,0:0:0:0:
102,247,35511,1,0,0:0:0:0:
101,269,35563,1,0,0:0:0:0:
103,291,35614,6,0,P|112:337|137:387,1,90
281,132,35818,1,0,0:0:0:0:
416,312,35920,1,0,0:0:0:0:
192,194,36022,1,0,0:0:0:0:
432,207,36124,1,0,0:0:0:0:
258,328,36226,1,0,0:0:0:0:
185,89,36328,1,0,0:0:0:0:
405,106,36430,6,0,L|441:100,4,22.5
311,233,36634,6,0,L|275:227,4,22.5
202,53,36838,6,0,L|238:47,4,22.5
108,180,37042,6,0,L|72:174,4,22.5
311,233,37246,6,0,P|326:293|321:333,1,90
116,94,37450,2,0,P|115:49|128:6,1,90
269,115,37654,1,0,0:0:0:0:
26,210,37756,1,0,0:0:0:0:
191,254,37858,2,0,L|186:364,1,90
419,252,38063,5,0,0:0:0:0:
200,166,38165,1,0,0:0:0:0:
260,317,38267,1,0,0:0:0:0:
341,134,38369,2,0,P|348:81|341:39,1,90
116,94,38573,1,0,0:0:0:0:
301,228,38675,1,0,0:0:0:0:
322,234,38726,1,0,0:0:0:0:
344,237,38777,1,0,0:0:0:0:
366,237,38828,1,0,0:0:0:0:
388,235,38879,6,0,P|439:222|476:201,1,90
249,49,39083,1,0,0:0:0:0:
191,254,39185,1,0,0:0:0:0:
44,104,39287,1,0,0:0:0:0:
266,162,39389,1,0,0:0:0:0:
70,299,39491,2,0,L|82:193,1,90
351,85,39695,5,0,0:0:0:0:
88,111,39797,2,0,L|40:103,2,45
235,321,40001,1,0,0:0:0:0:
209,58,40103,2,0,L|217:10,2,45
366,226,40307,2,0,L|383:324,1,90
217,223,40511,5,0,0:0:0:0:
441,161,40614,1,0,0:0:0:0:
297,26,40716,2,0,L|285:125,1,90
26,212,40920,1,0,0:0:0:0:
126,25,41022,1,0,0:0:0:0:
127,238,41124,2,0,L|130:338,1,90
366,226,41328,5,0,0:0:0:0:
188,167,41430,1,0,0:0:0:0:
325,71,41532,1,0,0:0:0:0:
252,263,41634,1,0,0:0:0:0:
445,134,41736,2,0,P|460:83|456:34,1,90
252,110,41940,5,0,0:0:0:0:
242,125,41991,1,0,0:0:0:0:
234,141,42042,1,0,0:0:0:0:
229,158,42093,1,0,0:0:0:0:
226,175,42144,6,0,P|224:214|228:246,1,67.5000025749208
147,101,42348,2,0,P|108:99|76:103,1,67.5000025749208
250,69,42552,2,0,P|252:30|248:-2,1,67.5000025749208
329,143,42756,2,0,P|368:145|400:141,1,67.5000025749208
339,327,42960,5,0,0:0:0:0:
237,320,43063,1,0,0:0:0:0:
136,313,43165,1,0,0:0:0:0:
34,306,43267,1,0,0:0:0:0:
93,223,43369,1,0,0:0:0:0:
195,230,43472,1,0,0:0:0:0:
296,237,43574,1,0,0:0:0:0:
398,244,43676,1,0,0:0:0:0:
469,168,43777,6,0,P|484:103|480:75,1,90
275,262,43981,2,0,P|260:327|264:355,1,90
207,92,44185,2,0,P|222:27|218:-1,1,90
13,186,44389,2,0,P|-2:251|2:279,1,90
344,194,44593,6,0,P|257:168|188:217,1,180
364,331,44899,1,0,0:0:0:0:
149,341,45001,2,0,P|206:346|249:331,1,90
77,226,45205,1,0,0:0:0:0:
280,138,45307,1,0,0:0:0:0:
161,18,45409,6,0,L|153:109,1,90
356,241,45614,2,0,L|364:332,1,90,0|0,0:0|0:0,0:0:0:0:
351,18,45818,2,0,L|358:107,1,90
156,241,46023,2,0,L|148:330,1,90
43,177,46226,5,0,0:0:0:0:
246,177,46328,2,0,L|298:176,2,45
52,283,46532,1,0,0:0:0:0:
197,77,46634,2,0,L|225:40,2,45
204,305,46838,1,0,0:0:0:0:
433,244,46940,1,0,0:0:0:0:
318,8,47042,6,0,P|303:84|308:113,1,90
72,130,47246,2,0,P|148:145|177:140,1,90
194,376,47450,2,0,P|209:300|204:271,1,90
440,254,47654,2,0,P|364:239|335:244,1,90
102,313,47858,5,0,0:0:0:0:
303,351,47960,1,0,0:0:0:0:
242,194,48063,1,0,0:0:0:0:
81,325,48165,1,0,0:0:0:0:
352,240,48267,2,0,L|376:131,1,90
262,34,48471,1,0,0:0:0:0:
262,34,48522,1,0,0:0:0:0:
262,34,48573,1,0,0:0:0:0:
148,122,48675,6,0,P|101:121|53:104,1,90
326,84,48879,2,0,P|327:37|344:-11,1,90
364,262,49083,2,0,P|411:263|459:280,1,90
186,300,49287,2,0,P|185:347|168:395,1,90
43,240,49491,6,0,L|75:235,4,22.5
264,197,49695,2,0,L|232:192,4,22.5
131,66,49899,2,0,L|136:98,4,22.5
160,327,50103,2,0,L|163:223,1,90
385,164,50307,5,0,0:0:0:0:
162,92,50409,1,0,0:0:0:0:
300,282,50511,1,0,0:0:0:0:
300,47,50614,1,0,0:0:0:0:
162,237,50716,2,0,P|115:241|53:223,1,103.500001974106
300,47,50920,2,0,P|286:96|289:148,1,103.500001974106
433,251,51124,5,0,0:0:0:0:
378,62,51226,1,0,0:0:0:0:
205,156,51328,1,0,0:0:0:0:
464,175,51430,5,0,0:0:0:0:
291,269,51532,1,0,0:0:0:0:
236,80,51634,1,0,0:0:0:0:
351,189,51736,1,0,0:0:0:0:
366,186,51787,1,0,0:0:0:0:
381,182,51838,1,0,0:0:0:0:
395,176,51889,1,0,0:0:0:0:
408,169,51940,6,0,L|429:65,1,103.500001974106
245,254,52144,2,0,L|265:355,1,103.500001974106
50,285,52348,1,0,0:0:0:0:
86,75,52450,1,0,0:0:0:0:
292,110,52552,1,0,0:0:0:0:
181,209,52654,1,0,0:0:0:0:
201,21,52756,5,0,0:0:0:0:
326,228,52858,2,0,L|335:285,2,51.7500009870529
83,173,53063,1,0,0:0:0:0:
292,110,53165,2,0,L|348:103,2,51.7500009870529
115,263,53369,2,0,L|-15:246,1,103.500001974106
161,106,53573,5,0,0:0:0:0:
205,310,53675,1,0,0:0:0:0:
391,209,53777,1,0,0:0:0:0:
181,209,53879,1,0,0:0:0:0:
348,343,53981,1,0,0:0:0:0:
486,175,54083,1,0,0:0:0:0:
319,61,54185,2,0,L|331:171,1,103.500001974106
46,227,54389,6,0,L|34:337,1,103.500001974106
277,234,54593,1,0,0:0:0:0:
137,106,54695,1,0,0:0:0:0:
126,303,54797,1,0,0:0:0:0:
368,255,54899,1,0,0:0:0:0:
181,209,55001,1,0,0:0:0:0:
166,204,55052,1,0,0:0:0:0:
150,202,55103,1,0,0:0:0:0:
134,202,55154,1,0,0:0:0:0:
118,204,55205,6,0,P|68:207|5:191,1,103.500001974106
276,134,55409,2,0,L|309:132,4,25.8750004935265
27,141,55614,2,0,L|1:142,4,25.8750004935265
148,15,55818,2,0,L|150:41,4,25.8750004935265
151,338,56022,1,0,0:0:0:0:
151,338,56226,6,0,P|151:296|159:264,1,67.5000025749208
77,31,56430,2,0,P|83:64|82:97,1,67.5000025749208
276,133,56634,2,0,L|352:127,1,67.5000025749208
484,298,56838,1,0,0:0:0:0:
103,79,63369,6,0,P|104:142|121:214,1,135.000005149842
241,259,63675,1,0,0:0:0:0:
241,259,63777,2,0,P|298:252|402:265,1,135.000005149842
466,313,64083,1,0,0:0:0:0:
466,313,64185,1,0,0:0:0:0:
138,307,64389,1,0,0:0:0:0:
310,115,64593,1,0,0:0:0:0:
304,363,64797,1,0,0:0:0:0:
165,155,65001,6,0,L|151:8,1,135.000005149842
61,71,65307,1,0,0:0:0:0:
61,71,65409,1,0,0:0:0:0:
400,186,65614,1,0,0:0:0:0:
400,186,65716,1,0,0:0:0:0:
400,186,65818,1,0,0:0:0:0:
148,249,66022,1,0,0:0:0:0:
148,249,66124,1,0,0:0:0:0:
148,249,66226,2,0,P|139:300|144:333,1,67.5000025749208
254,184,66430,2,0,P|254:150|246:117,1,67.5000025749208
172,38,66634,5,0,0:0:0:0:
37,215,66838,1,0,0:0:0:0:
148,249,67042,1,0,0:0:0:0:
67,310,67246,1,0,0:0:0:0:
53,76,67450,5,0,0:0:0:0:
367,138,67654,1,0,0:0:0:0:
254,184,67858,1,0,0:0:0:0:
346,247,68063,1,0,0:0:0:0:
172,351,68267,5,0,0:0:0:0:
191,61,68471,1,0,0:0:0:0:
191,61,68573,1,0,0:0:0:0:
191,61,68675,1,0,0:0:0:0:
41,191,68879,1,0,0:0:0:0:
41,191,68981,1,0,0:0:0:0:
446,175,69899,6,0,L|464:70,1,90
294,103,70103,2,0,L|189:85,1,90
229,246,70307,2,0,L|211:351,1,90
381,318,70511,2,0,L|486:336,1,90
294,103,70716,6,0,L|257:3,1,90
126,116,70920,2,0,L|26:152,1,90
141,272,71124,2,0,L|177:371,1,90
309,259,71328,2,0,L|408:222,1,90
126,116,71532,6,0,P|121:55|128:16,1,90
332,62,71736,2,0,P|393:57|432:64,1,90
386,268,71940,2,0,P|391:329|384:368,1,90
180,322,72144,2,0,P|119:327|80:320,1,90
405,74,72348,6,0,P|466:75|504:86,1,90
437,284,72552,2,0,P|435:345|424:383,1,90
226,316,72756,2,0,P|164:314|126:303,1,90
194,106,72960,2,0,P|195:44|206:6,1,90
312,268,73165,6,0,B|337:306|337:306|343:350,1,90
394,129,73369,2,0,B|432:104|432:104|476:98,1,90
233,99,73573,2,0,B|208:61|208:61|202:17,1,90
151,238,73777,2,0,B|113:263|113:263|69:269,1,90
321,114,73981,6,0,B|338:72|338:72|371:42,1,90
159,123,74185,2,0,B|117:105|117:105|87:72,1,90
225,273,74389,2,0,B|207:314|207:314|174:344,1,90
386,264,74593,2,0,B|427:281|427:281|457:314,1,90
131,243,74797,6,0,L|26:225,1,90
404,180,75001,2,0,L|509:162,1,90
89,159,75205,2,0,L|-16:141,1,90
362,96,75409,2,0,L|467:78,1,90
222,27,75614,5,0,0:0:0:0:
216,53,75716,1,0,0:0:0:0:
210,79,75818,1,0,0:0:0:0:
205,105,75920,1,0,0:0:0:0:
295,122,76022,5,0,0:0:0:0:
301,148,76124,1,0,0:0:0:0:
307,174,76226,1,0,0:0:0:0:
312,200,76328,1,0,0:0:0:0:
225,238,76430,5,0,0:0:0:0:
404,180,76532,1,0,0:0:0:0:
347,275,76634,2,0,L|339:385,1,107.999996704102
459,274,76838,1,0,0:0:0:0:
301,148,76940,1,0,0:0:0:0:
181,305,77042,1,0,0:0:0:0:
404,180,77144,1,0,0:0:0:0:
206,198,77246,6,0,L|89:177,1,107.999996704102
378,96,77450,2,0,L|495:75,1,107.999996704102
348,237,77654,2,0,L|356:359,1,107.999996704102
181,305,77858,1,0,0:0:0:0:
484,190,77960,1,0,0:0:0:0:
267,120,78063,6,0,P|255:66|261:6,1,107.999996704102
493,222,78267,2,0,P|496:275|485:328,1,107.999996704102
178,239,78471,1,0,0:0:0:0:
311,57,78573,1,0,0:0:0:0:
311,283,78675,1,0,0:0:0:0:
178,100,78777,1,0,0:0:0:0:
391,169,78879,6,0,L|501:150,1,107.999996704102
231,30,79083,1,0,0:0:0:0:
253,231,79185,1,0,0:0:0:0:
394,86,79287,1,0,0:0:0:0:
130,67,79389,1,0,0:0:0:0:
152,268,79491,1,0,0:0:0:0:
293,123,79593,1,0,0:0:0:0:
108,170,79695,6,0,P|43:170|-1:159,1,107.999996704102
303,16,79899,2,0,P|291:68|292:122,1,107.999996704102
449,220,80103,1,0,0:0:0:0:
211,272,80205,1,0,0:0:0:0:
342,384,80307,2,0,L|347:270,1,107.999996704102
182,65,80511,5,0,0:0:0:0:
386,115,80614,1,0,0:0:0:0:
191,193,80716,1,0,0:0:0:0:
303,16,80818,1,0,0:0:0:0:
318,226,80920,1,0,0:0:0:0:
117,132,81022,1,0,0:0:0:0:
386,115,81124,2,0,P|456:116|501:128,1,107.999996704102
289,312,81328,5,0,0:0:0:0:
264,126,81430,1,0,0:0:0:0:
435,200,81532,1,0,0:0:0:0:
208,227,81634,1,0,0:0:0:0:
275,2,81736,2,0,L|292:114,1,107.999996704102
135,292,81940,2,0,L|151:185,1,107.999996704102
21,75,82144,5,0,0:0:0:0:
0,170,82246,1,0,0:0:0:0:
45,255,82348,1,0,0:0:0:0:
135,292,82450,1,0,0:0:0:0:
227,262,82552,1,0,0:0:0:0:
279,179,82654,1,0,0:0:0:0:
266,83,82756,1,0,0:0:0:0:
193,17,82858,1,0,0:0:0:0:
97,14,82960,5,0,0:0:0:0:
488,124,83369,1,0,0:0:0:0:
227,262,83777,1,0,0:0:0:0:
267,141,83981,2,0,L|288:73,1,67.5000025749208
312,5,84185,1,0,0:0:0:0:
139,141,84389,1,0,0:0:0:0:
369,211,84593,5,0,0:0:0:0:
35,262,85001,1,0,0:0:0:0:
456,320,85409,1,0,0:0:0:0:
244,356,85614,2,0,L|229:286,1,67.5000025749208
207,209,85818,1,0,0:0:0:0:
338,285,86022,1,0,0:0:0:0:
65,317,86226,6,0,B|74:249|74:249|116:201|116:201|129:123,1,202.500007724762
29,157,86634,1,0,0:0:0:0:
466,107,87042,1,0,0:0:0:0:
219,23,87450,1,0,0:0:0:0:
266,329,87858,5,0,0:0:0:0:
466,107,88267,1,0,0:0:0:0:
29,157,88675,1,0,0:0:0:0:
184,161,88879,2,0,L|204:237,1,67.5000025749208
140,299,89083,1,0,0:0:0:0:
54,259,89185,2,0,L|11:257,2,33.7500012874604
232,330,89389,2,0,L|275:328,2,33.7500012874604
418,264,89695,5,0,0:0:0:0:
295,86,89899,2,0,P|282:143|293:221,1,135.000005149842
149,126,90307,2,0,B|137:79|107:37|63:22|63:22|45:51|48:92,2,202.500007724762
55,224,91124,5,0,0:0:0:0:
272,263,91328,1,0,0:0:0:0:
87,315,91532,1,0,0:0:0:0:
304,354,91736,1,0,0:0:0:0:
176,202,91940,2,0,L|196:63,1,135.000005149842
276,6,92246,2,0,L|295:139,1,135.000005149842
374,190,92552,2,0,P|416:196|447:192,1,67.5000025749208
289,232,92756,5,0,0:0:0:0:
73,165,92960,1,0,0:0:0:0:
150,312,93165,1,0,0:0:0:0:
217,96,93369,1,0,0:0:0:0:
262,333,93573,2,0,P|327:349|405:336,1,135.000005149842
328,269,93879,2,0,P|388:239|439:179,1,135.000005149842
339,173,94185,2,0,P|354:128|357:100,1,67.5000025749208
249,111,94389,6,0,P|203:109|160:95,2,90.0000034332277
339,173,94797,2,0,P|360:213|369:258,2,90.0000034332277
346,72,95205,2,0,P|370:33|404:2,2,90.0000034332277
437,133,95614,5,0,0:0:0:0:
19,241,96022,5,0,0:0:0:0:
