osu file format v11

[General]
AudioFilename: 7. Kobaryo - Carrionoid Amile.mp3
AudioLeadIn: 1004
PreviewTime: -1
Countdown: 0
SampleSet: None
StackLeniency: 0.7
Mode: 0
LetterboxInBreaks: 0

[Editor]
Bookmarks: 0,12666,23333,33999,44666,65999,87333,107333,119333,128666,151333,166999,171333,181999,192666,203333,213999,224666,235333,245999,257999,279333,298666,303999
DistanceSpacing: 0.7
BeatDivisor: 4
GridSize: 4

[Metadata]
Title:Carrionoid Amile
TitleUnicode:Carrionoid Amile
Artist:Kobaryo
ArtistUnicode:Kobaryo
Creator:Bobbias
Version:Yuugoh
Source:
Tags:Hardcore Tano*C, TanoC, redalice
BeatmapID:221236
BeatmapSetID:78441

[Difficulty]
HPDrainRate:5
CircleSize:4
OverallDifficulty:7
ApproachRate:9
SliderMultiplier:1.7
SliderTickRate:1

[Events]
//Background and Video events
//Break Periods
2,55366,150733
//Storyboard Layer 0 (Background)
//Storyboard Layer 1 (Fail)
//Storyboard Layer 2 (Pass)
//Storyboard Layer 3 (Foreground)
//Storyboard Sound Samples
//Background Colour Transformations
3,100,163,162,255

[TimingPoints]
0,333.333333333333,4,2,0,100,1,0
5648,-90.9090909090909,4,2,0,100,0,0
7168,-100,4,2,0,100,0,0
11020,-100,4,2,0,100,0,0
12666,-50,4,1,0,100,0,0
17999,-100,4,2,0,100,0,0
23333,-55.5555555555556,4,2,0,100,0,0
33083,-50,4,2,0,100,0,0
44666,-66.6666666666667,4,2,0,100,0,0
49666,-58.8235294117647,4,2,0,100,0,0
49999,-66.6666666666667,4,2,0,100,0,0
151333,-50,4,2,0,100,0,0
157999,-100,4,2,0,100,0,0
162333,-50,4,2,0,100,0,0

[HitObjects]
56,40,2000,2,0,P|96:72|96:72|24:88|24:88|56:120|56:120|56:168,1,212.5
56,248,2666,2,0,P|144:248,1,85
256,240,3083,1,0,0:0:0
456,344,4666,6,0,P|416:312|416:312|488:296|488:296|456:264|456:264|456:216,1,212.5
392,224,5333,2,0,P|328:224|304:240,1,85
216,344,5750,2,0,P|160:344|120:320|96:280|96:224,1,187.000005706787
304,88,6416,2,0,P|344:120|352:176,1,85
208,264,7000,1,0,0:0:0
456,40,7333,2,0,P|416:72|416:72|488:88|488:88|456:120|456:120|456:168,1,212.5
464,248,7999,2,0,P|384:248,1,42.5
256,240,8499,1,0,0:0:0
456,344,9999,6,0,P|416:312|416:312|488:296|488:296|456:264|456:264|456:216,1,212.5
456,344,10666,1,0,0:0:0
368,344,10833,1,0,0:0:0
216,344,11083,2,0,P|160:344|120:320|96:280|96:224,1,187.000005706787
304,88,11833,2,0,P|344:120|352:176,1,85
208,264,12333,1,0,0:0:0
72,192,12666,6,0,P|120:120,1,85,0|0,0:0|0:0,1:1:0
128,192,13000,2,0,P|64:120,1,85,0|0,0:0|0:0,0:0:0
368,192,13333,2,0,P|440:136,1,85
424,192,13666,2,0,P|360:128,1,85
256,88,14000,1,0,0:0:0
392,192,14333,1,0,0:0:0
256,288,14666,1,0,0:0:0
120,192,15000,1,0,0:0:0
280,128,15333,6,0,P|320:136|336:176,1,85
240,256,15666,2,0,P|200:248|184:208,1,85
280,128,15999,2,0,P|320:136|336:176,1,85
240,256,16333,2,0,P|200:248|184:208,1,85
248,128,16666,1,0,0:0:0
376,240,16999,1,0,0:0:0
240,344,17333,1,0,0:0:0
128,216,17666,1,0,0:0:0
40,216,17999,6,0,P|128:64,1,170
128,216,18666,2,0,P|216:64,1,170
213,68,19333,1,0,0:0:0
296,88,19666,1,0,0:0:0
352,152,19999,1,0,0:0:0
344,240,20333,1,0,0:0:0
272,280,20666,6,0,P|184:304|120:256,1,170
136,176,21333,2,0,P|224:152|288:200,1,170
272,280,21999,1,0,0:0:0
192,312,22333,1,0,0:0:0
112,280,22666,1,0,0:0:0
72,208,22999,1,0,0:0:0
304,48,23333,6,0,P|384:88|400:144,1,152.999995330811
400,240,23666,2,0,P|384:296|304:336,1,152.999995330811
208,336,23999,2,0,P|128:296|112:240,1,152.999995330811
112,144,24333,2,0,P|128:88|208:48,1,152.999995330811
304,48,24666,2,0,P|424:160|416:152,1,152.999995330811
208,336,24999,2,0,P|88:224|96:232,1,152.999995330811
304,48,25333,2,0,P|424:160|416:152,1,152.999995330811
208,336,25666,2,0,P|88:224|96:232,1,152.999995330811
184,120,25999,5,0,0:0:0
256,88,26166,1,0,0:0:0
328,120,26333,1,0,0:0:0
368,184,26499,1,0,0:0:0
328,256,26666,1,0,0:0:0
256,280,26833,1,0,0:0:0
184,256,26999,1,0,0:0:0
152,184,27166,1,0,0:0:0
96,104,27333,6,0,P|264:104,1,152.999995330811
328,176,27666,2,0,P|168:176,1,152.999995330811
224,248,27999,2,0,P|392:248,1,152.999995330811
432,320,28333,2,0,P|272:320,1,152.999995330811
200,320,28666,2,0,P|40:320,1,152.999995330811
96,248,28999,2,0,P|272:248,1,152.999995330811
304,176,29333,2,0,P|128:176,1,152.999995330811
192,104,29666,2,0,P|352:104,1,152.999995330811
408,80,29999,5,0,0:0:0
408,288,30333,1,0,0:0:0
120,288,30666,1,0,0:0:0
120,104,30999,1,0,0:0:0
304,48,31333,2,0,P|384:88|400:144,1,152.999995330811
400,240,31666,2,0,P|384:296|304:336,1,152.999995330811
208,336,31999,2,0,P|128:296|112:240,1,152.999995330811
112,144,32333,2,0,P|128:88|208:48,1,152.999995330811
256,192,32666,1,0,0:0:0
256,192,32999,1,0,0:0:0
256,192,33333,12,0,33999,0:0:0
56,80,34333,6,0,P|96:160|152:224,1,170
440,296,34666,2,0,P|440:200|368:128,1,170
224,64,34999,2,0,P|112:104|56:176,1,170
104,320,35333,2,0,P|272:272,1,170
440,176,35666,2,0,P|288:88,1,170
144,72,35999,2,0,P|40:232,1,170
208,200,36333,2,0,P|352:320,1,170
344,176,36666,6,0,P|224:200|176:176,1,170
272,64,36999,2,0,P|360:32|432:80,1,170
440,208,37333,2,0,P|376:280|304:312,1,170
80,80,37666,2,0,P|104:184|160:240,1,170
384,232,37999,2,0,P|368:128|304:64,1,170
200,96,38333,2,0,P|120:168|88:240,1,170
240,304,38666,2,0,P|336:328|432:296|408:304,1,170
448,168,38999,1,0,0:0:0
368,56,39166,1,0,0:0:0
280,168,39333,1,0,0:0:0
216,280,39499,1,0,0:0:0
112,288,39666,6,0,P|40:224|40:152,1,170
200,56,39999,2,0,P|288:32|400:48,1,170
296,144,40333,1,0,0:0:0
120,208,40499,1,0,0:0:0
232,304,40666,1,0,0:0:0
376,256,40833,1,0,0:0:0
432,128,40999,2,0,P|344:112|264:152,1,170
128,288,41333,2,0,P|48:224|56:128,1,170
192,72,41666,5,0,0:0:0
376,176,41999,1,0,0:0:0
224,312,42333,1,0,0:0:0
96,248,42499,1,0,0:0:0
224,184,42666,1,0,0:0:0
256,192,42833,12,0,43916,0:0:0
208,296,44666,5,0,0:0:0
88,160,44999,1,0,0:0:0
96,72,45166,1,0,0:0:0
432,96,45333,2,0,P|464:72,3,31.8750012159348
240,280,45666,2,0,P|179:318|113:301,1,127.500004863739
168,136,45999,2,0,P|216:104|288:104,1,127.500004863739
344,240,46333,1,0,0:0:0
216,312,46499,1,0,0:0:0
64,256,46666,2,0,P|32:192|48:120|80:72|152:40,2,255.000009727478
176,320,47499,5,0,0:0:0
304,320,47666,2,0,P|368:304|416:240,1,127.500004863739
432,96,47999,2,0,P|464:72,3,31.8750012159348
312,176,48333,2,0,P|264:192|176:184,1,127.500004863739
80,104,48666,1,0,0:0:0
88,224,48833,2,0,P|152:272|224:272,1,127.500004863739
320,248,49166,1,0,0:0:0
256,64,49333,2,0,P|176:64|128:88|88:152,1,191.250007295609
104,216,49666,2,0,P|184:216|272:184|304:128|300:52,1,289.000005512238
92,64,50333,6,0,P|52:136|52:184,1,127.500004863739
64,232,50583,1,0,0:0:0
80,272,50624,1,0,0:0:0
120,296,50666,1,0,0:0:0
216,312,50791,1,0,0:0:0
336,296,50916,2,0,P|384:264|400:192,1,127.500004863739
336,104,51249,1,0,0:0:0
224,64,51416,1,0,0:0:0
112,104,51583,1,0,0:0:0
56,208,51749,1,0,0:0:0
248,328,51999,2,0,P|368:328|448:264|448:168,2,255.000009727478
128,312,52749,6,0,P|64:280|64:192,1,127.500004863739
144,128,53083,1,0,0:0:0
272,80,53249,1,0,0:0:0
320,88,53333,1,0,0:0:0
352,120,53416,1,0,0:0:0
376,216,53583,2,0,P|368:272|312:312,1,127.500004863739
208,312,53916,1,0,0:0:0
64,200,54083,6,0,P|112:80,1,127.500004863739
168,232,54333,2,0,P|216:104,1,127.500004863739
272,272,54666,2,0,P|296:208,1,63.7500024318696
368,304,54833,2,0,P|392:232,1,63.7500024318696
456,336,55083,2,0,P|472:272,1,63.7500024318696
88,264,151333,6,0,P|56:192|88:104,1,170
428,109,151666,2,0,P|456:192|424:264,1,170
56,184,151999,2,0,P|80:112|148:44,1,170
456,188,152333,2,0,P|416:276|344:320,1,170
80,248,152666,5,0,0:0:0
55,188,152749,1,0,0:0:0
80,128,152832,1,0,0:0:0
196,52,153000,1,0,0:0:0
256,32,153083,1,0,0:0:0
316,52,153166,1,0,0:0:0
432,136,153333,1,0,0:0:0
456,195,153416,1,0,0:0:0
432,256,153499,1,0,0:0:0
316,324,153666,1,0,0:0:0
256,344,153749,1,0,0:0:0
196,324,153832,1,0,0:0:0
320,196,153999,6,0,P|388:124|452:192|388:272|352:192|384:192,1,170
256,260,154333,2,0,P|328:328|256:388|176:328|256:288|256:320,1,170
188,192,154666,2,0,P|108:272|56:192|112:112|156:192|128:192,1,170
256,144,154999,2,0,P|180:76|256:16|332:76|256:112|256:80,1,170
376,52,155333,2,0,P|440:116|472:192,1,170
148,92,155666,2,0,P|84:156|52:232,1,170
376,184,155999,2,0,P|440:248|472:324,1,170
156,208,156333,2,0,P|92:272|60:348,1,170
308,192,156666,5,0,0:0:0
384,192,156833,1,0,0:0:0
256,128,156999,1,0,0:0:0
256,52,157166,1,0,0:0:0
204,192,157333,1,0,0:0:0
124,192,157499,1,0,0:0:0
256,256,157666,1,0,0:0:0
256,332,157833,1,0,0:0:0
372,84,157999,6,0,P|460:84,1,85
72,304,158333,2,0,P|160:304,1,85
256,84,158666,2,0,P|360:84,1,85
188,308,158999,2,0,P|280:308,1,85
136,84,159333,2,0,P|232:84,1,85
48,84,159666,2,0,P|148:84,1,85
304,308,159999,2,0,P|392:308,1,85
388,308,160333,2,0,P|475:308,1,85
320,136,160666,5,0,0:0:0
200,136,160833,1,0,0:0:0
256,248,160999,1,0,0:0:0
256,192,161166,12,0,161999,0:0:0
104,88,162333,6,0,P|104:272,1,170
104,88,162666,2,0,P|228:208,1,170
104,88,162999,2,0,P|280:88,1,170
388,148,163333,1,0,0:0:0
392,240,163499,1,0,0:0:0
208,312,163666,2,0,P|136:328|92:248,1,170
148,128,163999,2,0,P|228:108|272:172,1,170
160,264,164333,1,0,0:0:0
56,168,164499,1,0,0:0:0
