osu file format v14

[General]
AudioFilename: Kobaryo - Biscuits Have Arrived In The Aquarium.mp3
AudioLeadIn: 0
PreviewTime: 213471
Countdown: 0
SampleSet: Soft
StackLeniency: 0.7
Mode: 3
LetterboxInBreaks: 0
SpecialStyle: 0
WidescreenStoryboard: 0

[Editor]
Bookmarks: 186804
DistanceSpacing: 0.8
BeatDivisor: 8
GridSize: 8
TimelineZoom: 2

[Metadata]
Title:Biscuits Have Arrived In The Aquarium
TitleUnicode:Biscuits Have Arrived In The Aquarium
Artist:Kobaryo
ArtistUnicode:Kobaryo
Creator:JamesHappy
Version:Ambient
Source:
Tags:IRREGULAR NATION 2 HARDCORE TANO*C
BeatmapID:1053516
BeatmapSetID:494794

[Difficulty]
HPDrainRate:9.2
CircleSize:4
OverallDifficulty:8.4
ApproachRate:5
SliderMultiplier:1.4
SliderTickRate:1

[Events]
//Background and Video events
0,0,"Konachan.com - 202073 sample.jpg",0,0
//Break Periods
//Storyboard Layer 0 (Background)
//Storyboard Layer 1 (Fail)
//Storyboard Layer 2 (Pass)
//Storyboard Layer 3 (Foreground)
//Storyboard Layer 4 (Overlay)
//Storyboard Sound Samples

[TimingPoints]
138,833.333333333333,4,2,0,5,1,0
7221,-142.857142857143,4,2,0,5,0,0
23471,-125,4,2,0,5,0,0
36804,-111.111111111111,4,2,0,10,0,0
80137,-100,4,2,0,20,0,0
133471,-133.333333333333,4,2,0,10,0,0
160137,-114.942528735632,4,2,0,15,0,0
186804,-100,4,2,0,25,0,0
320137,-125,4,2,0,25,0,0
333471,-142.857142857143,4,2,0,25,0,0
343471,-166.666666666667,4,2,0,25,0,0

[HitObjects]
448,192,138,5,0,0:0:0:0:
320,192,207,1,0,0:0:0:0:
192,192,276,1,0,0:0:0:0:
320,192,346,1,0,0:0:0:0:
192,192,415,1,0,0:0:0:0:
64,192,485,1,0,0:0:0:0:
320,192,554,1,0,0:0:0:0:
192,192,693,1,0,0:0:0:0:
64,192,762,1,0,0:0:0:0:
448,192,832,1,0,0:0:0:0:
320,192,901,1,0,0:0:0:0:
192,192,971,1,0,0:0:0:0:
448,192,1040,1,0,0:0:0:0:
64,192,1110,1,0,0:0:0:0:
192,192,1249,1,0,0:0:0:0:
448,192,1387,1,0,0:0:0:0:
320,192,1457,1,0,0:0:0:0:
192,192,1526,1,0,0:0:0:0:
320,192,1596,1,0,0:0:0:0:
192,192,1665,1,0,0:0:0:0:
64,192,1735,1,0,0:0:0:0:
448,192,1804,128,0,36804:0:0:0:0:
64,192,4304,1,0,0:0:0:0:
64,192,4721,1,0,0:0:0:0:
320,192,5137,1,0,0:0:0:0:
192,192,5207,1,0,0:0:0:0:
64,192,5276,1,0,0:0:0:0:
320,192,5346,1,0,0:0:0:0:
64,192,5415,1,0,0:0:0:0:
192,192,5554,1,0,0:0:0:0:
64,192,5762,1,0,0:0:0:0:
192,192,5832,1,0,0:0:0:0:
320,192,5901,1,0,0:0:0:0:
64,192,5971,1,0,0:0:0:0:
320,192,6040,1,0,0:0:0:0:
192,192,6110,1,0,0:0:0:0:
64,192,6179,1,0,0:0:0:0:
320,192,6387,1,0,0:0:0:0:
192,192,6457,1,0,0:0:0:0:
64,192,6526,1,0,0:0:0:0:
320,192,6596,1,0,0:0:0:0:
64,192,6665,1,0,0:0:0:0:
192,192,6735,1,0,0:0:0:0:
320,192,6804,1,0,0:0:0:0:
192,192,7221,128,0,13471:0:0:0:0:
320,192,12776,128,0,13471:0:0:0:0:
64,192,13471,1,0,0:0:0:0:
320,192,16804,128,0,23471:0:0:0:0:
64,192,23471,1,0,0:0:0:0:
64,192,23887,1,0,0:0:0:0:
320,192,24304,1,0,0:0:0:0:
64,192,24721,1,0,0:0:0:0:
192,192,24929,1,0,0:0:0:0:
64,192,25137,1,0,0:0:0:0:
320,192,25554,1,0,0:0:0:0:
320,192,25971,1,0,0:0:0:0:
64,192,26804,1,0,0:0:0:0:
64,192,27221,1,0,0:0:0:0:
320,192,27637,1,0,0:0:0:0:
64,192,28054,1,0,0:0:0:0:
192,192,28262,1,0,0:0:0:0:
64,192,28471,1,0,0:0:0:0:
320,192,28887,1,0,0:0:0:0:
320,192,29304,1,0,0:0:0:0:
192,192,29721,1,0,0:0:0:0:
64,192,30137,1,0,0:0:0:0:
64,192,30554,1,0,0:0:0:0:
320,192,30971,1,0,0:0:0:0:
64,192,31387,1,0,0:0:0:0:
192,192,31596,1,0,0:0:0:0:
64,192,31804,1,0,0:0:0:0:
320,192,32221,1,0,0:0:0:0:
320,192,32637,1,0,0:0:0:0:
192,192,33054,1,0,0:0:0:0:
320,192,33262,1,0,0:0:0:0:
64,192,33471,1,0,0:0:0:0:
64,192,33887,1,0,0:0:0:0:
320,192,34304,1,0,0:0:0:0:
64,192,34721,1,0,0:0:0:0:
192,192,34929,1,0,0:0:0:0:
64,192,35137,1,0,0:0:0:0:
320,192,35554,1,0,0:0:0:0:
320,192,35971,1,0,0:0:0:0:
192,192,36387,1,0,0:0:0:0:
320,192,36596,1,0,0:0:0:0:
64,192,36804,1,0,0:0:0:0:
192,192,36804,1,0,0:0:0:0:
64,192,37221,1,0,0:0:0:0:
320,192,37637,1,0,0:0:0:0:
64,192,38054,1,0,0:0:0:0:
192,192,38262,1,0,0:0:0:0:
64,192,38471,1,0,0:0:0:0:
320,192,38887,1,0,0:0:0:0:
320,192,39304,1,0,0:0:0:0:
64,192,39304,128,0,40137:0:0:0:0:
192,192,39721,1,0,0:0:0:0:
448,192,39929,1,0,0:0:0:0:
192,192,40137,1,0,0:0:0:0:
320,192,40137,1,0,0:0:0:0:
64,192,40554,1,0,0:0:0:0:
320,192,40971,1,0,0:0:0:0:
64,192,41387,1,0,0:0:0:0:
192,192,41596,1,0,0:0:0:0:
448,192,41804,1,0,0:0:0:0:
320,192,42221,1,0,0:0:0:0:
320,192,42637,1,0,0:0:0:0:
192,192,43054,1,0,0:0:0:0:
64,192,43262,1,0,0:0:0:0:
448,192,43471,1,0,0:0:0:0:
320,192,43471,1,0,0:0:0:0:
448,192,43887,1,0,0:0:0:0:
192,192,44304,1,0,0:0:0:0:
448,192,44721,1,0,0:0:0:0:
320,192,44929,1,0,0:0:0:0:
448,192,45137,1,0,0:0:0:0:
64,192,45137,1,0,0:0:0:0:
192,192,45554,1,0,0:0:0:0:
192,192,45971,1,0,0:0:0:0:
448,192,45971,128,0,46804:0:0:0:0:
320,192,46387,1,0,0:0:0:0:
64,192,46596,1,0,0:0:0:0:
192,192,46804,1,0,0:0:0:0:
320,192,46804,1,0,0:0:0:0:
448,192,47221,1,0,0:0:0:0:
192,192,47637,1,0,0:0:0:0:
448,192,48054,1,0,0:0:0:0:
64,192,48262,1,0,0:0:0:0:
448,192,48471,1,0,0:0:0:0:
320,192,48471,1,0,0:0:0:0:
192,192,48887,1,0,0:0:0:0:
192,192,49304,1,0,0:0:0:0:
320,192,49721,1,0,0:0:0:0:
64,192,49929,1,0,0:0:0:0:
448,192,50137,1,0,0:0:0:0:
192,192,50137,1,0,0:0:0:0:
448,192,50554,1,0,0:0:0:0:
64,192,50971,1,0,0:0:0:0:
320,192,51387,1,0,0:0:0:0:
192,192,51596,1,0,0:0:0:0:
320,192,51804,1,0,0:0:0:0:
448,192,51804,1,0,0:0:0:0:
192,192,52221,1,0,0:0:0:0:
448,192,52637,1,0,0:0:0:0:
64,192,52637,128,0,53471:0:0:0:0:
192,192,53054,1,0,0:0:0:0:
320,192,53262,1,0,0:0:0:0:
448,192,53471,1,0,0:0:0:0:
192,192,53471,1,0,0:0:0:0:
448,192,53887,1,0,0:0:0:0:
192,192,54304,1,0,0:0:0:0:
64,192,54304,1,0,0:0:0:0:
448,192,54721,1,0,0:0:0:0:
320,192,54929,1,0,0:0:0:0:
448,192,55137,1,0,0:0:0:0:
64,192,55137,1,0,0:0:0:0:
192,192,55554,1,0,0:0:0:0:
192,192,55971,1,0,0:0:0:0:
320,192,55971,1,0,0:0:0:0:
320,192,56387,1,0,0:0:0:0:
192,192,56596,1,0,0:0:0:0:
448,192,56804,1,0,0:0:0:0:
320,192,56804,1,0,0:0:0:0:
448,192,57221,1,0,0:0:0:0:
64,192,57637,1,0,0:0:0:0:
192,192,57637,1,0,0:0:0:0:
448,192,58054,1,0,0:0:0:0:
320,192,58262,1,0,0:0:0:0:
448,192,58471,1,0,0:0:0:0:
64,192,58471,1,0,0:0:0:0:
192,192,58887,1,0,0:0:0:0:
192,192,59304,1,0,0:0:0:0:
448,192,59304,128,0,60137:0:0:0:0:
320,192,59721,1,0,0:0:0:0:
64,192,59929,1,0,0:0:0:0:
320,192,60137,1,0,0:0:0:0:
192,192,60137,1,0,0:0:0:0:
448,192,60554,1,0,0:0:0:0:
192,192,60971,1,0,0:0:0:0:
320,192,60971,1,0,0:0:0:0:
448,192,61387,1,0,0:0:0:0:
320,192,61596,1,0,0:0:0:0:
448,192,61804,1,0,0:0:0:0:
64,192,61804,1,0,0:0:0:0:
192,192,62221,1,0,0:0:0:0:
192,192,62637,1,0,0:0:0:0:
320,192,62637,1,0,0:0:0:0:
320,192,63054,1,0,0:0:0:0:
64,192,63262,1,0,0:0:0:0:
448,192,63471,1,0,0:0:0:0:
192,192,63471,1,0,0:0:0:0:
448,192,63887,1,0,0:0:0:0:
64,192,64304,1,0,0:0:0:0:
320,192,64304,1,0,0:0:0:0:
448,192,64721,1,0,0:0:0:0:
320,192,64929,1,0,0:0:0:0:
448,192,65137,1,0,0:0:0:0:
64,192,65137,1,0,0:0:0:0:
64,192,65554,1,0,0:0:0:0:
320,192,65762,1,0,0:0:0:0:
448,192,65971,1,0,0:0:0:0:
192,192,65971,128,0,66804:0:0:0:0:
64,192,66179,1,0,0:0:0:0:
448,192,66387,1,0,0:0:0:0:
64,192,66596,1,0,0:0:0:0:
320,192,66804,1,0,0:0:0:0:
448,192,66804,1,0,0:0:0:0:
448,192,67221,1,0,0:0:0:0:
192,192,67637,1,0,0:0:0:0:
64,192,67637,1,0,0:0:0:0:
448,192,68054,1,0,0:0:0:0:
64,192,68262,1,0,0:0:0:0:
320,192,68471,1,0,0:0:0:0:
448,192,68471,1,0,0:0:0:0:
192,192,68887,1,0,0:0:0:0:
192,192,69304,1,0,0:0:0:0:
320,192,69304,1,0,0:0:0:0:
320,192,69721,1,0,0:0:0:0:
448,192,69929,1,0,0:0:0:0:
192,192,70137,1,0,0:0:0:0:
64,192,70137,1,0,0:0:0:0:
64,192,70554,1,0,0:0:0:0:
448,192,70971,1,0,0:0:0:0:
192,192,70971,1,0,0:0:0:0:
192,192,71387,1,0,0:0:0:0:
192,192,71596,1,0,0:0:0:0:
320,192,71804,1,0,0:0:0:0:
448,192,71804,1,0,0:0:0:0:
64,192,72221,1,0,0:0:0:0:
192,192,72637,1,0,0:0:0:0:
448,192,72637,128,0,73471:0:0:0:0:
64,192,72846,1,0,0:0:0:0:
320,192,73054,1,0,0:0:0:0:
192,192,73262,1,0,0:0:0:0:
320,192,73471,1,0,0:0:0:0:
64,192,73471,1,0,0:0:0:0:
192,192,73887,1,0,0:0:0:0:
192,192,74304,1,0,0:0:0:0:
320,192,74304,1,0,0:0:0:0:
64,192,74721,1,0,0:0:0:0:
64,192,74929,1,0,0:0:0:0:
448,192,75137,1,0,0:0:0:0:
320,192,75137,1,0,0:0:0:0:
64,192,75554,1,0,0:0:0:0:
320,192,75971,1,0,0:0:0:0:
192,192,75971,1,0,0:0:0:0:
64,192,76179,1,0,0:0:0:0:
320,192,76387,1,0,0:0:0:0:
192,192,76596,1,0,0:0:0:0:
64,192,76804,1,0,0:0:0:0:
448,192,76804,1,0,0:0:0:0:
320,192,77221,1,0,0:0:0:0:
192,192,77637,1,0,0:0:0:0:
320,192,77637,1,0,0:0:0:0:
192,192,77846,1,0,0:0:0:0:
64,192,78054,1,0,0:0:0:0:
64,192,78262,1,0,0:0:0:0:
320,192,78471,1,0,0:0:0:0:
448,192,78471,1,0,0:0:0:0:
192,192,78887,1,0,0:0:0:0:
448,192,79304,1,0,0:0:0:0:
64,192,79304,1,0,0:0:0:0:
320,192,79304,128,0,79929:0:0:0:0:
192,192,79721,128,0,80137:0:0:0:0:
448,192,79929,128,0,80137:0:0:0:0:
320,192,80137,1,0,0:0:0:0:
64,192,80137,1,0,0:0:0:0:
192,192,80554,1,0,0:0:0:0:
320,192,80554,1,0,0:0:0:0:
64,192,80762,1,0,0:0:0:0:
320,192,80971,1,0,0:0:0:0:
448,192,80971,1,0,0:0:0:0:
320,192,81179,1,0,0:0:0:0:
64,192,81387,1,0,0:0:0:0:
320,192,81596,1,0,0:0:0:0:
64,192,81804,1,0,0:0:0:0:
192,192,81804,1,0,0:0:0:0:
448,192,82012,1,0,0:0:0:0:
192,192,82221,1,0,0:0:0:0:
64,192,82221,1,0,0:0:0:0:
320,192,82429,1,0,0:0:0:0:
64,192,82637,1,0,0:0:0:0:
192,192,82637,1,0,0:0:0:0:
448,192,82637,1,0,0:0:0:0:
320,192,82846,1,0,0:0:0:0:
448,192,83054,1,0,0:0:0:0:
64,192,83054,1,0,0:0:0:0:
192,192,83262,1,0,0:0:0:0:
320,192,83471,1,0,0:0:0:0:
448,192,83471,1,0,0:0:0:0:
64,192,83679,1,0,0:0:0:0:
192,192,83887,1,0,0:0:0:0:
320,192,83887,1,0,0:0:0:0:
448,192,84096,1,0,0:0:0:0:
64,192,84304,1,0,0:0:0:0:
192,192,84304,1,0,0:0:0:0:
64,192,84512,1,0,0:0:0:0:
192,192,84721,1,0,0:0:0:0:
448,192,84721,1,0,0:0:0:0:
448,192,84929,1,0,0:0:0:0:
64,192,85137,1,0,0:0:0:0:
192,192,85137,1,0,0:0:0:0:
320,192,85346,1,0,0:0:0:0:
192,192,85554,1,0,0:0:0:0:
448,192,85554,1,0,0:0:0:0:
192,192,85762,1,0,0:0:0:0:
64,192,85971,1,0,0:0:0:0:
320,192,85971,1,0,0:0:0:0:
448,192,85971,128,0,86804:0:0:0:0:
192,192,86179,1,0,0:0:0:0:
320,192,86387,1,0,0:0:0:0:
192,192,86596,1,0,0:0:0:0:
64,192,86804,1,0,0:0:0:0:
192,192,86804,1,0,0:0:0:0:
320,192,87012,1,0,0:0:0:0:
320,192,87221,1,0,0:0:0:0:
448,192,87221,1,0,0:0:0:0:
64,192,87429,1,0,0:0:0:0:
448,192,87637,1,0,0:0:0:0:
192,192,87637,1,0,0:0:0:0:
192,192,87846,1,0,0:0:0:0:
64,192,88054,1,0,0:0:0:0:
448,192,88054,1,0,0:0:0:0:
320,192,88262,1,0,0:0:0:0:
64,192,88471,1,0,0:0:0:0:
192,192,88471,1,0,0:0:0:0:
192,192,88679,1,0,0:0:0:0:
448,192,88887,1,0,0:0:0:0:
320,192,88887,1,0,0:0:0:0:
320,192,89096,1,0,0:0:0:0:
64,192,89304,1,0,0:0:0:0:
192,192,89304,1,0,0:0:0:0:
448,192,89304,1,0,0:0:0:0:
64,192,89512,1,0,0:0:0:0:
320,192,89721,1,0,0:0:0:0:
192,192,89929,1,0,0:0:0:0:
448,192,90137,1,0,0:0:0:0:
320,192,90137,1,0,0:0:0:0:
64,192,90346,1,0,0:0:0:0:
192,192,90554,1,0,0:0:0:0:
448,192,90554,1,0,0:0:0:0:
192,192,90762,1,0,0:0:0:0:
448,192,90971,1,0,0:0:0:0:
64,192,90971,1,0,0:0:0:0:
64,192,91179,1,0,0:0:0:0:
320,192,91387,1,0,0:0:0:0:
448,192,91387,1,0,0:0:0:0:
192,192,91596,1,0,0:0:0:0:
448,192,91804,1,0,0:0:0:0:
64,192,91804,1,0,0:0:0:0:
192,192,92012,1,0,0:0:0:0:
320,192,92221,1,0,0:0:0:0:
192,192,92221,1,0,0:0:0:0:
320,192,92429,1,0,0:0:0:0:
448,192,92637,128,0,93471:0:0:0:0:
64,192,92637,1,0,0:0:0:0:
320,192,92637,1,0,0:0:0:0:
64,192,92846,1,0,0:0:0:0:
192,192,93054,1,0,0:0:0:0:
192,192,93262,1,0,0:0:0:0:
64,192,93471,1,0,0:0:0:0:
320,192,93471,1,0,0:0:0:0:
64,192,93679,1,0,0:0:0:0:
320,192,93887,1,0,0:0:0:0:
192,192,93887,1,0,0:0:0:0:
192,192,94096,1,0,0:0:0:0:
448,192,94304,1,0,0:0:0:0:
64,192,94304,1,0,0:0:0:0:
448,192,94512,1,0,0:0:0:0:
192,192,94721,1,0,0:0:0:0:
320,192,94929,1,0,0:0:0:0:
192,192,95137,1,0,0:0:0:0:
64,192,95137,1,0,0:0:0:0:
448,192,95346,1,0,0:0:0:0:
320,192,95554,1,0,0:0:0:0:
192,192,95554,1,0,0:0:0:0:
320,192,95762,1,0,0:0:0:0:
448,192,95971,1,0,0:0:0:0:
64,192,95971,1,0,0:0:0:0:
192,192,95971,1,0,0:0:0:0:
64,192,96179,1,0,0:0:0:0:
320,192,96387,1,0,0:0:0:0:
192,192,96596,1,0,0:0:0:0:
320,192,96804,1,0,0:0:0:0:
448,192,96804,1,0,0:0:0:0:
64,192,97012,1,0,0:0:0:0:
192,192,97221,1,0,0:0:0:0:
320,192,97221,1,0,0:0:0:0:
192,192,97429,1,0,0:0:0:0:
320,192,97637,1,0,0:0:0:0:
448,192,97637,1,0,0:0:0:0:
64,192,97846,1,0,0:0:0:0:
192,192,98054,1,0,0:0:0:0:
320,192,98054,1,0,0:0:0:0:
192,192,98262,1,0,0:0:0:0:
448,192,98471,1,0,0:0:0:0:
64,192,98471,1,0,0:0:0:0:
448,192,98679,1,0,0:0:0:0:
64,192,98887,1,0,0:0:0:0:
320,192,98887,1,0,0:0:0:0:
320,192,99096,1,0,0:0:0:0:
64,192,99304,1,0,0:0:0:0:
448,192,99304,1,0,0:0:0:0:
192,192,99304,128,0,100137:0:0:0:0:
64,192,99512,1,0,0:0:0:0:
320,192,99721,1,0,0:0:0:0:
448,192,99929,1,0,0:0:0:0:
320,192,100137,1,0,0:0:0:0:
64,192,100137,128,0,100554:0:0:0:0:
448,192,100137,1,0,0:0:0:0:
320,192,100554,128,0,100971:0:0:0:0:
448,192,100554,1,0,0:0:0:0:
448,192,100762,1,0,0:0:0:0:
64,192,100971,1,0,0:0:0:0:
192,192,100971,128,0,101387:0:0:0:0:
64,192,101179,1,0,0:0:0:0:
320,192,101387,1,0,0:0:0:0:
448,192,101596,1,0,0:0:0:0:
192,192,101804,1,0,0:0:0:0:
320,192,101804,128,0,102637:0:0:0:0:
64,192,102012,1,0,0:0:0:0:
192,192,102221,1,0,0:0:0:0:
448,192,102221,1,0,0:0:0:0:
448,192,102637,1,0,0:0:0:0:
192,192,102637,1,0,0:0:0:0:
64,192,102637,1,0,0:0:0:0:
192,192,102846,1,0,0:0:0:0:
64,192,103054,1,0,0:0:0:0:
320,192,103262,1,0,0:0:0:0:
192,192,103471,1,0,0:0:0:0:
64,192,103471,1,0,0:0:0:0:
64,192,103679,1,0,0:0:0:0:
320,192,103887,1,0,0:0:0:0:
192,192,103887,1,0,0:0:0:0:
320,192,104096,1,0,0:0:0:0:
64,192,104304,1,0,0:0:0:0:
448,192,104304,1,0,0:0:0:0:
64,192,104512,1,0,0:0:0:0:
320,192,104721,1,0,0:0:0:0:
448,192,104721,1,0,0:0:0:0:
448,192,104929,1,0,0:0:0:0:
192,192,105137,1,0,0:0:0:0:
64,192,105137,1,0,0:0:0:0:
192,192,105346,1,0,0:0:0:0:
320,192,105554,1,0,0:0:0:0:
320,192,105762,1,0,0:0:0:0:
64,192,105971,1,0,0:0:0:0:
192,192,105971,1,0,0:0:0:0:
448,192,105971,1,0,0:0:0:0:
64,192,106179,1,0,0:0:0:0:
320,192,106387,1,0,0:0:0:0:
448,192,106387,1,0,0:0:0:0:
192,192,106596,1,0,0:0:0:0:
448,192,106804,1,0,0:0:0:0:
64,192,106804,1,0,0:0:0:0:
448,192,107012,1,0,0:0:0:0:
320,192,107221,1,0,0:0:0:0:
64,192,107221,1,0,0:0:0:0:
320,192,107429,1,0,0:0:0:0:
448,192,107637,1,0,0:0:0:0:
64,192,107637,1,0,0:0:0:0:
192,192,107637,1,0,0:0:0:0:
448,192,107846,1,0,0:0:0:0:
192,192,108054,1,0,0:0:0:0:
64,192,108054,1,0,0:0:0:0:
320,192,108262,1,0,0:0:0:0:
448,192,108471,1,0,0:0:0:0:
64,192,108471,128,0,108887:0:0:0:0:
320,192,108679,1,0,0:0:0:0:
192,192,108887,1,0,0:0:0:0:
448,192,108887,128,0,109304:0:0:0:0:
192,192,109096,1,0,0:0:0:0:
64,192,109304,1,0,0:0:0:0:
320,192,109304,128,0,109512:0:0:0:0:
192,192,109512,128,0,109929:0:0:0:0:
320,192,109721,128,0,110137:0:0:0:0:
448,192,109721,1,0,0:0:0:0:
64,192,109929,128,0,110137:0:0:0:0:
192,192,110137,1,0,0:0:0:0:
448,192,110137,1,0,0:0:0:0:
64,192,110346,1,0,0:0:0:0:
64,192,110554,1,0,0:0:0:0:
192,192,110554,1,0,0:0:0:0:
448,192,110762,1,0,0:0:0:0:
320,192,110971,1,0,0:0:0:0:
448,192,110971,1,0,0:0:0:0:
192,192,111179,1,0,0:0:0:0:
320,192,111387,1,0,0:0:0:0:
64,192,111596,1,0,0:0:0:0:
320,192,111804,1,0,0:0:0:0:
448,192,111804,128,0,112221:0:0:0:0:
192,192,112012,1,0,0:0:0:0:
320,192,112221,128,0,112637:0:0:0:0:
64,192,112221,1,0,0:0:0:0:
192,192,112429,1,0,0:0:0:0:
448,192,112637,128,0,112846:0:0:0:0:
64,192,112637,1,0,0:0:0:0:
192,192,112637,1,0,0:0:0:0:
320,192,112846,128,0,113054:0:0:0:0:
448,192,113054,128,0,113471:0:0:0:0:
64,192,113054,1,0,0:0:0:0:
320,192,113262,128,0,113471:0:0:0:0:
64,192,113471,1,0,0:0:0:0:
192,192,113471,1,0,0:0:0:0:
320,192,113679,1,0,0:0:0:0:
192,192,113887,1,0,0:0:0:0:
448,192,113887,1,0,0:0:0:0:
192,192,114096,1,0,0:0:0:0:
448,192,114304,1,0,0:0:0:0:
320,192,114304,1,0,0:0:0:0:
64,192,114304,1,0,0:0:0:0:
64,192,114512,1,0,0:0:0:0:
448,192,114721,1,0,0:0:0:0:
320,192,114721,1,0,0:0:0:0:
192,192,114929,1,0,0:0:0:0:
448,192,115137,1,0,0:0:0:0:
64,192,115137,128,0,115554:0:0:0:0:
192,192,115346,1,0,0:0:0:0:
192,192,115554,1,0,0:0:0:0:
448,192,115554,128,0,115971:0:0:0:0:
64,192,115762,1,0,0:0:0:0:
64,192,115971,1,0,0:0:0:0:
192,192,115971,128,0,116387:0:0:0:0:
320,192,115971,1,0,0:0:0:0:
448,192,116179,128,0,116596:0:0:0:0:
64,192,116387,128,0,116804:0:0:0:0:
320,192,116387,1,0,0:0:0:0:
320,192,116596,128,0,116804:0:0:0:0:
448,192,116804,1,0,0:0:0:0:
192,192,116804,1,0,0:0:0:0:
448,192,117012,1,0,0:0:0:0:
320,192,117221,1,0,0:0:0:0:
192,192,117221,1,0,0:0:0:0:
64,192,117429,1,0,0:0:0:0:
64,192,117637,1,0,0:0:0:0:
192,192,117637,1,0,0:0:0:0:
320,192,117846,1,0,0:0:0:0:
192,192,118054,1,0,0:0:0:0:
448,192,118262,1,0,0:0:0:0:
192,192,118471,1,0,0:0:0:0:
64,192,118471,128,0,118887:0:0:0:0:
320,192,118679,1,0,0:0:0:0:
192,192,118887,128,0,119304:0:0:0:0:
448,192,118887,1,0,0:0:0:0:
320,192,119096,1,0,0:0:0:0:
64,192,119304,128,0,119512:0:0:0:0:
448,192,119304,1,0,0:0:0:0:
320,192,119304,1,0,0:0:0:0:
192,192,119512,128,0,119721:0:0:0:0:
448,192,119721,1,0,0:0:0:0:
64,192,119721,128,0,120137:0:0:0:0:
192,192,119929,128,0,120137:0:0:0:0:
320,192,120137,1,0,0:0:0:0:
448,192,120137,1,0,0:0:0:0:
192,192,120346,1,0,0:0:0:0:
320,192,120554,1,0,0:0:0:0:
64,192,120554,1,0,0:0:0:0:
320,192,120762,1,0,0:0:0:0:
448,192,120971,1,0,0:0:0:0:
64,192,120971,1,0,0:0:0:0:
192,192,120971,1,0,0:0:0:0:
448,192,121179,1,0,0:0:0:0:
192,192,121387,1,0,0:0:0:0:
64,192,121387,1,0,0:0:0:0:
320,192,121596,1,0,0:0:0:0:
64,192,121804,1,0,0:0:0:0:
448,192,121804,1,0,0:0:0:0:
320,192,122012,1,0,0:0:0:0:
320,192,122221,1,0,0:0:0:0:
192,192,122221,1,0,0:0:0:0:
192,192,122429,1,0,0:0:0:0:
320,192,122637,1,0,0:0:0:0:
64,192,122637,1,0,0:0:0:0:
448,192,122637,1,0,0:0:0:0:
192,192,122846,1,0,0:0:0:0:
320,192,123054,1,0,0:0:0:0:
64,192,123262,1,0,0:0:0:0:
192,192,123471,1,0,0:0:0:0:
448,192,123471,1,0,0:0:0:0:
64,192,123679,1,0,0:0:0:0:
192,192,123887,1,0,0:0:0:0:
64,192,123887,1,0,0:0:0:0:
448,192,124096,1,0,0:0:0:0:
320,192,124304,1,0,0:0:0:0:
448,192,124304,1,0,0:0:0:0:
192,192,124512,1,0,0:0:0:0:
320,192,124721,1,0,0:0:0:0:
64,192,124929,1,0,0:0:0:0:
192,192,125137,1,0,0:0:0:0:
448,192,125137,1,0,0:0:0:0:
448,192,125554,1,0,0:0:0:0:
320,192,125554,1,0,0:0:0:0:
192,192,125762,1,0,0:0:0:0:
192,192,125971,1,0,0:0:0:0:
64,192,125971,1,0,0:0:0:0:
320,192,125971,1,0,0:0:0:0:
320,192,126179,1,0,0:0:0:0:
64,192,126387,1,0,0:0:0:0:
448,192,126387,1,0,0:0:0:0:
192,192,126596,1,0,0:0:0:0:
64,192,126804,1,0,0:0:0:0:
320,192,126804,1,0,0:0:0:0:
448,192,126804,1,0,0:0:0:0:
192,192,127012,1,0,0:0:0:0:
64,192,127221,1,0,0:0:0:0:
448,192,127221,1,0,0:0:0:0:
320,192,127429,1,0,0:0:0:0:
192,192,127637,1,0,0:0:0:0:
64,192,127637,1,0,0:0:0:0:
448,192,127637,1,0,0:0:0:0:
320,192,127846,1,0,0:0:0:0:
64,192,128054,1,0,0:0:0:0:
192,192,128054,1,0,0:0:0:0:
320,192,128262,1,0,0:0:0:0:
448,192,128471,1,0,0:0:0:0:
64,192,128471,1,0,0:0:0:0:
192,192,128679,1,0,0:0:0:0:
448,192,128887,1,0,0:0:0:0:
320,192,128887,1,0,0:0:0:0:
192,192,129096,1,0,0:0:0:0:
448,192,129304,1,0,0:0:0:0:
64,192,129304,1,0,0:0:0:0:
320,192,129304,1,0,0:0:0:0:
320,192,129512,1,0,0:0:0:0:
192,192,129721,1,0,0:0:0:0:
64,192,129929,1,0,0:0:0:0:
448,192,130137,1,0,0:0:0:0:
320,192,130137,1,0,0:0:0:0:
192,192,130137,1,0,0:0:0:0:
64,192,130346,1,0,0:0:0:0:
64,192,130554,1,0,0:0:0:0:
192,192,130554,1,0,0:0:0:0:
448,192,130762,1,0,0:0:0:0:
448,192,130971,1,0,0:0:0:0:
320,192,130971,1,0,0:0:0:0:
192,192,131179,1,0,0:0:0:0:
320,192,131387,1,0,0:0:0:0:
192,192,131596,1,0,0:0:0:0:
448,192,131804,1,0,0:0:0:0:
64,192,131804,128,0,133471:0:0:0:0:
448,192,132012,1,0,0:0:0:0:
320,192,132221,1,0,0:0:0:0:
192,192,132221,1,0,0:0:0:0:
320,192,132429,1,0,0:0:0:0:
448,192,132637,1,0,0:0:0:0:
192,192,132637,1,0,0:0:0:0:
192,192,132846,1,0,0:0:0:0:
448,192,133054,1,0,0:0:0:0:
320,192,133262,1,0,0:0:0:0:
448,192,133471,128,0,136804:0:0:0:0:
192,192,133471,1,0,0:0:0:0:
320,192,133471,1,0,0:0:0:0:
64,192,136804,128,0,140137:0:0:0:0:
320,192,136804,1,0,0:0:0:0:
320,192,140137,128,0,143471:0:0:0:0:
448,192,140137,1,0,0:0:0:0:
192,192,143471,128,0,146804:0:0:0:0:
64,192,143471,1,0,0:0:0:0:
320,192,145137,128,0,146804:0:0:0:0:
448,192,145137,1,0,0:0:0:0:
64,192,146804,128,0,150137:0:0:0:0:
448,192,146804,1,0,0:0:0:0:
192,192,150137,1,0,0:0:0:0:
320,192,150137,128,0,153471:0:0:0:0:
448,192,153471,128,0,160137:0:0:0:0:
64,192,153471,1,0,0:0:0:0:
64,192,160137,1,0,0:0:0:0:
320,192,160137,1,0,0:0:0:0:
64,192,160554,1,0,0:0:0:0:
192,192,160971,1,0,0:0:0:0:
448,192,160971,1,0,0:0:0:0:
320,192,161387,1,0,0:0:0:0:
192,192,161596,1,0,0:0:0:0:
320,192,161804,1,0,0:0:0:0:
64,192,162221,1,0,0:0:0:0:
448,192,162637,1,0,0:0:0:0:
320,192,162637,1,0,0:0:0:0:
192,192,163054,1,0,0:0:0:0:
320,192,163471,1,0,0:0:0:0:
64,192,163887,1,0,0:0:0:0:
448,192,164304,1,0,0:0:0:0:
192,192,164304,1,0,0:0:0:0:
192,192,164721,1,0,0:0:0:0:
448,192,164929,1,0,0:0:0:0:
320,192,165137,1,0,0:0:0:0:
64,192,165137,1,0,0:0:0:0:
64,192,165554,128,0,165971:0:0:0:0:
448,192,165971,1,0,0:0:0:0:
320,192,165971,128,0,166387:0:0:0:0:
192,192,166387,128,0,166804:0:0:0:0:
64,192,166804,1,0,0:0:0:0:
448,192,166804,128,0,167221:0:0:0:0:
64,192,167221,128,0,167637:0:0:0:0:
448,192,167637,128,0,168054:0:0:0:0:
320,192,167637,1,0,0:0:0:0:
192,192,168054,128,0,168471:0:0:0:0:
320,192,168471,128,0,168887:0:0:0:0:
192,192,168887,128,0,169304:0:0:0:0:
448,192,169304,1,0,0:0:0:0:
64,192,169304,128,0,169721:0:0:0:0:
320,192,169721,128,0,170137:0:0:0:0:
192,192,170137,128,0,170554:0:0:0:0:
64,192,170346,1,0,0:0:0:0:
448,192,170554,128,0,170971:0:0:0:0:
64,192,170971,1,0,0:0:0:0:
320,192,170971,1,0,0:0:0:0:
192,192,171387,1,0,0:0:0:0:
320,192,171596,1,0,0:0:0:0:
192,192,171804,1,0,0:0:0:0:
64,192,171804,1,0,0:0:0:0:
448,192,172221,1,0,0:0:0:0:
192,192,172637,1,0,0:0:0:0:
320,192,172637,1,0,0:0:0:0:
64,192,173054,1,0,0:0:0:0:
448,192,173262,1,0,0:0:0:0:
192,192,173471,1,0,0:0:0:0:
64,192,173887,1,0,0:0:0:0:
320,192,174304,1,0,0:0:0:0:
448,192,174304,1,0,0:0:0:0:
64,192,174721,128,0,175137:0:0:0:0:
448,192,174929,1,0,0:0:0:0:
320,192,175137,128,0,175554:0:0:0:0:
64,192,175346,1,0,0:0:0:0:
192,192,175554,128,0,175971:0:0:0:0:
448,192,175971,128,0,176387:0:0:0:0:
64,192,175971,1,0,0:0:0:0:
192,192,176387,128,0,176804:0:0:0:0:
448,192,176596,1,0,0:0:0:0:
320,192,176804,128,0,177221:0:0:0:0:
64,192,177012,1,0,0:0:0:0:
64,192,177221,1,0,0:0:0:0:
192,192,177429,1,0,0:0:0:0:
320,192,177637,1,0,0:0:0:0:
448,192,177637,128,0,178054:0:0:0:0:
64,192,177846,1,0,0:0:0:0:
192,192,178054,128,0,178471:0:0:0:0:
320,192,178262,1,0,0:0:0:0:
64,192,178471,128,0,178887:0:0:0:0:
448,192,178471,1,0,0:0:0:0:
448,192,178887,1,0,0:0:0:0:
320,192,178887,128,0,179304:0:0:0:0:
448,192,179096,1,0,0:0:0:0:
64,192,179304,1,0,0:0:0:0:
192,192,179304,128,0,179721:0:0:0:0:
448,192,179721,1,0,0:0:0:0:
320,192,179929,1,0,0:0:0:0:
192,192,180137,128,0,180554:0:0:0:0:
64,192,180137,1,0,0:0:0:0:
448,192,180346,1,0,0:0:0:0:
320,192,180554,1,0,0:0:0:0:
448,192,180762,1,0,0:0:0:0:
64,192,180971,128,0,181387:0:0:0:0:
192,192,180971,1,0,0:0:0:0:
192,192,181179,1,0,0:0:0:0:
320,192,181387,128,0,181804:0:0:0:0:
448,192,181596,1,0,0:0:0:0:
192,192,181804,1,0,0:0:0:0:
320,192,182221,1,0,0:0:0:0:
64,192,182429,1,0,0:0:0:0:
192,192,182637,128,0,183054:0:0:0:0:
448,192,182637,1,0,0:0:0:0:
64,192,182846,1,0,0:0:0:0:
320,192,183054,128,0,183471:0:0:0:0:
448,192,183262,1,0,0:0:0:0:
64,192,183471,128,0,183887:0:0:0:0:
320,192,183887,128,0,184304:0:0:0:0:
448,192,184096,1,0,0:0:0:0:
64,192,184304,1,0,0:0:0:0:
192,192,184304,128,0,184721:0:0:0:0:
448,192,184512,1,0,0:0:0:0:
320,192,184721,1,0,0:0:0:0:
448,192,184929,1,0,0:0:0:0:
192,192,185137,128,0,185554:0:0:0:0:
64,192,185137,1,0,0:0:0:0:
320,192,185346,1,0,0:0:0:0:
448,192,185554,1,0,0:0:0:0:
320,192,185762,1,0,0:0:0:0:
192,192,185971,1,0,0:0:0:0:
64,192,185971,128,0,186387:0:0:0:0:
448,192,186179,1,0,0:0:0:0:
192,192,186387,1,0,0:0:0:0:
320,192,186596,1,0,0:0:0:0:
192,192,186804,1,0,0:0:0:0:
448,192,186804,1,0,0:0:0:0:
64,192,186804,1,0,0:0:0:0:
320,192,187012,1,0,0:0:0:0:
192,192,187117,1,0,0:0:0:0:
64,192,187221,1,0,0:0:0:0:
448,192,187221,1,0,0:0:0:0:
192,192,187429,1,0,0:0:0:0:
320,192,187533,1,0,0:0:0:0:
64,192,187637,1,0,0:0:0:0:
448,192,187637,1,0,0:0:0:0:
64,192,187846,1,0,0:0:0:0:
320,192,188054,1,0,0:0:0:0:
192,192,188054,1,0,0:0:0:0:
64,192,188262,1,0,0:0:0:0:
448,192,188471,1,0,0:0:0:0:
320,192,188471,1,0,0:0:0:0:
192,192,188679,1,0,0:0:0:0:
448,192,188783,1,0,0:0:0:0:
320,192,188887,1,0,0:0:0:0:
64,192,188887,1,0,0:0:0:0:
192,192,189096,1,0,0:0:0:0:
320,192,189200,1,0,0:0:0:0:
64,192,189304,1,0,0:0:0:0:
448,192,189304,1,0,0:0:0:0:
320,192,189512,1,0,0:0:0:0:
64,192,189721,128,0,189929:0:0:0:0:
448,192,189721,1,0,0:0:0:0:
192,192,189929,128,0,190137:0:0:0:0:
448,192,190137,1,0,0:0:0:0:
320,192,190137,128,0,190346:0:0:0:0:
192,192,190346,1,0,0:0:0:0:
64,192,190450,1,0,0:0:0:0:
320,192,190554,1,0,0:0:0:0:
448,192,190554,1,0,0:0:0:0:
192,192,190762,1,0,0:0:0:0:
320,192,190867,1,0,0:0:0:0:
64,192,190971,1,0,0:0:0:0:
448,192,190971,128,0,191387:0:0:0:0:
192,192,191179,1,0,0:0:0:0:
320,192,191387,1,0,0:0:0:0:
64,192,191387,1,0,0:0:0:0:
320,192,191596,1,0,0:0:0:0:
64,192,191804,1,0,0:0:0:0:
192,192,191804,1,0,0:0:0:0:
64,192,192012,1,0,0:0:0:0:
448,192,192117,1,0,0:0:0:0:
192,192,192221,1,0,0:0:0:0:
320,192,192221,1,0,0:0:0:0:
448,192,192429,1,0,0:0:0:0:
64,192,192637,128,0,193471:0:0:0:0:
192,192,192637,1,0,0:0:0:0:
320,192,192846,1,0,0:0:0:0:
448,192,193054,1,0,0:0:0:0:
192,192,193054,1,0,0:0:0:0:
192,192,193262,1,0,0:0:0:0:
448,192,193471,128,0,195971:0:0:0:0:
320,192,193471,1,0,0:0:0:0:
192,192,193679,1,0,0:0:0:0:
64,192,193783,1,0,0:0:0:0:
320,192,193887,1,0,0:0:0:0:
192,192,194096,1,0,0:0:0:0:
64,192,194304,1,0,0:0:0:0:
320,192,194304,128,0,194721:0:0:0:0:
192,192,194512,1,0,0:0:0:0:
192,192,194721,1,0,0:0:0:0:
64,192,194929,1,0,0:0:0:0:
192,192,195137,1,0,0:0:0:0:
64,192,195346,1,0,0:0:0:0:
320,192,195450,1,0,0:0:0:0:
192,192,195554,1,0,0:0:0:0:
320,192,195762,1,0,0:0:0:0:
64,192,195971,128,0,196804:0:0:0:0:
192,192,195971,128,0,196387:0:0:0:0:
320,192,196179,1,0,0:0:0:0:
448,192,196387,128,0,196804:0:0:0:0:
320,192,196596,128,0,196804:0:0:0:0:
192,192,196804,1,0,0:0:0:0:
320,192,197012,1,0,0:0:0:0:
192,192,197117,1,0,0:0:0:0:
320,192,197221,1,0,0:0:0:0:
64,192,197429,1,0,0:0:0:0:
192,192,197533,1,0,0:0:0:0:
448,192,197637,1,0,0:0:0:0:
320,192,197637,128,0,198054:0:0:0:0:
64,192,197846,1,0,0:0:0:0:
192,192,198054,1,0,0:0:0:0:
448,192,198054,1,0,0:0:0:0:
192,192,198262,1,0,0:0:0:0:
64,192,198471,1,0,0:0:0:0:
320,192,198471,128,0,198887:0:0:0:0:
64,192,198679,1,0,0:0:0:0:
192,192,198887,1,0,0:0:0:0:
448,192,198887,128,0,199304:0:0:0:0:
192,192,199096,1,0,0:0:0:0:
320,192,199304,1,0,0:0:0:0:
64,192,199304,128,0,199721:0:0:0:0:
448,192,199512,1,0,0:0:0:0:
192,192,199721,1,0,0:0:0:0:
320,192,199721,128,0,200137:0:0:0:0:
192,192,199929,1,0,0:0:0:0:
64,192,200137,1,0,0:0:0:0:
448,192,200137,1,0,0:0:0:0:
192,192,200346,1,0,0:0:0:0:
320,192,200450,1,0,0:0:0:0:
64,192,200554,1,0,0:0:0:0:
192,192,200554,1,0,0:0:0:0:
320,192,200762,1,0,0:0:0:0:
192,192,200867,1,0,0:0:0:0:
64,192,200971,1,0,0:0:0:0:
448,192,200971,128,0,201179:0:0:0:0:
320,192,201179,128,0,201387:0:0:0:0:
64,192,201387,1,0,0:0:0:0:
192,192,201387,128,0,201596:0:0:0:0:
320,192,201596,1,0,0:0:0:0:
64,192,201804,1,0,0:0:0:0:
448,192,201804,1,0,0:0:0:0:
448,192,202012,1,0,0:0:0:0:
64,192,202117,1,0,0:0:0:0:
192,192,202221,1,0,0:0:0:0:
448,192,202429,1,0,0:0:0:0:
320,192,202533,1,0,0:0:0:0:
64,192,202637,1,0,0:0:0:0:
192,192,202637,128,0,202846:0:0:0:0:
448,192,202846,128,0,203054:0:0:0:0:
320,192,203054,128,0,203471:0:0:0:0:
64,192,203054,128,0,203262:0:0:0:0:
192,192,203262,128,0,203471:0:0:0:0:
64,192,203471,1,0,0:0:0:0:
448,192,203471,1,0,0:0:0:0:
192,192,203679,1,0,0:0:0:0:
320,192,203783,1,0,0:0:0:0:
192,192,203887,1,0,0:0:0:0:
320,192,204096,1,0,0:0:0:0:
64,192,204200,1,0,0:0:0:0:
320,192,204304,1,0,0:0:0:0:
192,192,204304,1,0,0:0:0:0:
64,192,204512,1,0,0:0:0:0:
192,192,204721,1,0,0:0:0:0:
448,192,204721,1,0,0:0:0:0:
192,192,204929,1,0,0:0:0:0:
448,192,205137,1,0,0:0:0:0:
64,192,205137,1,0,0:0:0:0:
320,192,205137,128,0,205971:0:0:0:0:
64,192,205346,1,0,0:0:0:0:
448,192,205450,1,0,0:0:0:0:
192,192,205554,1,0,0:0:0:0:
192,192,205762,1,0,0:0:0:0:
448,192,205971,128,0,206804:0:0:0:0:
64,192,205971,1,0,0:0:0:0:
192,192,206179,1,0,0:0:0:0:
64,192,206387,1,0,0:0:0:0:
320,192,206387,1,0,0:0:0:0:
320,192,206596,1,0,0:0:0:0:
192,192,206804,1,0,0:0:0:0:
64,192,206804,128,0,209304:0:0:0:0:
320,192,207012,1,0,0:0:0:0:
448,192,207117,1,0,0:0:0:0:
192,192,207221,1,0,0:0:0:0:
320,192,207429,1,0,0:0:0:0:
320,192,207637,128,0,208054:0:0:0:0:
448,192,207637,1,0,0:0:0:0:
192,192,207846,1,0,0:0:0:0:
448,192,208054,1,0,0:0:0:0:
448,192,208262,1,0,0:0:0:0:
192,192,208471,1,0,0:0:0:0:
320,192,208679,1,0,0:0:0:0:
192,192,208783,1,0,0:0:0:0:
448,192,208887,1,0,0:0:0:0:
192,192,209096,1,0,0:0:0:0:
320,192,209200,1,0,0:0:0:0:
448,192,209304,128,0,210137:0:0:0:0:
192,192,209304,1,0,0:0:0:0:
320,192,209512,1,0,0:0:0:0:
64,192,209721,1,0,0:0:0:0:
192,192,209929,1,0,0:0:0:0:
320,192,210137,1,0,0:0:0:0:
64,192,210137,1,0,0:0:0:0:
192,192,210346,1,0,0:0:0:0:
320,192,210450,1,0,0:0:0:0:
448,192,210554,1,0,0:0:0:0:
192,192,210762,1,0,0:0:0:0:
64,192,210867,1,0,0:0:0:0:
448,192,210971,128,0,211387:0:0:0:0:
320,192,210971,1,0,0:0:0:0:
64,192,211179,1,0,0:0:0:0:
192,192,211387,128,0,211804:0:0:0:0:
64,192,211596,1,0,0:0:0:0:
320,192,211804,128,0,212221:0:0:0:0:
448,192,211804,1,0,0:0:0:0:
64,192,212012,1,0,0:0:0:0:
192,192,212117,1,0,0:0:0:0:
64,192,212221,128,0,212637:0:0:0:0:
448,192,212221,1,0,0:0:0:0:
320,192,212429,1,0,0:0:0:0:
192,192,212637,128,0,213054:0:0:0:0:
448,192,212637,128,0,213471:0:0:0:0:
64,192,212846,1,0,0:0:0:0:
320,192,213054,1,0,0:0:0:0:
64,192,213262,1,0,0:0:0:0:
192,192,213471,1,0,0:0:0:0:
320,192,213471,1,0,0:0:0:0:
64,192,213471,1,0,0:0:0:0:
192,192,213679,1,0,0:0:0:0:
320,192,213783,1,0,0:0:0:0:
448,192,213887,1,0,0:0:0:0:
64,192,213887,1,0,0:0:0:0:
320,192,214096,1,0,0:0:0:0:
192,192,214200,1,0,0:0:0:0:
64,192,214304,1,0,0:0:0:0:
448,192,214304,1,0,0:0:0:0:
320,192,214304,1,0,0:0:0:0:
448,192,214512,1,0,0:0:0:0:
320,192,214512,1,0,0:0:0:0:
192,192,214721,1,0,0:0:0:0:
448,192,214929,1,0,0:0:0:0:
64,192,215137,1,0,0:0:0:0:
192,192,215137,1,0,0:0:0:0:
192,192,215346,1,0,0:0:0:0:
64,192,215450,1,0,0:0:0:0:
448,192,215554,1,0,0:0:0:0:
320,192,215554,1,0,0:0:0:0:
192,192,215762,1,0,0:0:0:0:
320,192,215867,1,0,0:0:0:0:
448,192,215971,1,0,0:0:0:0:
64,192,215971,1,0,0:0:0:0:
192,192,215971,1,0,0:0:0:0:
64,192,216179,1,0,0:0:0:0:
192,192,216387,1,0,0:0:0:0:
448,192,216387,128,0,216804:0:0:0:0:
320,192,216596,128,0,216804:0:0:0:0:
64,192,216804,1,0,0:0:0:0:
192,192,216804,1,0,0:0:0:0:
192,192,217012,1,0,0:0:0:0:
320,192,217117,1,0,0:0:0:0:
192,192,217221,1,0,0:0:0:0:
64,192,217221,1,0,0:0:0:0:
320,192,217429,1,0,0:0:0:0:
192,192,217533,1,0,0:0:0:0:
64,192,217637,1,0,0:0:0:0:
448,192,217637,1,0,0:0:0:0:
320,192,217637,1,0,0:0:0:0:
192,192,217846,128,0,218054:0:0:0:0:
448,192,218054,1,0,0:0:0:0:
320,192,218054,128,0,218262:0:0:0:0:
64,192,218262,128,0,218471:0:0:0:0:
320,192,218471,1,0,0:0:0:0:
448,192,218471,128,0,218679:0:0:0:0:
192,192,218679,128,0,218887:0:0:0:0:
64,192,218783,1,0,0:0:0:0:
448,192,218887,1,0,0:0:0:0:
320,192,218887,128,0,219096:0:0:0:0:
64,192,219096,1,0,0:0:0:0:
192,192,219200,1,0,0:0:0:0:
320,192,219304,1,0,0:0:0:0:
448,192,219304,128,0,220137:0:0:0:0:
64,192,219304,1,0,0:0:0:0:
192,192,219512,1,0,0:0:0:0:
64,192,219721,1,0,0:0:0:0:
320,192,219721,1,0,0:0:0:0:
320,192,219929,1,0,0:0:0:0:
192,192,220137,1,0,0:0:0:0:
64,192,220137,128,0,222637:0:0:0:0:
320,192,220346,1,0,0:0:0:0:
448,192,220450,1,0,0:0:0:0:
192,192,220554,1,0,0:0:0:0:
320,192,220762,1,0,0:0:0:0:
192,192,220867,1,0,0:0:0:0:
448,192,220971,1,0,0:0:0:0:
320,192,220971,1,0,0:0:0:0:
448,192,221179,1,0,0:0:0:0:
320,192,221179,1,0,0:0:0:0:
192,192,221387,1,0,0:0:0:0:
448,192,221596,1,0,0:0:0:0:
192,192,221804,1,0,0:0:0:0:
320,192,222012,1,0,0:0:0:0:
192,192,222117,1,0,0:0:0:0:
448,192,222221,1,0,0:0:0:0:
320,192,222221,1,0,0:0:0:0:
192,192,222325,1,0,0:0:0:0:
448,192,222429,1,0,0:0:0:0:
192,192,222533,1,0,0:0:0:0:
320,192,222637,1,0,0:0:0:0:
448,192,222637,128,0,223471:0:0:0:0:
320,192,222846,1,0,0:0:0:0:
64,192,223054,1,0,0:0:0:0:
192,192,223262,1,0,0:0:0:0:
64,192,223471,1,0,0:0:0:0:
320,192,223471,1,0,0:0:0:0:
192,192,223679,1,0,0:0:0:0:
320,192,223783,1,0,0:0:0:0:
192,192,223887,1,0,0:0:0:0:
64,192,223887,1,0,0:0:0:0:
448,192,224096,1,0,0:0:0:0:
320,192,224200,1,0,0:0:0:0:
64,192,224304,1,0,0:0:0:0:
192,192,224304,1,0,0:0:0:0:
448,192,224512,1,0,0:0:0:0:
64,192,224721,1,0,0:0:0:0:
320,192,224721,1,0,0:0:0:0:
320,192,224929,1,0,0:0:0:0:
192,192,225137,1,0,0:0:0:0:
64,192,225137,1,0,0:0:0:0:
448,192,225346,1,0,0:0:0:0:
320,192,225450,1,0,0:0:0:0:
64,192,225554,1,0,0:0:0:0:
192,192,225554,1,0,0:0:0:0:
320,192,225658,1,0,0:0:0:0:
192,192,225762,1,0,0:0:0:0:
64,192,225762,1,0,0:0:0:0:
320,192,225867,1,0,0:0:0:0:
448,192,225971,1,0,0:0:0:0:
64,192,225971,1,0,0:0:0:0:
192,192,225971,1,0,0:0:0:0:
64,192,226179,1,0,0:0:0:0:
192,192,226387,1,0,0:0:0:0:
320,192,226387,1,0,0:0:0:0:
192,192,226596,1,0,0:0:0:0:
192,192,226804,1,0,0:0:0:0:
448,192,226804,1,0,0:0:0:0:
64,192,226804,1,0,0:0:0:0:
320,192,227012,1,0,0:0:0:0:
192,192,227117,1,0,0:0:0:0:
320,192,227221,1,0,0:0:0:0:
448,192,227221,1,0,0:0:0:0:
192,192,227429,1,0,0:0:0:0:
320,192,227533,1,0,0:0:0:0:
192,192,227637,1,0,0:0:0:0:
64,192,227637,1,0,0:0:0:0:
448,192,227637,1,0,0:0:0:0:
448,192,227846,1,0,0:0:0:0:
64,192,227846,1,0,0:0:0:0:
320,192,228054,1,0,0:0:0:0:
320,192,228262,1,0,0:0:0:0:
448,192,228471,1,0,0:0:0:0:
64,192,228471,1,0,0:0:0:0:
192,192,228471,1,0,0:0:0:0:
64,192,228679,1,0,0:0:0:0:
192,192,228783,1,0,0:0:0:0:
320,192,228887,1,0,0:0:0:0:
448,192,228887,1,0,0:0:0:0:
192,192,229096,1,0,0:0:0:0:
64,192,229200,1,0,0:0:0:0:
448,192,229304,1,0,0:0:0:0:
320,192,229304,1,0,0:0:0:0:
192,192,229304,1,0,0:0:0:0:
64,192,229512,1,0,0:0:0:0:
448,192,229721,1,0,0:0:0:0:
192,192,229721,128,0,230137:0:0:0:0:
320,192,229929,128,0,230137:0:0:0:0:
448,192,230137,1,0,0:0:0:0:
64,192,230137,1,0,0:0:0:0:
448,192,230346,1,0,0:0:0:0:
320,192,230450,1,0,0:0:0:0:
192,192,230554,1,0,0:0:0:0:
64,192,230554,1,0,0:0:0:0:
320,192,230762,1,0,0:0:0:0:
64,192,230867,1,0,0:0:0:0:
448,192,230971,1,0,0:0:0:0:
192,192,230971,1,0,0:0:0:0:
320,192,230971,1,0,0:0:0:0:
448,192,231179,1,0,0:0:0:0:
64,192,231387,1,0,0:0:0:0:
192,192,231387,128,0,231596:0:0:0:0:
320,192,231596,128,0,231804:0:0:0:0:
448,192,231804,1,0,0:0:0:0:
64,192,231804,128,0,232012:0:0:0:0:
448,192,232012,128,0,232221:0:0:0:0:
320,192,232117,1,0,0:0:0:0:
192,192,232221,128,0,232429:0:0:0:0:
320,192,232429,1,0,0:0:0:0:
192,192,232533,1,0,0:0:0:0:
64,192,232637,128,0,233471:0:0:0:0:
448,192,232637,1,0,0:0:0:0:
320,192,232637,1,0,0:0:0:0:
320,192,232846,1,0,0:0:0:0:
448,192,233054,1,0,0:0:0:0:
192,192,233054,1,0,0:0:0:0:
192,192,233262,1,0,0:0:0:0:
448,192,233471,128,0,235971:0:0:0:0:
320,192,233471,1,0,0:0:0:0:
192,192,233679,1,0,0:0:0:0:
64,192,233783,1,0,0:0:0:0:
320,192,233887,1,0,0:0:0:0:
192,192,234096,1,0,0:0:0:0:
320,192,234200,1,0,0:0:0:0:
192,192,234304,1,0,0:0:0:0:
64,192,234304,128,0,234721:0:0:0:0:
320,192,234512,1,0,0:0:0:0:
320,192,234721,1,0,0:0:0:0:
64,192,234929,1,0,0:0:0:0:
320,192,235137,1,0,0:0:0:0:
192,192,235346,1,0,0:0:0:0:
320,192,235450,1,0,0:0:0:0:
64,192,235554,1,0,0:0:0:0:
192,192,235554,1,0,0:0:0:0:
320,192,235762,1,0,0:0:0:0:
192,192,235867,1,0,0:0:0:0:
64,192,235971,128,0,236804:0:0:0:0:
320,192,235971,1,0,0:0:0:0:
192,192,236179,1,0,0:0:0:0:
448,192,236387,128,0,236596:0:0:0:0:
320,192,236596,128,0,236804:0:0:0:0:
192,192,236804,1,0,0:0:0:0:
448,192,236804,1,0,0:0:0:0:
320,192,237012,1,0,0:0:0:0:
192,192,237117,1,0,0:0:0:0:
320,192,237221,1,0,0:0:0:0:
448,192,237221,1,0,0:0:0:0:
64,192,237429,1,0,0:0:0:0:
192,192,237533,1,0,0:0:0:0:
320,192,237637,1,0,0:0:0:0:
448,192,237637,1,0,0:0:0:0:
64,192,237846,1,0,0:0:0:0:
448,192,238054,1,0,0:0:0:0:
192,192,238054,1,0,0:0:0:0:
192,192,238262,1,0,0:0:0:0:
320,192,238471,1,0,0:0:0:0:
448,192,238471,1,0,0:0:0:0:
64,192,238679,1,0,0:0:0:0:
192,192,238783,1,0,0:0:0:0:
320,192,238887,1,0,0:0:0:0:
448,192,238887,1,0,0:0:0:0:
192,192,238992,1,0,0:0:0:0:
320,192,239096,1,0,0:0:0:0:
448,192,239096,1,0,0:0:0:0:
192,192,239200,1,0,0:0:0:0:
320,192,239304,1,0,0:0:0:0:
64,192,239304,1,0,0:0:0:0:
448,192,239304,1,0,0:0:0:0:
192,192,239512,1,0,0:0:0:0:
448,192,239721,1,0,0:0:0:0:
64,192,239721,1,0,0:0:0:0:
192,192,239825,1,0,0:0:0:0:
320,192,239929,1,0,0:0:0:0:
448,192,239929,1,0,0:0:0:0:
192,192,240137,1,0,0:0:0:0:
448,192,240137,1,0,0:0:0:0:
64,192,240137,1,0,0:0:0:0:
320,192,240346,128,0,240554:0:0:0:0:
192,192,240450,1,0,0:0:0:0:
64,192,240554,1,0,0:0:0:0:
448,192,240554,128,0,240762:0:0:0:0:
192,192,240762,128,0,240971:0:0:0:0:
448,192,240971,1,0,0:0:0:0:
320,192,240971,128,0,241179:0:0:0:0:
64,192,240971,1,0,0:0:0:0:
64,192,241179,1,0,0:0:0:0:
192,192,241179,1,0,0:0:0:0:
448,192,241387,1,0,0:0:0:0:
320,192,241596,1,0,0:0:0:0:
448,192,241804,1,0,0:0:0:0:
64,192,241804,128,0,242012:0:0:0:0:
192,192,242012,128,0,242221:0:0:0:0:
64,192,242221,1,0,0:0:0:0:
320,192,242221,128,0,242429:0:0:0:0:
192,192,242325,1,0,0:0:0:0:
448,192,242429,128,0,242637:0:0:0:0:
64,192,242429,1,0,0:0:0:0:
64,192,242637,1,0,0:0:0:0:
320,192,242637,1,0,0:0:0:0:
192,192,242637,128,0,242846:0:0:0:0:
320,192,242846,128,0,243054:0:0:0:0:
64,192,243054,128,0,243471:0:0:0:0:
448,192,243054,128,0,243262:0:0:0:0:
192,192,243262,128,0,243471:0:0:0:0:
448,192,243471,1,0,0:0:0:0:
320,192,243471,1,0,0:0:0:0:
192,192,243679,1,0,0:0:0:0:
64,192,243783,1,0,0:0:0:0:
448,192,243887,1,0,0:0:0:0:
320,192,243887,1,0,0:0:0:0:
192,192,244096,1,0,0:0:0:0:
448,192,244200,1,0,0:0:0:0:
192,192,244304,1,0,0:0:0:0:
64,192,244304,1,0,0:0:0:0:
320,192,244304,1,0,0:0:0:0:
320,192,244512,1,0,0:0:0:0:
448,192,244721,1,0,0:0:0:0:
64,192,244721,1,0,0:0:0:0:
320,192,244929,1,0,0:0:0:0:
192,192,245137,1,0,0:0:0:0:
64,192,245137,1,0,0:0:0:0:
64,192,245346,1,0,0:0:0:0:
448,192,245450,1,0,0:0:0:0:
320,192,245554,1,0,0:0:0:0:
64,192,245554,1,0,0:0:0:0:
192,192,245658,1,0,0:0:0:0:
448,192,245762,1,0,0:0:0:0:
320,192,245762,1,0,0:0:0:0:
192,192,245867,1,0,0:0:0:0:
320,192,245971,1,0,0:0:0:0:
448,192,245971,1,0,0:0:0:0:
64,192,245971,128,0,246804:0:0:0:0:
320,192,246179,1,0,0:0:0:0:
192,192,246387,1,0,0:0:0:0:
448,192,246387,1,0,0:0:0:0:
192,192,246596,1,0,0:0:0:0:
320,192,246804,1,0,0:0:0:0:
448,192,246804,128,0,249304:0:0:0:0:
192,192,247012,1,0,0:0:0:0:
64,192,247117,1,0,0:0:0:0:
320,192,247221,1,0,0:0:0:0:
192,192,247429,1,0,0:0:0:0:
320,192,247533,1,0,0:0:0:0:
192,192,247637,1,0,0:0:0:0:
64,192,247637,1,0,0:0:0:0:
64,192,247846,1,0,0:0:0:0:
192,192,247846,1,0,0:0:0:0:
320,192,248054,1,0,0:0:0:0:
64,192,248262,1,0,0:0:0:0:
192,192,248471,128,0,248679:0:0:0:0:
320,192,248679,128,0,248887:0:0:0:0:
64,192,248887,128,0,249096:0:0:0:0:
192,192,248887,1,0,0:0:0:0:
320,192,248992,1,0,0:0:0:0:
192,192,249096,128,0,249304:0:0:0:0:
64,192,249304,128,0,250137:0:0:0:0:
320,192,249304,128,0,249512:0:0:0:0:
448,192,249512,128,0,249721:0:0:0:0:
192,192,249721,128,0,249929:0:0:0:0:
320,192,249929,128,0,250137:0:0:0:0:
192,192,250137,1,0,0:0:0:0:
448,192,250137,1,0,0:0:0:0:
320,192,250346,1,0,0:0:0:0:
192,192,250450,1,0,0:0:0:0:
320,192,250554,1,0,0:0:0:0:
448,192,250762,1,0,0:0:0:0:
320,192,250867,1,0,0:0:0:0:
64,192,250971,1,0,0:0:0:0:
192,192,250971,1,0,0:0:0:0:
448,192,250971,1,0,0:0:0:0:
64,192,251179,1,0,0:0:0:0:
192,192,251387,1,0,0:0:0:0:
448,192,251387,128,0,252637:0:0:0:0:
192,192,251596,1,0,0:0:0:0:
320,192,251804,1,0,0:0:0:0:
64,192,251804,1,0,0:0:0:0:
64,192,252012,1,0,0:0:0:0:
192,192,252117,1,0,0:0:0:0:
320,192,252221,1,0,0:0:0:0:
64,192,252325,1,0,0:0:0:0:
192,192,252429,1,0,0:0:0:0:
320,192,252429,1,0,0:0:0:0:
320,192,252637,1,0,0:0:0:0:
192,192,252637,1,0,0:0:0:0:
64,192,252637,128,0,253054:0:0:0:0:
448,192,252846,1,0,0:0:0:0:
320,192,253054,1,0,0:0:0:0:
192,192,253054,128,0,253471:0:0:0:0:
320,192,253262,1,0,0:0:0:0:
64,192,253471,1,0,0:0:0:0:
448,192,253471,1,0,0:0:0:0:
320,192,253471,1,0,0:0:0:0:
192,192,253679,1,0,0:0:0:0:
320,192,253783,1,0,0:0:0:0:
64,192,253887,1,0,0:0:0:0:
192,192,253887,1,0,0:0:0:0:
320,192,254096,1,0,0:0:0:0:
192,192,254200,1,0,0:0:0:0:
64,192,254304,1,0,0:0:0:0:
320,192,254304,1,0,0:0:0:0:
448,192,254304,128,0,254512:0:0:0:0:
192,192,254512,128,0,254721:0:0:0:0:
320,192,254721,128,0,254929:0:0:0:0:
448,192,254721,1,0,0:0:0:0:
64,192,254929,1,0,0:0:0:0:
64,192,255137,1,0,0:0:0:0:
448,192,255137,1,0,0:0:0:0:
448,192,255346,1,0,0:0:0:0:
320,192,255450,1,0,0:0:0:0:
192,192,255554,1,0,0:0:0:0:
64,192,255554,1,0,0:0:0:0:
320,192,255762,1,0,0:0:0:0:
448,192,255867,1,0,0:0:0:0:
320,192,255971,1,0,0:0:0:0:
64,192,255971,1,0,0:0:0:0:
192,192,255971,128,0,256179:0:0:0:0:
448,192,256179,128,0,256387:0:0:0:0:
320,192,256387,128,0,256804:0:0:0:0:
64,192,256387,128,0,256596:0:0:0:0:
192,192,256596,128,0,256804:0:0:0:0:
64,192,256804,1,0,0:0:0:0:
448,192,256804,1,0,0:0:0:0:
64,192,257012,1,0,0:0:0:0:
192,192,257117,1,0,0:0:0:0:
320,192,257221,1,0,0:0:0:0:
192,192,257429,1,0,0:0:0:0:
448,192,257533,1,0,0:0:0:0:
320,192,257637,1,0,0:0:0:0:
192,192,257637,1,0,0:0:0:0:
64,192,257637,128,0,257846:0:0:0:0:
448,192,257846,128,0,258054:0:0:0:0:
320,192,258054,128,0,259304:0:0:0:0:
192,192,258054,128,0,258262:0:0:0:0:
64,192,258262,1,0,0:0:0:0:
192,192,258471,1,0,0:0:0:0:
448,192,258471,1,0,0:0:0:0:
64,192,258679,1,0,0:0:0:0:
448,192,258887,1,0,0:0:0:0:
192,192,258887,1,0,0:0:0:0:
64,192,259096,1,0,0:0:0:0:
192,192,259200,1,0,0:0:0:0:
64,192,259304,1,0,0:0:0:0:
448,192,259304,128,0,260137:0:0:0:0:
192,192,259512,1,0,0:0:0:0:
320,192,259721,1,0,0:0:0:0:
64,192,259721,1,0,0:0:0:0:
320,192,259929,1,0,0:0:0:0:
192,192,260137,1,0,0:0:0:0:
64,192,260137,128,0,262637:0:0:0:0:
320,192,260346,1,0,0:0:0:0:
448,192,260450,1,0,0:0:0:0:
192,192,260554,1,0,0:0:0:0:
320,192,260762,1,0,0:0:0:0:
192,192,260867,1,0,0:0:0:0:
448,192,260971,1,0,0:0:0:0:
320,192,260971,1,0,0:0:0:0:
448,192,261179,1,0,0:0:0:0:
320,192,261179,1,0,0:0:0:0:
192,192,261387,1,0,0:0:0:0:
448,192,261596,1,0,0:0:0:0:
192,192,261804,1,0,0:0:0:0:
320,192,261804,1,0,0:0:0:0:
320,192,262012,1,0,0:0:0:0:
448,192,262117,1,0,0:0:0:0:
192,192,262221,1,0,0:0:0:0:
320,192,262221,1,0,0:0:0:0:
448,192,262325,1,0,0:0:0:0:
192,192,262429,1,0,0:0:0:0:
320,192,262533,1,0,0:0:0:0:
192,192,262637,1,0,0:0:0:0:
448,192,262637,128,0,263471:0:0:0:0:
320,192,262846,1,0,0:0:0:0:
64,192,263054,1,0,0:0:0:0:
192,192,263262,1,0,0:0:0:0:
64,192,263471,1,0,0:0:0:0:
320,192,263471,1,0,0:0:0:0:
192,192,263679,1,0,0:0:0:0:
320,192,263783,1,0,0:0:0:0:
192,192,263887,1,0,0:0:0:0:
448,192,264096,1,0,0:0:0:0:
320,192,264200,1,0,0:0:0:0:
192,192,264304,1,0,0:0:0:0:
64,192,264304,1,0,0:0:0:0:
448,192,264512,1,0,0:0:0:0:
320,192,264721,1,0,0:0:0:0:
64,192,264721,1,0,0:0:0:0:
320,192,264929,1,0,0:0:0:0:
192,192,265137,1,0,0:0:0:0:
64,192,265137,1,0,0:0:0:0:
448,192,265346,1,0,0:0:0:0:
320,192,265450,1,0,0:0:0:0:
192,192,265554,1,0,0:0:0:0:
64,192,265554,1,0,0:0:0:0:
320,192,265658,1,0,0:0:0:0:
448,192,265762,1,0,0:0:0:0:
64,192,265867,1,0,0:0:0:0:
192,192,265971,1,0,0:0:0:0:
448,192,265971,1,0,0:0:0:0:
320,192,265971,128,0,266804:0:0:0:0:
64,192,266179,1,0,0:0:0:0:
192,192,266387,1,0,0:0:0:0:
192,192,266596,1,0,0:0:0:0:
192,192,266804,1,0,0:0:0:0:
448,192,266804,1,0,0:0:0:0:
64,192,266804,1,0,0:0:0:0:
320,192,267012,1,0,0:0:0:0:
192,192,267117,1,0,0:0:0:0:
448,192,267221,1,0,0:0:0:0:
64,192,267221,1,0,0:0:0:0:
192,192,267429,1,0,0:0:0:0:
320,192,267533,1,0,0:0:0:0:
64,192,267637,1,0,0:0:0:0:
448,192,267637,1,0,0:0:0:0:
192,192,267637,1,0,0:0:0:0:
64,192,267846,1,0,0:0:0:0:
320,192,267846,1,0,0:0:0:0:
320,192,268054,1,0,0:0:0:0:
64,192,268262,1,0,0:0:0:0:
320,192,268471,1,0,0:0:0:0:
448,192,268471,1,0,0:0:0:0:
320,192,268679,1,0,0:0:0:0:
192,192,268887,1,0,0:0:0:0:
64,192,268887,1,0,0:0:0:0:
320,192,269096,1,0,0:0:0:0:
192,192,269200,1,0,0:0:0:0:
64,192,269304,1,0,0:0:0:0:
448,192,269304,1,0,0:0:0:0:
320,192,269304,1,0,0:0:0:0:
320,192,269512,1,0,0:0:0:0:
64,192,269721,128,0,270137:0:0:0:0:
448,192,269721,1,0,0:0:0:0:
192,192,269929,128,0,270137:0:0:0:0:
448,192,270137,1,0,0:0:0:0:
320,192,270137,1,0,0:0:0:0:
192,192,270346,1,0,0:0:0:0:
64,192,270450,1,0,0:0:0:0:
448,192,270554,1,0,0:0:0:0:
320,192,270554,1,0,0:0:0:0:
192,192,270762,1,0,0:0:0:0:
320,192,270867,1,0,0:0:0:0:
448,192,270971,1,0,0:0:0:0:
64,192,270971,1,0,0:0:0:0:
192,192,270971,1,0,0:0:0:0:
192,192,271179,1,0,0:0:0:0:
448,192,271387,1,0,0:0:0:0:
64,192,271387,1,0,0:0:0:0:
320,192,271596,1,0,0:0:0:0:
192,192,271804,1,0,0:0:0:0:
64,192,271804,1,0,0:0:0:0:
64,192,272012,1,0,0:0:0:0:
448,192,272117,1,0,0:0:0:0:
320,192,272221,1,0,0:0:0:0:
64,192,272221,1,0,0:0:0:0:
192,192,272325,1,0,0:0:0:0:
448,192,272429,1,0,0:0:0:0:
320,192,272429,1,0,0:0:0:0:
192,192,272533,1,0,0:0:0:0:
64,192,272637,128,0,273471:0:0:0:0:
320,192,272637,1,0,0:0:0:0:
448,192,272637,1,0,0:0:0:0:
192,192,272846,1,0,0:0:0:0:
192,192,273054,1,0,0:0:0:0:
448,192,273054,1,0,0:0:0:0:
320,192,273262,1,0,0:0:0:0:
448,192,273471,128,0,275971:0:0:0:0:
320,192,273471,1,0,0:0:0:0:
192,192,273679,1,0,0:0:0:0:
320,192,273887,128,0,274304:0:0:0:0:
192,192,274096,1,0,0:0:0:0:
64,192,274304,1,0,0:0:0:0:
192,192,274304,1,0,0:0:0:0:
64,192,274512,1,0,0:0:0:0:
192,192,274512,1,0,0:0:0:0:
320,192,274721,1,0,0:0:0:0:
64,192,274929,128,0,275137:0:0:0:0:
192,192,275137,128,0,275346:0:0:0:0:
320,192,275137,128,0,275554:0:0:0:0:
192,192,275554,1,0,0:0:0:0:
64,192,275554,1,0,0:0:0:0:
320,192,275971,1,0,0:0:0:0:
192,192,275971,1,0,0:0:0:0:
64,192,275971,1,0,0:0:0:0:
448,192,276179,1,0,0:0:0:0:
64,192,276387,128,0,276804:0:0:0:0:
320,192,276387,1,0,0:0:0:0:
192,192,276596,128,0,276804:0:0:0:0:
320,192,276804,1,0,0:0:0:0:
448,192,276804,1,0,0:0:0:0:
64,192,277012,128,0,277221:0:0:0:0:
448,192,277221,1,0,0:0:0:0:
320,192,277221,128,0,277429:0:0:0:0:
192,192,277429,128,0,277637:0:0:0:0:
448,192,277637,1,0,0:0:0:0:
320,192,277637,1,0,0:0:0:0:
64,192,277637,1,0,0:0:0:0:
192,192,278054,128,0,278262:0:0:0:0:
64,192,278054,128,0,278262:0:0:0:0:
320,192,278262,128,0,278471:0:0:0:0:
64,192,278471,1,0,0:0:0:0:
448,192,278471,1,0,0:0:0:0:
192,192,278471,128,0,278887:0:0:0:0:
320,192,278679,128,0,278887:0:0:0:0:
448,192,278887,1,0,0:0:0:0:
320,192,279096,1,0,0:0:0:0:
192,192,279096,1,0,0:0:0:0:
64,192,279304,1,0,0:0:0:0:
192,192,279304,1,0,0:0:0:0:
448,192,279304,128,0,280137:0:0:0:0:
192,192,279721,1,0,0:0:0:0:
320,192,279721,128,0,280137:0:0:0:0:
192,192,279929,1,0,0:0:0:0:
64,192,280137,1,0,0:0:0:0:
192,192,280137,1,0,0:0:0:0:
192,192,280346,1,0,0:0:0:0:
320,192,280450,1,0,0:0:0:0:
64,192,280554,1,0,0:0:0:0:
192,192,280554,1,0,0:0:0:0:
320,192,280762,1,0,0:0:0:0:
192,192,280867,1,0,0:0:0:0:
64,192,280971,1,0,0:0:0:0:
320,192,280971,1,0,0:0:0:0:
448,192,280971,1,0,0:0:0:0:
64,192,281179,1,0,0:0:0:0:
448,192,281179,1,0,0:0:0:0:
192,192,281387,1,0,0:0:0:0:
192,192,281596,1,0,0:0:0:0:
64,192,281804,1,0,0:0:0:0:
320,192,281804,1,0,0:0:0:0:
448,192,281804,1,0,0:0:0:0:
448,192,282012,1,0,0:0:0:0:
320,192,282117,1,0,0:0:0:0:
192,192,282221,1,0,0:0:0:0:
64,192,282221,1,0,0:0:0:0:
320,192,282429,1,0,0:0:0:0:
192,192,282533,1,0,0:0:0:0:
448,192,282637,1,0,0:0:0:0:
64,192,282637,1,0,0:0:0:0:
320,192,282637,1,0,0:0:0:0:
448,192,282846,1,0,0:0:0:0:
320,192,283054,128,0,283471:0:0:0:0:
64,192,283054,1,0,0:0:0:0:
192,192,283262,128,0,283471:0:0:0:0:
64,192,283471,1,0,0:0:0:0:
448,192,283471,1,0,0:0:0:0:
192,192,283679,1,0,0:0:0:0:
320,192,283783,1,0,0:0:0:0:
448,192,283887,1,0,0:0:0:0:
64,192,283887,1,0,0:0:0:0:
192,192,284096,1,0,0:0:0:0:
448,192,284200,1,0,0:0:0:0:
320,192,284304,1,0,0:0:0:0:
64,192,284304,1,0,0:0:0:0:
192,192,284304,1,0,0:0:0:0:
64,192,284512,1,0,0:0:0:0:
320,192,284721,1,0,0:0:0:0:
192,192,284721,1,0,0:0:0:0:
192,192,284929,1,0,0:0:0:0:
64,192,285137,1,0,0:0:0:0:
320,192,285137,1,0,0:0:0:0:
448,192,285137,1,0,0:0:0:0:
64,192,285346,1,0,0:0:0:0:
320,192,285450,1,0,0:0:0:0:
448,192,285554,1,0,0:0:0:0:
192,192,285554,1,0,0:0:0:0:
320,192,285762,1,0,0:0:0:0:
192,192,285867,1,0,0:0:0:0:
448,192,285971,128,0,286804:0:0:0:0:
64,192,285971,1,0,0:0:0:0:
320,192,285971,1,0,0:0:0:0:
192,192,286179,1,0,0:0:0:0:
320,192,286387,1,0,0:0:0:0:
64,192,286387,1,0,0:0:0:0:
320,192,286596,1,0,0:0:0:0:
64,192,286804,128,0,289304:0:0:0:0:
192,192,286804,1,0,0:0:0:0:
320,192,287012,1,0,0:0:0:0:
192,192,287221,1,0,0:0:0:0:
448,192,287221,1,0,0:0:0:0:
320,192,287429,1,0,0:0:0:0:
448,192,287637,1,0,0:0:0:0:
320,192,287637,1,0,0:0:0:0:
192,192,287637,1,0,0:0:0:0:
448,192,287846,1,0,0:0:0:0:
192,192,288054,128,0,288471:0:0:0:0:
448,192,288262,128,0,288471:0:0:0:0:
320,192,288471,128,0,288887:0:0:0:0:
192,192,288887,1,0,0:0:0:0:
448,192,288887,1,0,0:0:0:0:
448,192,289304,1,0,0:0:0:0:
320,192,289304,1,0,0:0:0:0:
192,192,289304,1,0,0:0:0:0:
64,192,289512,1,0,0:0:0:0:
448,192,289721,128,0,290137:0:0:0:0:
192,192,289721,1,0,0:0:0:0:
320,192,289929,128,0,290137:0:0:0:0:
192,192,290137,1,0,0:0:0:0:
64,192,290137,1,0,0:0:0:0:
192,192,290554,1,0,0:0:0:0:
320,192,290554,128,0,290762:0:0:0:0:
192,192,290971,1,0,0:0:0:0:
64,192,290971,1,0,0:0:0:0:
448,192,290971,128,0,291179:0:0:0:0:
320,192,291387,1,0,0:0:0:0:
64,192,291387,1,0,0:0:0:0:
320,192,291596,1,0,0:0:0:0:
64,192,291804,1,0,0:0:0:0:
192,192,291804,128,0,292012:0:0:0:0:
448,192,291804,128,0,292221:0:0:0:0:
64,192,292221,1,0,0:0:0:0:
320,192,292221,1,0,0:0:0:0:
192,192,292429,1,0,0:0:0:0:
448,192,292637,1,0,0:0:0:0:
320,192,292637,1,0,0:0:0:0:
64,192,292637,128,0,293471:0:0:0:0:
448,192,292846,1,0,0:0:0:0:
192,192,293054,1,0,0:0:0:0:
320,192,293054,1,0,0:0:0:0:
320,192,293262,1,0,0:0:0:0:
448,192,293471,1,0,0:0:0:0:
192,192,293471,1,0,0:0:0:0:
320,192,293471,1,0,0:0:0:0:
192,192,293679,1,0,0:0:0:0:
320,192,293783,1,0,0:0:0:0:
448,192,293887,1,0,0:0:0:0:
64,192,293887,1,0,0:0:0:0:
320,192,294096,1,0,0:0:0:0:
192,192,294200,1,0,0:0:0:0:
320,192,294304,1,0,0:0:0:0:
64,192,294304,1,0,0:0:0:0:
448,192,294304,1,0,0:0:0:0:
448,192,294512,1,0,0:0:0:0:
320,192,294512,1,0,0:0:0:0:
192,192,294721,1,0,0:0:0:0:
448,192,294929,1,0,0:0:0:0:
320,192,295137,1,0,0:0:0:0:
64,192,295137,128,0,295346:0:0:0:0:
192,192,295346,128,0,295554:0:0:0:0:
320,192,295346,1,0,0:0:0:0:
448,192,295450,1,0,0:0:0:0:
64,192,295554,1,0,0:0:0:0:
320,192,295554,128,0,295762:0:0:0:0:
448,192,295658,1,0,0:0:0:0:
192,192,295762,128,0,295971:0:0:0:0:
64,192,295971,1,0,0:0:0:0:
448,192,295971,1,0,0:0:0:0:
320,192,295971,128,0,296179:0:0:0:0:
192,192,296179,1,0,0:0:0:0:
448,192,296387,128,0,296804:0:0:0:0:
320,192,296387,1,0,0:0:0:0:
64,192,296596,128,0,296804:0:0:0:0:
320,192,296804,1,0,0:0:0:0:
192,192,296804,128,0,297012:0:0:0:0:
448,192,297012,1,0,0:0:0:0:
320,192,297117,1,0,0:0:0:0:
192,192,297221,1,0,0:0:0:0:
64,192,297221,1,0,0:0:0:0:
320,192,297429,1,0,0:0:0:0:
192,192,297533,1,0,0:0:0:0:
320,192,297637,1,0,0:0:0:0:
448,192,297637,1,0,0:0:0:0:
64,192,297637,1,0,0:0:0:0:
320,192,297846,1,0,0:0:0:0:
448,192,298054,1,0,0:0:0:0:
64,192,298054,1,0,0:0:0:0:
192,192,298262,1,0,0:0:0:0:
448,192,298471,1,0,0:0:0:0:
320,192,298471,1,0,0:0:0:0:
448,192,298679,1,0,0:0:0:0:
320,192,298887,1,0,0:0:0:0:
192,192,298887,1,0,0:0:0:0:
64,192,299096,1,0,0:0:0:0:
192,192,299200,1,0,0:0:0:0:
448,192,299304,128,0,300137:0:0:0:0:
64,192,299304,1,0,0:0:0:0:
320,192,299304,1,0,0:0:0:0:
192,192,299512,1,0,0:0:0:0:
64,192,299721,1,0,0:0:0:0:
320,192,299721,1,0,0:0:0:0:
320,192,299929,1,0,0:0:0:0:
64,192,300137,128,0,302637:0:0:0:0:
192,192,300137,1,0,0:0:0:0:
320,192,300346,1,0,0:0:0:0:
448,192,300450,1,0,0:0:0:0:
192,192,300554,1,0,0:0:0:0:
320,192,300762,1,0,0:0:0:0:
448,192,300971,1,0,0:0:0:0:
320,192,300971,1,0,0:0:0:0:
192,192,300971,1,0,0:0:0:0:
448,192,301179,1,0,0:0:0:0:
192,192,301387,1,0,0:0:0:0:
320,192,301387,128,0,302012:0:0:0:0:
448,192,301596,128,0,302012:0:0:0:0:
192,192,301804,128,0,302221:0:0:0:0:
320,192,302221,1,0,0:0:0:0:
448,192,302221,1,0,0:0:0:0:
192,192,302325,1,0,0:0:0:0:
448,192,302429,1,0,0:0:0:0:
320,192,302637,1,0,0:0:0:0:
448,192,302637,128,0,303471:0:0:0:0:
192,192,302637,1,0,0:0:0:0:
64,192,302846,1,0,0:0:0:0:
320,192,303054,128,0,303471:0:0:0:0:
192,192,303262,128,0,303471:0:0:0:0:
64,192,303471,1,0,0:0:0:0:
192,192,303887,1,0,0:0:0:0:
320,192,303887,128,0,304096:0:0:0:0:
64,192,304304,1,0,0:0:0:0:
448,192,304304,1,0,0:0:0:0:
192,192,304304,128,0,304512:0:0:0:0:
64,192,304721,1,0,0:0:0:0:
320,192,304721,128,0,305137:0:0:0:0:
192,192,304929,128,0,305346:0:0:0:0:
64,192,305137,128,0,305346:0:0:0:0:
448,192,305137,128,0,305554:0:0:0:0:
192,192,305554,1,0,0:0:0:0:
64,192,305554,1,0,0:0:0:0:
320,192,305762,1,0,0:0:0:0:
448,192,305971,1,0,0:0:0:0:
64,192,305971,1,0,0:0:0:0:
192,192,305971,128,0,306387:0:0:0:0:
64,192,306179,1,0,0:0:0:0:
448,192,306387,1,0,0:0:0:0:
320,192,306387,128,0,306804:0:0:0:0:
192,192,306596,1,0,0:0:0:0:
192,192,306804,1,0,0:0:0:0:
64,192,306804,1,0,0:0:0:0:
448,192,306804,1,0,0:0:0:0:
320,192,307012,1,0,0:0:0:0:
192,192,307117,1,0,0:0:0:0:
320,192,307221,1,0,0:0:0:0:
448,192,307221,1,0,0:0:0:0:
192,192,307429,1,0,0:0:0:0:
320,192,307533,1,0,0:0:0:0:
192,192,307637,1,0,0:0:0:0:
448,192,307637,1,0,0:0:0:0:
64,192,307637,128,0,307846:0:0:0:0:
320,192,307846,128,0,308054:0:0:0:0:
448,192,308054,1,0,0:0:0:0:
192,192,308054,128,0,308262:0:0:0:0:
320,192,308262,1,0,0:0:0:0:
64,192,308471,1,0,0:0:0:0:
192,192,308471,1,0,0:0:0:0:
448,192,308471,1,0,0:0:0:0:
192,192,308679,1,0,0:0:0:0:
320,192,308783,1,0,0:0:0:0:
448,192,308887,1,0,0:0:0:0:
320,192,308992,1,0,0:0:0:0:
192,192,309096,1,0,0:0:0:0:
64,192,309200,1,0,0:0:0:0:
448,192,309304,1,0,0:0:0:0:
192,192,309304,1,0,0:0:0:0:
320,192,309304,128,0,309512:0:0:0:0:
64,192,309512,128,0,309721:0:0:0:0:
192,192,309721,128,0,310137:0:0:0:0:
448,192,309721,128,0,309929:0:0:0:0:
320,192,309929,128,0,310137:0:0:0:0:
64,192,310137,1,0,0:0:0:0:
448,192,310137,1,0,0:0:0:0:
320,192,310346,1,0,0:0:0:0:
192,192,310450,1,0,0:0:0:0:
64,192,310554,1,0,0:0:0:0:
320,192,310762,1,0,0:0:0:0:
64,192,310867,1,0,0:0:0:0:
320,192,310971,1,0,0:0:0:0:
448,192,310971,1,0,0:0:0:0:
192,192,310971,128,0,311179:0:0:0:0:
448,192,311179,128,0,311387:0:0:0:0:
64,192,311387,128,0,311596:0:0:0:0:
320,192,311387,128,0,312637:0:0:0:0:
192,192,311596,1,0,0:0:0:0:
448,192,311804,1,0,0:0:0:0:
64,192,312012,1,0,0:0:0:0:
192,192,312117,1,0,0:0:0:0:
448,192,312221,1,0,0:0:0:0:
64,192,312325,1,0,0:0:0:0:
192,192,312429,1,0,0:0:0:0:
448,192,312637,1,0,0:0:0:0:
64,192,312637,128,0,313471:0:0:0:0:
192,192,312637,1,0,0:0:0:0:
320,192,312846,1,0,0:0:0:0:
448,192,313054,1,0,0:0:0:0:
192,192,313054,1,0,0:0:0:0:
192,192,313262,1,0,0:0:0:0:
448,192,313471,128,0,315971:0:0:0:0:
320,192,313471,1,0,0:0:0:0:
192,192,313679,1,0,0:0:0:0:
320,192,313887,1,0,0:0:0:0:
192,192,314096,1,0,0:0:0:0:
192,192,314304,1,0,0:0:0:0:
64,192,314304,1,0,0:0:0:0:
320,192,314304,1,0,0:0:0:0:
64,192,314512,1,0,0:0:0:0:
320,192,314721,128,0,315346:0:0:0:0:
64,192,314929,128,0,315554:0:0:0:0:
192,192,315137,128,0,315346:0:0:0:0:
320,192,315554,1,0,0:0:0:0:
192,192,315554,1,0,0:0:0:0:
320,192,315971,128,0,316387:0:0:0:0:
192,192,315971,1,0,0:0:0:0:
64,192,315971,1,0,0:0:0:0:
64,192,316179,1,0,0:0:0:0:
192,192,316387,128,0,316804:0:0:0:0:
320,192,316596,128,0,316804:0:0:0:0:
448,192,316804,1,0,0:0:0:0:
64,192,316804,1,0,0:0:0:0:
320,192,317221,1,0,0:0:0:0:
192,192,317221,128,0,317429:0:0:0:0:
448,192,317637,1,0,0:0:0:0:
64,192,317637,1,0,0:0:0:0:
320,192,317637,128,0,317846:0:0:0:0:
192,192,318054,1,0,0:0:0:0:
448,192,318054,1,0,0:0:0:0:
192,192,318262,1,0,0:0:0:0:
64,192,318471,1,0,0:0:0:0:
320,192,318471,128,0,318887:0:0:0:0:
448,192,318471,128,0,318679:0:0:0:0:
64,192,318679,1,0,0:0:0:0:
192,192,318887,1,0,0:0:0:0:
64,192,318887,1,0,0:0:0:0:
320,192,319096,1,0,0:0:0:0:
64,192,319304,1,0,0:0:0:0:
448,192,319304,1,0,0:0:0:0:
192,192,319304,1,0,0:0:0:0:
320,192,319721,1,0,0:0:0:0:
192,192,319721,1,0,0:0:0:0:
320,192,319929,1,0,0:0:0:0:
320,192,320137,128,0,343471:0:0:0:0:
448,192,320137,128,0,355137:0:0:0:0:
64,192,320137,1,0,0:0:0:0:
192,192,320137,128,0,333471:0:0:0:0:
