osu file format v8

[General]
AudioFilename: [443] Call me again.mp3
AudioLeadIn: 0
PreviewTime: -1
Countdown: 1
SampleSet: Soft
StackLeniency: 0.7
Mode: 0
LetterboxInBreaks: 1

[Editor]
Bookmarks: 16212,32212
DistanceSpacing: 1
BeatDivisor: 4
GridSize: 8

[Metadata]
Title:Call me again
Artist:Knuckle Joe
Creator:DaRRi MIx
Version:ROCK!!
Source:O2Jam
Tags:

[Difficulty]
HPDrainRate:6
CircleSize:5
OverallDifficulty:8
ApproachRate:8
SliderMultiplier:2
SliderTickRate:1

[Events]
//Background and Video events
0,0,"callmeagain.jpg"
//Break Periods
2,101912,103962
2,109912,111962
//Storyboard Layer 0 (Background)
//Storyboard Layer 1 (Fail)
//Storyboard Layer 2 (Pass)
//Storyboard Layer 3 (Foreground)
//Storyboard Sound Samples
//Background Colour Transformations
3,100,192,192,192

[TimingPoints]
1712,500,4,2,0,30,1,0
8212,-100,4,2,0,50,0,0
9462,-100,4,2,0,100,0,0
17712,-200,4,2,0,100,0,0
24212,-100,4,1,1,100,0,1
25087,-100,4,1,0,100,0,0
25712,-100,4,1,1,100,0,1
32462,-100,4,1,1,100,0,0
33087,-100,4,1,0,100,0,0
33712,-100,4,1,1,100,0,1
39712,-100,4,1,0,100,0,0
41712,-100,4,1,1,100,0,0
49087,-100,4,1,0,100,0,0
49712,-100,4,1,1,100,0,0
56837,-200,4,1,1,100,0,1
57087,-100,4,1,0,100,0,0
57712,-100,4,1,1,100,0,1
63712,-200,4,1,1,100,0,0
64837,-100,4,1,1,100,0,0
65712,-100,4,1,1,100,0,1
71712,-200,4,1,1,100,0,0
72837,-100,4,1,1,100,0,0
73712,-200,4,1,1,100,0,0
81712,-100,4,1,1,100,0,1
83962,-200,4,1,1,100,0,0
84712,-100,4,1,1,100,0,0
101712,-200,4,1,1,100,0,1
117712,-200,4,2,1,100,0,0
123587,-100,4,1,1,100,0,0
123712,-100,4,1,1,100,0,1
124587,-100,4,1,1,100,0,0
124712,-100,4,1,1,100,0,1
124837,-100,4,1,1,100,0,0
124962,-100,4,1,1,100,0,1
125087,-100,4,1,1,100,0,0
125212,-100,4,1,1,100,0,1
125337,-100,4,1,1,100,0,0
125462,-100,4,1,1,100,0,1
125587,-100,4,1,1,100,0,0
125712,-100,4,1,1,100,0,1
139712,-100,4,1,1,100,0,0
148837,-200,4,1,1,100,0,0
149087,-100,4,1,1,100,0,0
149087,-100,4,1,0,100,0,0
149712,-100,4,1,1,100,0,0
150962,-200,4,1,1,100,0,0
153712,-100,4,1,1,100,0,0
155712,571.428571428571,4,1,1,100,1,0
157140,600,4,1,1,100,1,0
158040,-100,4,1,1,100,0,1
163140,-100,4,2,1,0,0,0

[Colours]
Combo1 : 255,128,0
Combo2 : 0,0,0
Combo3 : 128,255,0
Combo4 : 0,0,0

[HitObjects]
33,58,9712,1,0
130,34,9962,1,0
100,129,10212,1,8
203,328,10587,1,0
58,287,10837,2,0,B|203:328,1,100,8|0
203,328,11212,1,8
300,304,11462,1,0
479,326,11712,5,0
382,350,11962,1,0
412,255,12212,1,8
309,56,12587,1,0
454,97,12837,2,0,B|309:56,1,100,8|0
309,56,13212,1,8
212,80,13462,1,0
177,256,13712,5,0
116,335,13962,1,0
18,313,14212,1,8
171,148,14587,1,0
44,67,14837,2,0,B|172:149,1,100,8|0
171,148,15212,1,8
256,95,15462,1,0
335,256,15712,5,0
396,335,15962,1,0
494,313,16212,1,8
341,148,16587,1,0
467,67,16837,2,0,B|340:149,1,100,8|0
341,148,17212,1,8
256,95,17462,1,0
256,192,17712,6,0,B|256:255,1,50
198,323,18212,2,0,B|139:337,1,50,8|0
99,344,18587,2,0,B|110:310,1,25,0|0
122,272,18837,2,0,B|90:245,1,25,8|0
25,191,19212,2,0,B|25:138,1,50,8|0
58,46,19712,6,0,B|118:38,1,50
207,29,20212,2,0,B|207:90,1,50,8|0
207,79,20587,1,0
301,111,20837,2,0,B|357:131,1,50,8|0
349,177,21212,2,0,B|349:244,1,50,8|0
349,327,21712,6,0,B|406:348,1,50
484,296,22212,2,0,B|457:236,1,50,8|0
443,204,22587,2,0,B|471:172,1,25,0|0
492,147,22837,2,0,B|492:89,1,50,8|0
492,47,23212,2,0,B|436:28,1,50,8|0
345,46,23712,6,0,B|345:99,1,50
344,192,24212,5,12
295,202,24337,2,0,B|175:229,1,100
167,107,24837,2,0,L|188:47,1,50,8|0
87,131,25212,1,8
87,146,25337,1,8
87,161,25462,1,8
87,176,25587,1,8
87,191,25712,5,4
141,330,25962,1,0
277,270,26212,2,0,L|390:245,1,100,8|0
426,193,26587,2,0,L|439:315,1,100
444,367,26962,1,0
491,224,27212,2,0,L|478:102,1,100,8|0
330,121,27712,5,0
462,51,27962,1,0
312,43,28212,2,0,L|199:18,1,100,8|0
228,95,28587,2,0,L|215:217,1,100
210,269,28962,2,0,L|269:226,1,50
311,196,29212,2,0,L|324:318,1,100,8|0
181,351,29712,5,0
40,297,29962,1,0
97,158,30212,2,0,L|86:58,1,100,8|0
29,107,30587,2,0,L|39:206,1,100
97,158,30962,2,0,L|174:173,1,50
147,242,31212,2,0,L|260:217,1,100,8|0
256,70,31712,6,0,L|369:95,1,100,0|0
501,68,32212,2,0,L|479:165,1,100,8|0
427,220,32587,2,0,B|369:214,4,50,10|0|8|0|0
472,280,33212,5,8
472,296,33337,1,8
472,312,33462,1,8
472,328,33587,1,8
472,344,33712,5,4
320,288,33962,1,0
168,344,34212,2,0,L|32:344,1,100,8|0
32,280,34587,2,0,L|144:280,1,100
208,344,34962,1,0
360,280,35212,2,0,L|480:280,1,100,8|0
496,152,35712,5,0
344,216,35962,1,0
192,152,36212,2,0,L|72:152,1,100,8|0
56,216,36587,2,0,L|168:216,1,100
232,152,36962,2,0,L|304:152,1,50
360,216,37212,2,0,L|480:216,1,100,8|0
424,88,37712,5,0
272,24,37962,1,0
120,88,38212,2,0,L|0:88,1,100,8|0
56,24,38587,2,0,L|160:24,1,100
232,88,38962,1,0
384,24,39212,2,0,L|488:24,1,100,8|0
480,176,39712,5,0
472,192,39837,1,0
464,208,39962,1,2
335,333,40212,5,0
343,317,40337,1,0
351,301,40462,1,2
203,197,40712,5,0
195,213,40837,1,0
187,229,40962,1,2
48,344,41212,5,8
40,328,41337,1,8
32,312,41462,1,10
24,296,41587,1,8
16,280,41712,5,4
16,200,41962,1,0
88,233,42212,2,0,B|119:128,1,100,8|0
128,98,42587,1,0
185,42,42837,1,0
217,65,42962,1,0
289,31,43212,2,0,B|427:42,1,100,8|0
492,99,43712,5,0
467,130,43837,1,0
442,161,43962,1,0
494,221,44212,2,0,B|509:338,1,100,8|0
512,359,44587,1,0
432,353,44837,1,0
425,313,44962,1,0
345,320,45212,2,0,B|232:329,1,100,8|0
134,279,45712,5,0
161,203,45962,1,0
239,219,46212,2,0,B|289:129,1,100,8|0
307,96,46587,1,0
232,66,46837,1,0
226,27,46962,1,0
148,47,47212,2,0,B|35:32,1,100,8|0
91,145,47712,5,4
32,249,47962,1,4
125,324,48212,6,0,B|234:317,1,100,8|0
265,315,48587,1,0
337,282,48837,1,8
358,315,48962,1,0
436,330,49212,5,8
445,328,49337,1,8
454,326,49462,1,8
463,324,49587,1,8
472,322,49712,5,4
397,227,49962,1,0
510,189,50212,2,0,B|510:82,1,100,8|0
510,29,50587,1,0
401,80,50837,1,0
347,52,50962,1,0
238,103,51212,2,0,B|238:223,1,100,8|0
237,322,51712,5,0
146,241,51962,1,0
30,273,52212,2,0,B|11:167,1,100,8|0
5,116,52587,1,0
119,147,52837,1,0
167,110,52962,1,0
282,141,53212,2,0,B|302:259,1,100,8|0
380,352,53712,5,0
492,311,53962,1,0
490,191,54212,2,0,B|490:84,1,100,8|0
490,31,54587,1,0
394,104,54837,1,0
337,82,54962,1,0
223,43,55212,2,0,B|203:166,1,100,8|0
207,141,55712,5,4
2,266,56212,5,8
34,333,56337,1,0
182,312,56587,1,0
326,351,56837,2,0,B|383:356,1,50,8|0
425,360,57212,5,8
425,360,57337,1,8
425,360,57462,1,8
425,360,57587,1,8
425,360,57712,6,0,B|493:292|422:230,1,150
423,231,58212,1,8
473,89,58462,2,0,B|305:89,1,150
323,89,58962,5,0
180,42,59212,1,8
323,89,59462,1,0
180,42,59712,6,0,B|112:110|183:172,1,150
181,171,60212,1,8
132,313,60462,2,0,B|300:313,1,150
282,313,60962,5,0
425,360,61212,1,8
467,333,61337,1,0
484,184,61712,6,0,B|428:184|412:144|428:104|484:104,1,150
482,104,62212,1,8
338,63,62462,2,0,B|183:63,1,150
188,63,62962,5,0
42,27,63212,1,8
188,63,63462,1,0
82,169,63712,6,0,B|55:262,1,75,8|0
50,276,64212,1,0
50,276,64337,1,0
50,276,64462,2,0,B|142:284,1,75,8|8
243,264,65087,1,0
259,311,65212,1,8
373,346,65462,1,8
417,323,65587,1,8
461,300,65712,6,0,B|492:218|412:172,1,150
413,173,66212,1,8
269,212,66462,2,0,B|190:167|221:85,1,150
221,85,66962,5,0
364,39,67212,1,8
221,85,67462,1,0
83,26,67712,6,0,B|99:105|26:156,1,150
27,155,68212,1,8
168,204,68462,2,0,B|96:254|112:333,1,150,0|0
112,332,68962,5,0
260,312,69212,1,8
285,354,69337,1,0
469,225,69712,6,0,B|469:73,1,150
469,75,70212,1,8
325,32,70462,2,0,B|325:208,1,150
372,196,70962,6,0,B|361:316,1,100,0|8
239,208,71462,1,0
172,342,71712,6,0,B|80:323,1,75,8|0
61,318,72212,1,0
61,318,72337,1,0
61,318,72462,2,0,B|106:250,1,75,8|8
58,143,73087,6,0,B|41:91,1,50,0|8
100,111,73337,2,0,B|83:59,1,50,0|8
208,48,73712,5,0
288,96,73962,1,0
368,48,74212,2,2,B|432:32,1,50,10|0
416,35,74587,1,0
496,96,74837,1,0
496,128,74962,1,0
416,176,75212,2,2,B|352:160,1,50,10|0
288,224,75712,5,0
368,272,75962,1,0
288,320,76212,2,2,B|224:336,1,50,10|0
239,332,76587,1,0
192,240,76837,1,0
112,288,77087,1,0
112,288,77212,2,2,B|128:352,1,50,10|0
32,288,77712,5,0
80,208,77962,1,0
32,128,78212,2,2,B|16:64,1,50,10|0
19,79,78587,1,0
112,32,78837,1,0
144,32,78962,1,0
192,112,79212,2,2,B|256:128,1,50,10|0
288,32,79712,5,0
368,80,79962,1,0
448,32,80212,2,2,B|512:16,1,50,10|0
496,19,80587,1,0
448,112,80837,1,0
496,192,81087,1,0
496,192,81212,2,2,B|512:256,2,50,10|2|4
256,192,81837,12,0,83712
256,160,83962,6,0,B|256:48,1,100,8|0
256,160,84712,6,0,B|256:272,1,100,8|0
256,336,85212,1,8
256,336,85337,1,0
256,336,85462,1,0
256,336,85587,1,0
256,336,85712,5,4
56,353,86212,1,0
15,157,86712,2,0,B|218:144,1,200,8|0
314,135,87462,1,10
373,54,87712,6,0,B|479:46,1,100,0|10
407,236,88462,1,0
451,325,88712,1,12
451,325,88962,1,12
451,325,89212,1,12
252,349,89712,6,0,B|219:142,1,200
307,102,90462,1,0
394,53,90712,2,0,B|489:240,1,200,8|0
431,316,91462,5,0
388,225,91712,1,0
287,222,91962,2,0,B|167:216,1,100,8|0
86,212,92462,1,0
99,112,92712,2,0,B|84:224,1,100,8|0
72,310,93212,1,8
72,310,93462,1,8
171,300,93712,6,0,B|373:282,1,200,4|0
211,161,94712,1,8
375,46,95212,1,0
465,87,95462,6,0,B|475:195,1,100,2|0
393,245,95962,2,0,B|374:35,1,200,10|0
281,82,96712,1,12
182,62,96962,1,12
83,42,97212,1,12
63,140,97462,5,0
43,238,97712,2,0,B|260:251,1,200,4|0
185,332,98462,1,0
284,337,98712,2,0,B|501:350,1,200,8|0
430,263,99462,5,0
504,196,99712,1,0
422,137,99962,2,0,B|400:27,1,100,8|0
422,137,100462,1,0
349,205,100712,2,0,B|327:95,1,100,8|0
311,8,101212,1,8
311,8,101462,1,8
233,71,101712,5,4
476,277,104712,5,12
476,277,104962,1,12
476,277,105212,1,12
286,339,105712,5,4
14,72,106462,5,0
112,55,106712,2,0,B|270:29,1,150,8|0
212,119,107712,1,0
302,160,107962,2,0,B|368:188,1,50,8|0
337,279,108462,1,0
427,238,108712,2,0,B|493:210,1,50,8|0
414,136,109212,1,8
504,95,109462,1,8
461,4,109712,5,4
84,323,112712,5,12
84,323,112962,1,12
84,323,113212,1,12
67,224,113462,5,0
51,125,113712,2,4,L|165:136|149:56|285:12|285:84,1,400,4|4
256,192,115837,12,4,117712
256,256,117837,5,2
334,363,118087,1,2
315,232,118337,1,2
393,339,118587,1,2
375,208,118837,1,2
452,315,119087,1,2
434,184,119337,2,2,L|493:160,1,50
480,96,119712,5,0
480,96,119837,1,2
402,203,120087,1,2
421,72,120337,1,2
343,179,120587,1,2
361,48,120837,1,2
284,155,121087,1,2
302,24,121337,2,2,L|242:0,1,50
192,32,121712,5,0
192,32,121837,1,2
85,110,122087,1,2
216,91,122337,1,2
109,169,122587,1,2
240,151,122837,1,2
133,228,123087,1,2
264,210,123337,2,0,L|287:269,1,50,2|0
304,312,123712,6,0,L|432:336,1,100,4|0
465,110,124212,2,0,L|328:88,1,100,4|0
173,60,124712,5,4
173,60,124962,1,4
173,60,125212,1,4
173,60,125462,1,4
47,215,125712,6,0,L|168:239,1,100
203,247,126087,1,0
199,306,126212,2,0,L|320:330,1,100,8|0
401,266,126712,6,0,L|384:159,1,100
325,166,127087,1,0
265,166,127212,2,0,L|248:59,1,100,8|0
365,35,127712,6,0,L|483:32,1,100
475,91,128087,1,0
486,149,128212,2,0,L|368:152,1,100,8|0
273,110,128712,6,0,L|231:214,1,100
295,197,129087,1,0
275,253,129212,2,0,L|241:348,1,100,8|0
122,332,129712,6,0,L|70:228,1,100
132,219,130087,1,0
187,196,130212,2,0,L|239:92,1,100,8|0
146,21,130712,6,0,L|42:60,1,100
26,110,131087,1,0
3,165,131212,2,0,L|107:204,1,100,8|0
141,311,131712,6,0,L|254:278,1,100
294,265,132087,1,0
316,320,132212,2,0,L|429:353,1,100,8|0
499,264,132712,6,0,L|417:174,1,100
373,174,133087,1,0
414,130,133212,2,0,L|496:40,1,100,8|0
360,51,133712,6,0,L|251:27,1,100
288,84,134087,1,0
273,142,134212,2,0,L|249:251,1,100,8|0
160,317,134712,6,0,L|46:341,1,100
89,284,135087,1,0
103,225,135212,2,0,L|127:111,1,100,8|0
48,33,135712,6,0,L|186:44,1,100
207,46,136087,1,0
188,103,136212,2,0,L|199:241,1,100,8|0
314,181,136712,6,0,L|321:280,1,100
303,338,137087,1,0
362,343,137213,2,0,L|461:350,1,100,8|0
447,231,137712,6,0,L|433:112,1,100
429,72,138087,1,0
435,131,138212,2,0,L|316:117,1,100,8|0
244,40,138712,6,0,L|129:46,1,100
84,49,139087,1,0
143,46,139212,2,0,L|158:165,2,100,8|0|4
30,144,139962,5,2
58,291,140212,1,10
203,327,140462,1,0
268,290,140587,1,2
410,338,140837,2,2,L|467:325|448:276,1,100,10|0
426,215,141212,1,8
426,229,141337,1,0
426,243,141462,1,0
426,257,141587,1,0
426,271,141712,5,4
246,182,141962,1,0
437,125,142212,2,0,L|491:34,1,100,8|0
388,49,142587,2,0,L|283:19,1,100
332,112,142962,2,0,L|316:233,2,100,0|8|0
146,33,143712,5,0
236,211,143962,1,0
39,249,144212,2,0,L|158:223,1,100,8|0
235,211,144587,2,0,L|221:316,1,100
315,344,144962,2,0,L|299:290,1,50
380,235,145212,2,0,L|513:210,1,100,8|0
285,158,145712,5,0
470,82,145962,1,0
271,59,146212,2,0,L|174:13,1,100,8|0
117,55,146587,1,0
54,95,146712,2,0,L|157:127,1,100
212,166,147087,1,0
169,227,147212,2,0,L|156:332,2,100,8|0|0
294,309,147962,5,0
492,283,148212,1,8
326,171,148462,1,0
301,99,148587,1,8
473,48,148837,6,0,L|473:128,1,50,8|0
473,147,149212,1,8
473,161,149337,1,8
473,175,149462,1,8
473,190,149587,1,8
473,204,149712,5,4
402,336,149962,1,0
304,222,150212,1,8
160,265,150462,1,0
160,265,150587,2,0,L|40:221,1,100
74,289,150962,6,0,L|82:354,1,50,0|8
117,100,151462,6,0,L|109:35,1,50,0|0
244,296,151962,6,0,L|252:361,1,50,0|8
287,107,152462,6,0,L|279:42,1,50,0|0
414,303,152962,6,0,L|422:368,1,50,0|8
457,114,153462,6,0,L|449:49,1,50,0|0
473,263,153962,5,0
444,221,154087,1,0
415,179,154212,1,8
266,200,154462,1,0
216,191,154587,2,0,L|76:165,1,100
67,165,154962,2,0,L|56:103,1,50
34,160,155212,2,0,L|10:280,1,100,8|0
14,258,155712,5,4
482,252,156283,1,0
350,324,156569,1,4
256,30,157140,1,0
237,128,157440,1,4
218,226,157740,1,0
200,324,158040,1,4
256,192,158190,12,0,163290
